#TITLE:Enjoy your life;
#SUBTITLE:;
#ARTIST:Mr.T plus H;
#TITLETRANSLIT:;
#SUBTITLETRANSLIT:;
#ARTISTTRANSLIT:;
#GENRE:;
#CREDIT:;
#MENUCOLOR:;
#METERTYPE:DDR;
#BANNER:Enjoy Your Life-bn.png;
#BACKGROUND:Enjoy Your Life-bg.png;
#LYRICSPATH:Enjoy Your Life.lrc;
#CDTITLE:DDREncore2.png;
#MUSIC:Enjoy your life.mp3;
#OFFSET:-0.583;
#SAMPLESTART:60.600;
#SAMPLELENGTH:12.000;
#SELECTABLE:YES;
#LISTSORT:;
#BPMS:0.000=80.000,16.000=160.000,48.000=80.000,80.000=160.000,144.000=80.000,160.000=160.000;
#STOPS:;
#BGCHANGES:;
#ATTACKS:;

//---------------dance-single - ----------------
#NOTES:
     dance-single:
     :
     Hard:
     8:
     0.521,0.489,0.046,0.202,0.156: // measure 1
0000
0000
0000
0000
,  // measure 2
0000
0000
0000
0000
,  // measure 3
0110
0000
0000
0000
0010
0000
0000
1000
0100
0000
0010
0000
0001
0000
0000
0000
,  // measure 4
1010
0000
0000
0000
0100
0000
0000
0001
0010
0001
1000
0000
0001
0010
0100
1000
,  // measure 5
0001
0100
0001
1000
0000
0100
0010
0000
,  // measure 6
0001
0010
0001
1000
0010
0100
0001
0010
,  // measure 7
0100
1000
0100
0010
0000
0001
1000
0000
,  // measure 8
0010
0100
0001
1000
0001
1000
0100
0010
,  // measure 9
0001
0000
1000
0010
0000
1000
0100
0100
,  // measure 10
0010
0000
0001
0000
0100
0000
0001
0000
1000
0000
0010
0000
0100
0010
0100
0000
,  // measure 11
0001
0000
0000
0000
1000
0000
0100
0000
0000
0000
0010
0000
0100
1000
0100
0000
,  // measure 12
1000
0001
0100
0100
0010
1000
0100
0000
,  // measure 13
2000
3020
2030
3002
,  // measure 14
2003
0000
3200
0000
1300
0100
1000
0002
,  // measure 15
0100
0000
1000
0000
0100
0003
0001
0000
,  // measure 16
0010
0000
1100
0000
0010
0001
1010
0000
,  // measure 17
0200
0302
2003
3200
,  // measure 18
0320
0000
0230
0000
1300
0100
1000
0002
,  // measure 19
0100
0100
1000
0000
0100
0103
0001
0000
,  // measure 20
0010
0000
0100
0000
1000
0000
0100
0000
0010
0001
0010
0001
1000
0010
0100
0001
,  // measure 21
1000
0000
0000
0000
0100
0000
0010
0001
0010
0000
0000
0001
0000
0000
1000
0000
,  // measure 22
0010
0000
0000
0000
0100
0000
0001
1000
0001
0000
0100
0000
0010
0000
1000
0000
,  // measure 23
0100
0000
0000
0000
0010
0000
0100
1000
0100
0000
0000
1000
0000
0000
0001
0000
,  // measure 24
0100
1000
0010
0001
,  // measure 25
0100
0010
1000
0100
0010
1000
0010
0001
,  // measure 26
0100
0000
0000
0010
0000
0000
0100
0000
0001
0000
0010
0000
0100
0000
1000
0000
,  // measure 27
0001
0010
0001
0100
0010
0001
0010
1000
,  // measure 28
0100
0000
0000
0010
0000
0000
0001
0000
0100
0000
0010
0000
1000
0000
0001
0000
,  // measure 29
0100
0000
0010
1000
0010
0000
1000
0001
1000
0000
0001
0000
0010
0000
0100
0000
,  // measure 30
1000
0000
0000
0001
0000
0000
0100
0000
0010
0000
0000
0000
0110
0000
0000
0000
,  // measure 31
0100
0001
1000
0100
0010
0001
0010
0100
,  // measure 32
1000
0010
0100
0001
0100
0010
1000
0100
,  // measure 33
0010
0000
0001
0010
0001
0000
0001
1000
0001
0000
0100
0000
0010
0000
1000
0000
,  // measure 34
0100
0010
0100
1000
0010
0100
0010
0100
,  // measure 35
0001
0010
0100
1000
0001
0100
0010
1000
,  // measure 36
0001
0001
1000
0010
0100
0000
0100
0000
,  // measure 37
0002
2003
3200
2300
,  // measure 38
3020
0000
0230
0000
0301
0100
0001
2000
,  // measure 39
0100
0100
0001
0000
0100
3100
1000
0000
,  // measure 40
0001
0000
0100
0000
0001
0000
1000
0000
0010
0100
0010
0100
0001
1000
0100
0010
,  // measure 41
0001
1000
0100
0000
1000
0001
0100
0000
,  // measure 42
0010
1000
0100
0000
0010
0001
0100
0000
,  // measure 43
0010
1000
0001
0010
0001
0100
0010
0000
,  // measure 44
1000
0100
0010
0001
1000
0001
0200
0000
,  // measure 45
0310
0000
1000
0000
0001
0000
0000
0001
0010
0000
0000
0010
0100
0000
0000
0000
,  // measure 46
1000
0000
0001
0000
0100
0000
0000
0100
0010
0000
0000
0010
1000
0000
0000
0000
,  // measure 47
0001
0000
0100
0000
0010
0000
0000
0010
1000
0000
0000
1000
0100
0000
0000
0000
,  // measure 48
0010
0000
0001
0000
1000
0000
0010
0100
0010
0000
1000
0000
0100
0000
0010
0000
,  // measure 49
0001
0100
0010
1000
0000
0010
1000
0100
,  // measure 50
0000
0010
0100
1000
0000
0001
0100
0010
,  // measure 51
0000
0100
0001
1000
0000
0001
1000
0100
,  // measure 52
0000
0010
0001
1000
0000
0010
0100
0001
,  // measure 53
0000
0010
0001
0010
0000
0100
1000
0100
,  // measure 54
0000
1000
0001
1000
0000
0001
0100
0001
,  // measure 55
0000
0100
0000
0010
0000
1000
0000
0001
,  // measure 56
0000
0010
0000
0100
0000
1000
0100
0010
;

//---------------dance-single - ----------------
#NOTES:
     dance-single:
     :
     Medium:
     6:
     0.376,0.437,0.166,0.249,0.000:
0000
0000
0000
0000
,
0000
0000
0000
0000
,
1001
0000
1000
0000
0010
0100
0010
0000
,
1000
0000
0001
0000
0010
0100
0010
0000
,
0001
0000
0100
0001
0000
1000
0100
0000
,
0010
0100
1000
0001
,
0100
0000
0010
1000
0000
0010
0100
0000
,
0001
0000
1000
0000
1000
0000
0010
0100
,
0010
0000
1000
0001
0000
0010
0100
0000
,
0100
0000
1000
0000
0001
0000
0100
0010
,
0100
0000
0001
0000
1000
0000
0001
1000
,
0001
1000
0010
0110
,
0200
0302
2003
3200
,
0320
0000
0230
0000
1300
0100
1000
0002
,
0000
0000
0100
0000
0000
0003
0001
0000
,
0000
0000
0010
0000
0100
1000
1001
0000
,
0020
0230
0320
2030
,
3002
0000
0023
0000
0031
0010
0100
2000
,
0001
0000
0010
0000
0001
3000
1001
0000
,
0001
0000
0011
0000
0001
1000
0010
0100
,
0001
0000
1000
0100
1000
0000
0010
0000
,
0100
0000
0001
1000
0001
0000
0010
0000
,
0100
0000
1000
0100
1000
0000
0001
0000
,
0100
1000
0100
0001
,
0010
0100
0001
0100
,
1000
0000
0001
0000
1000
0010
1000
0000
,
0010
0100
0001
1000
,
0100
0000
0010
0000
0100
1000
0100
1000
,
0001
0000
0100
0000
0010
0000
1000
0001
,
0010
0100
1000
1001
,
0001
1000
0100
0010
,
1000
0010
0100
1000
,
0010
0000
0100
0000
0010
0000
1000
0001
,
0010
0000
0100
0000
1000
0100
1000
0100
,
1000
0001
0100
0010
,
0100
0100
0000
0000
1001
0000
0000
0000
,
2000
3200
0320
0032
,
2003
0000
3020
0000
0130
0001
0100
0020
,
1000
0000
0100
0000
1000
0030
1010
0000
,
0100
0000
0101
0000
0001
1000
0100
0010
,
0002
0013
0200
1300
,
0002
0103
0020
1030
,
0020
0130
0020
1030
,
0001
0010
0001
0100
,
0010
1000
1001
0001
,
0010
0100
1100
1000
,
0001
0100
0110
0010
,
1000
0000
0001
0010
0001
0000
0100
0000
,
0010
1000
0010
0100
,
0001
1000
0100
0110
,
0010
0001
0010
0100
,
1000
0001
1000
1001
,
0001
0100
0010
0100
,
0001
1000
0100
0110
,
0000
0011
0000
1100
,
0000
0000
1001
0000
0100
0001
0010
0001
;

//---------------dance-single - ----------------
#NOTES:
     dance-single:
     :
     Easy:
     4:
     0.276,0.255,0.147,0.028,0.000:
0000
0000
0000
0000
,
0000
0000
0000
0000
,
1001
0001
0100
0010
,
1000
0001
0010
0001
,
1000
0100
1000
1001
,
0001
0100
0001
0000
,
1000
0100
0010
0110
,
0010
0001
0001
1000
,
0010
0100
0010
1000
,
0001
0010
0001
0100
,
0100
0010
1000
0001
,
0001
1000
0100
0010
,
0001
1000
0100
1000
,
0001
0000
0100
0000
0010
0100
0010
2000
,
0000
0000
0000
0000
0000
3000
1001
0000
,
0010
0110
1000
1001
,
0001
0010
0001
0100
,
0010
0000
1000
0000
0001
0010
0001
0200
,
0000
0000
0000
0000
0000
0300
0110
0000
,
0100
0000
1001
0000
0001
0000
0010
0100
,
1000
1001
0001
0100
,
0010
1000
0010
0100
,
0001
0000
0010
0000
,
0100
1000
0001
0100
,
0010
1000
0001
0010
,
0001
0000
0100
0010
,
1000
0100
1000
0010
,
0100
0000
0010
1000
,
0001
0001
1000
1000
,
0100
0010
0100
1000
,
0001
0100
0010
1000
,
0001
0010
0100
1000
,
0010
0010
0100
0100
,
0001
0010
0001
0001
,
0010
0100
1000
0010
,
0100
0000
1001
0000
,
0100
0010
0100
0001
,
1000
0000
0100
0000
0010
0100
1000
0002
,
0000
0000
0000
0000
0000
0003
1001
0000
,
0100
0000
0110
0000
0010
0000
1000
0001
,
0010
0010
0100
0100
,
1000
1000
0001
0001
,
0100
0100
0010
0010
,
1000
0100
0010
0001
,
1001
0000
0010
0100
,
0001
0000
0010
0100
,
1000
0000
0100
1000
,
0001
0100
0010
0100
,
0001
0010
0000
0100
,
0000
0010
0000
0001
,
0000
1000
0000
0010
,
0000
0100
0010
0100
,
0000
0001
0000
1000
,
0000
0100
0000
1000
,
0000
1001
0000
1001
,
0000
1001
0100
0000
;

//---------------dance-single - ----------------
#NOTES:
     dance-single:
     :
     Beginner:
     2:
     0.149,0.179,0.046,0.000,0.000:
0000
0000
0000
0000
,
0000
0000
0000
0000
,
1001
0000
0001
0000
,
1000
0000
0100
0100
,
0100
0000
1000
0000
,
0100
0000
0000
0000
,
1000
0000
0001
0000
,
1000
0000
0010
0000
,
0100
0000
0001
0000
,
0100
0000
0010
0000
,
1000
0000
0001
0000
,
1000
0000
0100
0000
,
1000
0000
0001
0000
,
0100
0000
0001
0000
,
0010
0000
0100
0000
,
0010
0000
0001
1000
,
1001
0000
0001
0000
,
0100
0000
0010
0000
,
1000
0000
0001
0000
,
0010
0000
0100
0100
,
0100
0000
1000
0000
,
0001
0000
0100
0100
,
0100
0000
0010
0000
,
1000
0000
0001
0000
,
0010
0000
0001
0000
,
0010
0000
0100
0000
,
1000
0000
0010
0000
,
0100
0000
0001
0000
,
1000
1000
1000
0000
,
0100
0000
0000
0000
,
0010
0000
0100
0000
,
1000
0000
0000
0000
,
0001
0001
0001
0000
,
0100
0000
0100
0000
,
0010
0000
1000
0000
,
0001
0000
1001
0000
,
1000
0000
0010
0000
,
1000
0000
0100
0000
,
0010
0000
0100
0000
,
1000
0000
0001
0001
,
0001
0000
0100
0000
,
0001
0000
1000
0000
,
0100
0000
1000
0000
,
0001
0000
0100
0000
,
0110
0000
0010
0000
,
1000
0000
0100
0000
,
1000
0000
0001
0000
,
0100
0000
0010
0000
,
0110
0000
0000
0000
,
0010
0000
1000
0000
,
0010
0000
0000
0000
,
0100
0000
0001
0000
,
0100
0000
0000
0000
,
0001
0000
1000
0000
,
0001
0000
0000
0000
,
0010
0000
0100
0000
;

//---------------dance-double - ----------------
#NOTES:
     dance-double:
     :
     Hard:
     9:
     0.527,0.514,0.166,0.193,0.179:
00000000
00000000
00000000
00000000
,
00000000
00000000
00000000
00000000
00000000
00000000
00000000
00000000
00000000
00000000
00000000
00000000
00000000
10000000
01000000
00100000
,
00001000
00000000
00000000
00000000
00010000
00000000
00000000
00000010
00000100
00000000
00000001
00000000
00001100
00000000
00000000
00000000
,
00001000
00000000
00000000
00000000
00000001
00000000
00000000
00000100
00001000
00010000
00100000
00000000
00000000
10000000
01000000
00100000
,
00001000
01000000
00001000
00010000
00000100
00000010
00000001
00000000
,
00000100
00000010
00000000
00000100
00000001
00000100
00000010
00001000
,
00100000
10000000
00100000
01000000
00010000
10000000
01000000
00000000
,
00100000
00000000
01000000
00000000
10000000
00000000
10000000
00000000
00010000
00000000
00010000
00000000
10000000
01000000
00100000
00000000
,
00010000
00000000
01000000
00001000
00000000
00010000
00000100
00000100
,
00001000
00000000
00000001
00000000
00001000
00000010
00000100
00000000
00000001
00000000
00001000
00000000
00000100
00010000
00001000
00000000
,
01000000
00000000
00000000
00000000
00100000
00000000
10000000
00000000
00000000
00000000
00010000
00000000
00100000
01000000
00100000
00000000
,
01000000
00000000
10000000
00000000
00010000
00000000
00010000
00000000
10000000
00100000
01000000
00000000
10010000
00000000
00000000
00000000
,
02000000
03200000
20300000
32000000
,
03020000
00000000
00032000
00000000
00003010
00000100
00001000
00000020
,
00000100
00000000
00010000
00000000
00000100
00000030
00000010
00000000
,
00001000
00000100
00000010
00000000
00000001
00000100
00000010
00000000
00000001
00000000
00000010
00000000
00001000
00000000
00100000
00000000
,
20000000
30200000
02300000
03020000
,
20030000
00000000
32000000
00000000
03010000
01000000
00010000
00002000
,
00000010
00000010
00010000
00000000
00000010
00003010
00001000
01000000
,
00100000
00000000
10000000
00000000
00010000
00000000
00100000
00000000
01000000
10000000
01000000
00100000
00010000
00000010
00000001
00001000
,
00000010
00000000
00000000
00000000
00010000
00000000
00000010
00000100
00000010
00000000
00001000
00000001
00000000
00000000
00000010
00000000
,
00000100
00000000
00000000
00000000
00010000
00000000
00001000
01000000
00001000
00000000
01000000
00000000
00100000
00000000
10000000
00000000
,
01000000
00000000
00000000
00000000
00100000
00000000
00001000
01000000
00001000
00000000
00010000
00000100
00000000
00000000
00000010
00000000
,
00000001
00000100
00001000
00000010
,
00000001
00000010
00000100
00001000
00000001
00000100
00001000
01000000
,
00100000
00000000
00000000
10000000
00000000
00000000
00010000
00000000
00100000
00000000
00001000
00000000
00010000
00000000
00000100
00000000
,
00000010
00000001
00000010
00000100
00001000
00000001
00000100
00001000
,
00010000
00000000
00000000
00100000
00000000
00000000
01000000
00000000
00100000
00000000
10000000
00000000
01000000
00000000
00100000
00000000
,
00010000
00000000
00100000
00001000
00100000
00000000
00001000
00010000
00001000
00000000
00010000
00000000
00000010
00000000
00000100
00000000
,
00000001
00000000
00001000
00000100
00000000
00000000
00010000
00000000
00001000
00000000
00000000
00000000
01000000
00000000
00000000
00000000
,
00100000
10000000
01000000
00100000
00010000
00000010
00000100
00010000
,
00001000
01000000
00100000
10000000
00010000
01000000
00001000
01000000
,
00001000
00000000
00010000
00001000
00010000
00000000
00010000
00000100
00010000
00000000
00000100
00000000
00000010
00000000
00000001
00000000
,
00001000
00000010
00000010
00000100
00000001
00001000
00000001
00001000
,
00000100
00000010
00001000
00000010
00000100
00010000
00001000
01000000
,
00100000
01000000
00000000
00000000
00000000
00000000
00000000
00000000
10010000
00000000
00000000
00000000
00000000
00000000
00000000
00000000
,
20000000
32000000
03020000
00032000
,
00003020
00000000
00000032
00000000
00001003
00000010
00010000
00002000
,
00010000
00010000
00100000
00000000
00010000
00013000
00001000
01000000
,
00100000
00000000
10000000
00000000
00010000
00000000
00100000
00000000
01000000
10000000
01000000
10000000
00010000
01000000
00001000
00010000
,
00000100
00000010
00000001
00000000
00001000
00000010
00010000
00000000
,
00001000
01000000
00100000
01000000
00010000
10000000
01000000
00000000
,
00100000
01000000
10000000
00000000
00010000
01000000
00100000
00000000
,
01000000
00001000
00010000
00000100
00000010
00000100
00010000
00001000
,
01000000
00000000
00001000
00000000
00010000
00000000
00000000
00000100
00001000
00000000
00000000
00000000
00001000
00000000
00000000
00000000
,
00000001
00000000
00000100
00000000
00000010
00000000
00000000
00010000
00000100
00000000
00000000
00000000
00000100
00000000
00000000
00000000
,
00010000
00000000
00001000
00000000
01000000
00000000
00000000
00100000
10000000
00000000
00000000
00000000
10000000
00000000
00000000
00000000
,
00010000
00000000
10000000
00000000
01000000
00000000
00100000
00001000
00010000
00000000
00000000
00000000
00010000
00000000
00000000
00000000
,
00001000
01100000
00001000
00000110
,
00010000
01100000
00010000
00000110
,
00001000
01010000
00001000
00001100
,
00010000
01010000
00010000
00001100
,
00000010
00001001
00000100
00001001
,
00001000
00101000
00010000
00010100
,
00000000
00000011
00000000
00000101
,
00000000
00000000
00001010
00000000
00000000
00010000
00001000
01000000
;

//---------------dance-double - ----------------
#NOTES:
     dance-double:
     :
     Medium:
     6:
     0.376,0.463,0.166,0.193,0.018:
00000000
00000000
00000000
00000000
,
00000000
00000000
00000000
00000000
,
10010000
00000000
00100000
00000000
01000000
00000000
00010000
00010000
,
00100000
00001000
00010000
00000010
,
00000100
00000000
00000001
00000010
00000000
00000100
00010000
00000000
,
00001000
01000000
00100000
10100000
,
10000000
00000000
00010000
00100000
00000000
00010000
01000000
00000000
,
00001000
00000000
00010000
00001000
00010000
00001000
00000010
00000000
,
00000100
00000000
00001000
00000001
00000000
00000100
00000010
00000000
,
00000100
00000000
00000001
00000000
00000010
00000000
00000100
00010000
,
00000100
00000000
00010000
00000000
00001000
00000000
01000000
00100000
,
01000000
00100000
10000000
10010000
,
20000000
32000000
23000000
30020000
,
02030000
00000000
03002000
00000000
00013000
00000100
00000010
00000002
,
00000100
00000000
00000010
00000000
00000100
00000003
00000001
00000000
,
00000010
00000100
00011000
00000000
01000000
00100000
00011000
00000000
,
00201000
02300000
23000000
30020000
,
02030000
00000000
03200000
00000000
10300000
00100000
01000000
00002000
,
00010000
00000000
01000000
00000000
00010000
00003000
00001000
00000000
,
00100000
00000000
01000000
00000000
10000000
00000000
00010000
00000000
01000000
00000000
00100000
00000000
10000000
00010000
10000000
00010000
,
00100000
00000000
00010000
01000000
00010000
00000000
00100000
00000000
,
01000000
00000000
10000000
00010000
10000000
00000000
00100000
00000000
,
01000000
00000000
00001000
00010000
00001000
00000000
00010000
00000000
,
00000100
00000001
00000100
00001000
,
00000001
00000100
00000010
00010000
,
00000010
00000000
00000100
00000000
00000001
00001000
00000001
00001000
,
00000100
00010000
00001000
01000000
,
00100000
00000000
10000000
00000000
00010000
00100000
00010000
00100000
,
00001000
00000000
00010000
00000000
00000010
00000000
00000100
00000010
,
00000100
00000001
00001000
00010100
,
00001000
01000000
00100000
10000000
,
00010000
00100000
00001000
00000010
,
00000100
00000000
00001000
00000000
00000001
00000000
00000100
00000010
,
00000100
00000000
00000001
00000000
00001000
00000100
00001000
00000100
,
00010000
00001000
01000000
00100000
,
10000000
10000000
00000000
00000000
00110000
00000000
00000000
00000000
,
02000000
23000000
30020000
02030000
,
03002000
00000000
00023000
00000000
00030100
00000010
00000001
00000200
,
00000010
00000000
00001000
00000000
00000010
00000300
00000100
00000000
,
00000010
00000000
00001000
00000000
00000100
00000000
00010000
00000000
00001000
00000000
01000000
00000000
00001000
00010000
00001000
00010000
,
00000100
00000001
00000100
00010000
,
00001000
01000000
10000000
01000000
,
00001000
00100000
01000000
10000000
,
00010000
01000000
00001000
00010000
,
00000100
00000000
00000010
00000001
00000100
00000000
00000100
00000000
,
00000010
00000000
00001000
00000100
00010000
00000000
00010000
00000000
,
00001000
00000000
01000000
00100000
10000000
00000000
10000000
00000000
,
00010000
00000000
00100000
00001000
00010000
00000000
00010000
00000000
,
00000100
00000110
00000000
00001100
,
00000000
00001001
00000000
00000101
,
00000000
00000110
00000000
00001010
,
00000000
00001000
00000100
00010000
,
00000000
00011000
00000000
01001000
,
00000000
01010000
00000000
01100000
,
00000000
00100000
00000000
10000000
,
00000000
00000000
00010000
00000000
00100000
00001000
00010000
00000010
;

//---------------dance-double - ----------------
#NOTES:
     dance-double:
     :
     Easy:
     4:
     0.296,0.434,0.083,0.221,0.000:
00000000
00000000
00000000
00000000
,
00000000
00000000
00000000
00000000
,
10010000
00010000
00100000
01000000
,
10000000
00000000
00010000
00000000
01000000
00000000
00001000
00010000
,
00001000
00010000
00000100
00000010
,
00000001
00000000
00000100
00000000
,
00000010
00001000
00000100
00000010
,
00000100
00010000
00010000
00001000
,
01000000
00100000
01000000
00010000
,
00010000
10000000
01000000
00100000
,
00001000
00010000
00001000
01000000
,
01000000
00100000
10000000
00010000
,
00200000
00302000
00023000
00030020
,
00002030
00003200
00000320
00000032
,
00001003
00000100
00000010
00000110
,
00000100
00000000
00010000
00000000
00001000
00000000
01000000
00100000
,
20000000
30020000
00230000
00320000
,
02030000
03002000
00023000
00032000
,
01003000
00100000
10000000
10010000
,
00010000
00000000
00100000
00000000
00001000
00000000
00010000
00001000
,
00010000
00000000
00000010
00000100
,
00000001
00000000
00000010
00000100
,
00010000
00000000
00001000
00000000
,
01000000
00100000
01000000
00010000
,
00100000
01000000
10000000
01000000
,
00100000
00000000
00001000
00010000
,
00000010
00000100
00000010
00001000
,
00000100
00000000
00010000
00001000
,
01000000
00100000
01000000
00100000
,
10000000
00000000
00010000
10010000
,
10000000
00100000
01000000
00010000
,
00100000
00001000
00010000
00000100
,
00001000
00000001
00001000
00000001
,
00000100
00000010
00001000
00001000
,
00000100
00010000
00001000
01000000
,
00100000
00100000
00000000
00000000
10010000
00000000
00000000
00000000
,
20000000
32000000
23000000
30020000
,
02030000
03002000
00023000
00030200
,
00000310
00000001
00001000
00001010
,
00000100
00000000
00000001
00000000
00001000
00000000
00000100
00010000
,
00000100
00000100
00010000
00010000
,
00001000
00001000
01000000
01000000
,
00100000
00100000
01000000
01000000
,
00010000
10000000
01000000
00100000
,
00010000
10000000
00100000
00000000
,
01000000
00010000
00100000
00000000
,
00001000
00010000
00000010
00000000
,
00000100
00000001
00000010
00000000
,
00000100
00001000
00000000
00000010
,
00000000
00001000
00000000
00000100
,
00000000
00010000
00000000
00001000
,
00000000
01000000
00100000
10000000
,
00000000
00010000
00000000
00100000
,
00000000
00001000
00000000
00010000
,
00000000
00011000
00000000
00011000
,
00000000
00011000
01000000
00000000
;
