#TITLE:Earth, Wind, Water & Fire;
#SUBTITLE:;
#ARTIST:Toy Box;
#TITLETRANSLIT:;
#SUBTITLETRANSLIT:;
#ARTISTTRANSLIT:;
#GENRE:;
#CREDIT:;
#MENUCOLOR:;
#METERTYPE:DDR;
#BANNER:Earth, Wind, Water & Fire-bn.png;
#BACKGROUND:Earth, Wind, Water & Fire-bg.png;
#LYRICSPATH:;
#CDTITLE:ddrencorecdtitle.png;
#MUSIC:Earth, Wind, Water & Fire.mp3;
#OFFSET:-0.022;
#SAMPLESTART:54.903;
#SAMPLELENGTH:13.735;
#SELECTABLE:YES;
#LISTSORT:;
#BPMS:0.000=139.999,160.000=69.999,176.000=104.999,200.000=139.999;
#STOPS:;
#BGCHANGES:;
#ATTACKS:;

//---------------dance-double - ----------------
#NOTES:
     dance-double:
     :
     Hard:
     8:
     0.471,0.497,0.150,0.142,0.308:
00000000
00000000
00000000
00000000
,
00000000
00000000
00000000
00000000
,
00000000
00000000
00000000
00000000
,
00000000
00000000
00000000
00000000
,
00000000
00000000
00000000
00000000
,
00000000
00000000
00000000
00000000
,
00000000
00000000
00000000
00000000
,
00000000
00000000
00000000
00000000
00000000
00000000
00000000
00000000
00000000
00000000
00000000
00000000
00000001
00001000
00000001
00001000
,
00000001
00000100
00000010
00010000
00000100
00010000
00001000
02000000
,
00000000
00100000
00000000
10000000
00000000
03010000
00100000
00001000
,
00010000
00000100
00010000
00000010
00000100
00000001
00000100
00000010
,
00000000
00010010
00000000
00011000
00000000
00001000
00100000
00010000
,
01000000
00001000
01000000
00100000
10000000
01000000
10000000
00020000
,
00000000
01000000
00000000
00100000
00000000
10030000
00010000
00100000
,
00001000
01000000
00001000
00010000
00000100
00000010
00000001
00001000
,
00000000
00000000
00001010
00000000
00000000
00000000
00000101
00000000
00000100
00000000
00000010
00000000
00001000
00000000
00000000
00000001
,
00000100
00000000
00001000
00000000
00000100
00000000
00000000
00000010
00010000
00000000
00001000
00000000
00100000
00000000
00000000
00010000
,
01000000
00000000
10000000
00000000
01000000
00000000
00010000
00000000
00100000
00000000
00000000
00000000
00010000
00000000
00000000
10000000
,
01000000
00000000
00010000
00000000
01000000
00000000
00000000
00100000
00001000
00000000
00010000
00000000
00000100
00000000
00000000
00001000
,
00000100
00000001
00000100
00001000
00000010
00000000
00000100
00000000
,
00000001
00000100
00000001
00000100
00000010
00001000
00000100
00000000
,
00010000
00001000
01000000
00100000
01000000
00001000
00010000
00000000
,
00001000
00100000
00010000
00100000
00001000
00010000
00000100
00000000
,
00000010
00000001
00001000
00000100
00010000
00000000
00000010
00000000
,
00000100
00000010
00010000
00001000
00000000
00011000
00000000
00020000
,
00000000
00000100
00030100
00010000
00001000
01000000
00010000
01000000
,
00100000
10000000
00010000
00100000
00000000
01100000
00000000
00200000
,
00000000
00001000
00301000
00010000
00000100
00010000
00001000
01000000
,
00010000
00100000
00001000
00010000
00000000
00011000
00000000
00020000
,
00000000
00000010
00030010
00000100
00000001
00000100
00000010
00010000
,
00001000
00000000
00100000
01000000
00000000
10000000
00100000
00010000
,
00001000
00000100
00000001
00000000
00000000
00000100
00000010
00000000
,
00020000
00000000
00030200
00000000
00010300
00001000
01000000
00100000
,
00000000
10100000
00000000
00010000
00000000
00100000
00010000
10000000
,
01000000
00000000
00100000
00010000
01000000
00001000
00010000
00000200
,
00000000
00000000
00000000
00000000
00000310
00000001
00001000
00000010
,
00020000
00000000
00030200
00000000
00001300
00000100
00010000
00001000
,
00000000
00100000
00000000
10010000
00000000
00100000
01000000
00010000
,
00100000
00000000
00001000
00010000
00000100
00000010
00000001
00002000
,
00000000
00000010
00000000
00003001
00000100
00000010
00001000
00000000
,
00000001
00000000
00001000
00000100
00000000
00000000
00000010
00000100
00000000
00000000
00000000
00010000
00000000
00001000
00000000
01000000
,
00100000
00000000
00000000
00000000
10000000
00000000
00010000
00000000
00000000
00000000
00000000
00000000
00100000
00000000
00001000
00000000
00000000
00000000
00000000
00000000
00000000
00000000
00000000
00000000
00000000
00000000
00000000
00000000
10000000
00100000
01000000
00010000
,
10000000
00000000
00000000
00000000
00000000
00000000
01000000
00100000
00000000
00000000
00000000
00000000
00000000
00000000
00001000
00010000
,
00000000
00000000
00000000
00000000
00000010
00000000
00000100
00000000
00000000
00000000
00000000
00000000
00000001
00000000
00001000
00000000
00000000
00000000
00000000
00000000
00000100
00000000
00010000
00000000
00000000
00000000
00000000
00000000
00001000
00010000
00000100
00001000
,
00000010
00000000
00000000
00000000
00000000
00000000
00000100
00000000
00000000
00000000
00000000
00000000
00000001
00000000
00000000
00000000
00000000
00000000
00000000
00000000
00000000
00001000
00000000
00000000
00000000
00000000
00000000
00000000
00000000
00000000
00000010
00000000
00000000
00000000
00000000
00000000
00010000
00000000
00000000
00000000
00000000
00000000
00000000
00000000
00000000
00000100
00000000
00000000
00000000
00000000
00000000
00000000
00000000
00000000
00001000
00000000
00000000
00000000
00000000
00000000
00000001
00000000
00000000
00000000
,
00000000
00000000
00000000
00000000
00000000
00000010
00000000
00000000
00000000
00000000
00000000
00000000
00000000
00000000
00000100
00000000
00000000
00000000
00000000
00000000
00001000
00000000
00000000
00000000
00000000
00000000
00000010
00000000
00000000
00000000
00000000
00000000
00000010
00000000
00000000
00000000
00000000
00000000
00000100
00000000
00000000
00000000
00000000
00000000
00000001
00000000
00000000
00000000
00000000
00000000
00000000
00000000
00000000
00001000
00000000
00000000
00000000
00000000
00000000
00000000
00000000
00000000
00000010
00000000
,
00000000
00000000
00000000
00000000
00010000
00000000
00000000
00000000
00000000
00000000
00000000
00000000
00000000
00001000
00000000
00000000
00000000
00000000
00000000
00000000
00000000
00000000
00100000
00000000
00000000
00000000
00000000
00000000
00010000
00000000
00000000
00000000
00000000
00000000
00000000
00000000
00000000
01000000
00000000
00000000
00000000
00000000
00000000
00000000
00000000
00000000
00100000
00000000
00000000
00000000
00000000
00000000
10000000
00000000
00000000
00000000
00000000
00000000
00010000
00000000
00000000
00000000
00000000
00000000
,
00010000
00000000
00000000
00000000
00000000
00000000
01000000
00000000
00000000
00000000
00000000
00000000
00010000
00000000
00000000
00100000
00000000
00000000
00001000
00000000
00000000
00010000
00000000
00000000
00010000
00000000
00000000
00000100
00000000
00000000
00000000
00000000
,
00000000
00001001
00000000
00000000
00000000
00000000
00000000
00000010
00000000
00000000
00000100
00000000
00000000
00001000
00000000
00000000
00001000
00000000
00000000
00000000
00000000
00000000
00000010
00000000
00000000
00000000
00000000
00000000
00010000
00000000
00000000
00001000
,
00000000
00000000
00100000
00000000
00000000
00010000
00000000
00000000
01000000
00000000
00000000
00100000
00000000
00000000
00000000
00000000
00000000
10000000
00000000
00000000
00100000
00000000
00000000
01000000
00000000
00000000
00010000
00000000
00000000
00100000
00000000
00000000
,
02000000
00000000
00000000
00000000
00000000
00000000
00000000
03000000
20000000
00000000
00000000
00000000
00000000
00000000
00000000
00000000
30010000
00000000
00000000
00000000
00100000
00000000
00000000
00000000
00001000
00000000
00000000
00000000
01000000
00000000
00000000
00000000
,
00000000
00011000
00000000
00000100
00000000
00000010
00000001
00001000
,
00000010
00000000
00000100
00000001
00000100
00000010
00010000
00000200
,
00000000
00000000
00000000
00000000
00000000
00010300
00000100
00001000
,
00000001
00000000
00000100
00000010
00010000
00001000
00100000
00010000
,
00000000
01100000
00000000
00010000
00000000
00100000
00001000
00010000
,
00000100
00000000
00010000
00000000
00001000
01000000
00100000
20000000
,
00000000
00000000
00010000
00000000
00000000
00000000
30010000
00000000
00100000
00000000
01000000
00000000
10000000
00000000
00000000
10000000
,
00010000
00000000
01000000
00000000
10000000
00000000
00000000
10000000
01000000
00000000
00100000
00000000
10000000
00000000
00000000
00010000
,
00000000
00000000
00110000
00000000
00000000
00000000
00101000
00000000
00000000
00000000
00010000
00000000
00000100
00000000
00000000
00000100
,
00001000
00000000
00000010
00000000
00000001
00000000
00000000
00000001
00000010
00000000
00000100
00000000
00000001
00000000
00000000
00000010
,
00000000
00010100
00000000
00011000
00000000
00101000
00220000
00000000
,
00000000
00000000
00000000
00330000
;

//---------------dance-single - ----------------
#NOTES:
     dance-single:
     :
     Hard:
     8:
     0.501,0.523,0.292,0.092,0.333: // measure 1
0000
0000
0000
0000
,  // measure 2
0000
0000
0000
0000
,  // measure 3
0000
0000
0000
0000
,  // measure 4
0000
0000
0000
0000
,  // measure 5
0000
0000
0000
0000
,  // measure 6
0000
0000
0000
0000
,  // measure 7
0000
0000
0000
0000
,  // measure 8
0000
0000
0000
0000
0000
0000
0000
0000
0000
0000
0000
0000
0100
0001
0100
0001
,  // measure 9
0100
0000
0010
0000
1000
0000
0000
0100
1000
0000
0010
0000
0100
0000
0002
0000
,  // measure 10
0000
0010
0000
1000
0000
0103
0001
0010
,  // measure 11
0100
0000
0000
0000
1001
0000
0000
0100
0010
0000
0001
0000
1000
0000
1100
0000
,  // measure 12
0000
0011
0000
0110
0000
0100
1000
0010
,  // measure 13
0100
0000
0000
0000
0010
0000
0000
0010
1000
0000
0100
0000
0010
0000
0200
0000
,  // measure 14
0000
1000
0000
0001
0000
0310
0100
1000
,  // measure 15
0001
0000
0000
0000
1100
0000
0000
0001
1000
0000
0010
0000
0100
0000
0001
0000
,  // measure 16
0000
0000
0011
0000
0000
0000
1000
0000
0100
0000
0100
0000
0011
0000
0000
0100
,  // measure 17
1000
0000
0001
0000
1000
0000
0010
0100
0010
0000
1000
0000
0001
0000
0010
0001
,  // measure 18
0010
0000
0100
0000
1000
0000
0010
0000
0100
0000
0000
0000
1001
0000
0000
0100
,  // measure 19
0010
0000
1000
0000
0100
0000
1000
0001
1000
0000
0001
0000
0010
0000
0100
0010
,  // measure 20
0100
1000
0001
0100
0010
0000
1001
0000
,  // measure 21
0100
0101
0100
0101
0001
1000
0100
0000
,  // measure 22
1000
0100
1100
0100
0010
0001
0101
0000
,  // measure 23
0010
1000
0100
0001
0100
1000
0010
0000
,  // measure 24
0100
0000
0010
0000
1000
0000
0000
0100
0020
0000
0001
0000
0001
0000
0031
0000
,  // measure 25
1000
0000
0000
1010
0000
1001
0000
0100
,  // measure 26
0000
0010
1000
0100
0001
0100
0010
1000
,  // measure 27
0010
0001
0100
0011
0000
1001
0000
0100
,  // measure 28
0000
0010
1000
0010
0100
1000
0001
0010
,  // measure 29
0100
0001
1000
0101
0000
1001
0000
0100
,  // measure 30
0000
0001
0010
0100
0001
1000
0010
0100
,  // measure 31
1000
0000
0010
0100
0000
0001
1000
0010
,  // measure 32
0100
0001
0010
0000
0100
1000
0001
0000
,  // measure 33
2000
0000
3002
0000
0103
0010
1000
0001
,  // measure 34
0000
0011
0000
0100
1000
0010
0100
0001
,  // measure 35
0010
0000
0100
0010
0001
0100
1000
0200
,  // measure 36
0000
0000
0000
0000
0310
1000
0001
0010
,  // measure 37
0100
0000
1000
0000
0010
0000
0000
0100
0010
0000
1000
0000
0001
0000
0010
0000
,  // measure 38
0000
0011
0000
0100
1000
0010
0100
0001
,  // measure 39
1000
0000
0010
0100
0001
1000
0100
0010
,  // measure 40
0000
1001
0000
1000
0010
0100
1000
0100
,  // measure 41
0010
0000
1000
0010
0000
0000
0100
0001
0000
0000
0000
0011
0000
1001
0000
0010
,  // measure 42
0100
0000
0000
0000
1000
0000
0010
0000
0000
0000
0000
0000
0100
0000
0001
0000
0000
0000
0000
0000
0000
0000
0000
0000
0000
0000
0000
0000
0001
0100
0010
1000
,  // measure 43
0100
0000
1000
0000
0000
0000
0001
0100
0000
0000
0010
0000
0000
0000
1000
0100
,  // measure 44
0000
0000
0000
0000
0010
0000
0001
0000
0000
0000
0000
0000
0100
0000
0010
0000
0000
0000
0000
0000
1000
0000
0001
0000
0000
0000
0000
0000
0010
0100
0010
0001
,  // measure 45
1000
0000
0000
0000
0000
0000
0100
0000
0000
0000
0000
0000
0010
0000
0000
0000
0000
0000
0000
0000
0000
0100
0000
0000
0000
0000
0000
0000
0000
0000
0010
0000
0000
0000
0000
0000
0001
0000
0000
0000
0000
0000
0000
0000
0000
0100
0000
0000
0000
0000
0000
0000
0000
0000
0010
0000
0000
0000
0000
0000
1000
0000
0000
0000
,  // measure 46
0000
0000
0000
0000
0000
0001
0000
0000
0000
0000
0000
0000
0000
0000
0010
0000
0000
0000
0000
0000
0100
0000
0000
0000
0000
0000
1000
0000
0000
0000
0000
0000
0001
0000
0000
0000
0000
0000
0010
0000
0000
0000
0000
0000
0100
0000
0000
0000
0000
0000
0000
0000
0000
1000
0000
0000
0000
0000
0000
0000
0000
0000
0010
0000
,  // measure 47
0000
0000
0000
0000
0100
0000
0000
0000
0000
0000
0000
0000
0000
0001
0000
0000
0000
0000
0000
0000
0000
0000
0010
0000
0000
0000
0000
0000
0001
0000
0000
0000
0000
0000
0000
0000
0000
0100
0000
0000
0000
0000
0000
0000
0000
0000
0010
0000
0000
0000
0000
0000
1000
0000
0000
0000
0000
0000
0001
0000
0000
0000
0000
0000
,  // measure 48
0010
0000
0000
0000
0000
0000
0001
0000
0000
0000
0000
0000
0100
0000
0000
0010
0000
0000
1000
0000
0000
0100
0000
0000
1000
0000
0000
0010
0000
0000
0000
0000
,  // measure 49
0000
1000
0000
0000
0000
0000
0000
0010
0000
0000
0100
0000
0000
0001
0000
0000
0010
0000
0000
0100
0000
0000
0010
0000
0000
0000
0000
0000
0001
0000
0000
1000
,  // measure 50
0000
0000
0010
0000
0000
0100
0000
0000
0001
0000
0000
1000
0000
0000
0000
0000
0000
0001
0000
0000
0100
0000
0000
0001
0000
0000
1000
0000
0000
0000
0000
0000
,  // measure 51
0020
0000
0230
0000
0301
0010
0100
1000
,  // measure 52
0000
0010
0000
1001
0000
0100
0001
0010
,  // measure 53
0100
0000
0010
0001
1000
0010
0001
0020
,  // measure 54
0000
1000
0000
1030
0001
0010
0100
1000
,  // measure 55
0010
0000
0100
0001
0010
0100
1000
0010
,  // measure 56
0000
0100
0000
0011
0000
0100
0010
0001
,  // measure 57
0100
1000
0100
0010
1000
0001
0010
0100
,  // measure 58
0000
0000
0011
0000
0000
0000
0100
0000
0010
0000
1000
0000
0001
0000
0000
0100
,  // measure 59
0001
0000
0010
0000
1000
0000
0000
0010
0001
0000
0100
0000
0010
0000
0000
1010
,  // measure 60
0000
0000
0101
0000
0000
0000
1001
0000
0000
0000
0010
0000
0100
0000
0000
0001
,  // measure 61
0010
0000
1000
0000
0010
0000
0000
0100
1000
0000
0010
0000
0001
0000
0000
0110
,  // measure 62
0000
0101
0000
1010
0000
0011
2002
0000
,  // measure 63
0000
0000
0000
3003
;

//---------------dance-single - ----------------
#NOTES:
     dance-single:
     :
     Medium:
     5:
     0.286,0.340,0.108,0.117,0.008:
0000
0000
0000
0000
,
0000
0000
0000
0000
,
0000
0000
0000
0000
,
0000
0000
0000
0000
,
0000
0000
0000
0000
,
0000
0000
0000
0000
,
0000
0000
0000
0000
,
0000
0000
0000
0000
,
0001
0000
0010
0000
0001
0000
0100
0010
,
0000
1000
0000
0001
0000
0010
0100
0000
,
0010
0000
0001
0000
1000
0000
0010
0100
,
0000
0001
0000
1000
0000
0010
1000
0001
,
0100
0000
0010
0000
1000
0000
0001
0010
,
0000
0100
0000
0010
0000
0001
1000
0000
,
0010
0000
0100
0000
0001
0000
1000
0010
,
0000
0100
0000
0001
0100
0000
0100
0000
,
0002
0000
2003
0000
,
3100
0010
0001
0000
,
2000
0000
3020
0000
,
0130
0001
1000
0000
,
0100
0000
1000
0000
0010
0100
0001
0000
,
0010
0000
0100
0000
0010
0001
1000
0000
,
0010
0000
0010
0000
0100
0001
0100
0000
,
0001
0000
1000
0100
0010
0000
0000
0000
,
0001
0000
0000
1001
0000
1001
0000
0000
,
0010
0100
0001
1000
,
0100
0000
0000
0110
0000
0110
0000
0000
,
0010
0001
1000
0010
,
0100
0000
0000
1001
0000
1001
0000
0000
,
0010
0100
0001
1000
,
0100
0000
0000
1000
0000
1000
0100
0010
,
0001
1000
0001
0000
0000
0000
0100
0000
,
0020
0000
0230
0000
0301
0000
1000
0100
,
0000
0010
0000
0001
0000
1000
0100
0000
,
1000
0000
0010
0000
0100
0000
0001
1000
,
0000
0000
0001
0010
,
0002
0000
2003
0000
3010
0000
0100
0001
,
0000
0010
0000
0001
0000
0100
0010
0000
,
1000
0000
0100
0000
0010
0000
0001
1000
,
0000
0000
0010
0100
,
0001
1000
0000
0010
0000
1000
0000
0001
,
0000
0010
0000
0001
0000
1000
0000
0010
,
0100
0001
0000
0010
0000
0100
0000
0010
,
0000
0001
0000
1000
0000
0010
0000
0100
,
0001
0000
0000
1000
,
0000
0000
0000
0000
0000
0000
0000
0000
0000
0000
0000
0000
0000
0100
0000
0000
0100
0000
0000
0000
0000
0000
0000
0000
0000
0000
0000
0000
0000
0000
0000
0000
,
0000
0010
0000
0000
,
1001
0000
0000
0110
,
0000
0000
0000
0000
1010
0000
0000
0101
,
0000
0000
0000
0000
1001
0000
0000
0000
0000
0000
1000
0000
0000
0010
0000
0000
,
0200
0000
0302
0000
1003
0000
0100
0010
,
0000
0001
0000
1000
0000
0010
0100
0010
,
1000
0000
0001
0000
0010
0000
0100
1000
,
0000
0000
0000
0000
0000
0010
1000
0010
,
0200
0000
0302
0000
0013
0000
0100
1000
,
0000
0001
0000
0100
0000
0010
1000
0010
,
0100
0000
0001
0000
0010
0000
0100
1000
,
0000
0000
0010
0100
,
0001
0010
0001
0000
1000
0010
1000
0000
,
0100
0010
0100
1001
,
0100
1000
0100
0000
0010
0001
0010
0000
,
0100
1000
0001
0220
,
0000
0000
0000
0330
;

//---------------dance-single - ----------------
#NOTES:
     dance-single:
     :
     Beginner:
     1:
     0.094,0.209,0.033,0.008,0.000:
0000
0000
0000
0000
,
0000
0000
0000
0000
,
0000
0000
0000
0000
,
0000
0000
0000
0000
,
0000
0000
0000
0000
,
0000
0000
0000
0000
,
0000
0000
0000
0000
,
0000
0000
0000
0000
,
1000
0000
0000
0000
,
0000
0000
0000
0000
,
0001
0000
0000
0000
,
0000
0000
0000
0000
,
0100
0000
0000
0000
,
0000
0000
0000
0000
,
0010
0000
0000
0000
,
0000
0000
0000
0000
,
1000
0000
1000
0000
,
0001
0000
0000
0000
,
0001
0000
0001
0000
,
0010
0000
0000
0000
,
0100
0000
1000
0000
,
0100
0000
0010
0000
,
0001
0000
1000
0000
,
0010
0000
0000
0000
,
0100
0000
0000
0000
,
0010
0000
1000
0000
,
0001
0000
0000
0000
,
0010
0000
0100
0000
,
1000
0000
0000
0000
,
0010
0000
1000
0000
,
0001
0000
0000
0000
,
0000
0000
0000
0000
,
1000
0000
0100
0000
,
1000
0000
0010
0000
,
0100
0000
0001
0000
,
0010
0000
0000
0000
,
0001
0000
0100
0000
,
0010
0000
1000
0000
,
0100
0000
0010
0000
,
0001
0000
0000
0000
,
1000
0000
0000
0000
,
0000
0000
0000
0000
,
0001
0000
0000
0000
,
0000
0000
0000
0000
,
1000
0000
0000
0100
,
0000
0000
1000
0000
,
0000
0010
0000
0000
,
0100
0000
0000
0100
,
0000
0000
0010
0000
,
0000
1000
0000
0000
,
0001
0000
0010
0000
,
0001
0000
0100
0000
,
0010
0000
1000
0000
,
0100
0000
0000
0000
,
1000
0000
0100
0000
,
1000
0000
0010
0000
,
0100
0000
0001
0000
,
1000
0000
0000
0000
,
1001
0000
1001
0000
,
0010
0000
0100
0000
,
1001
0000
1001
0000
,
0010
0000
0100
0200
,
0000
0000
0000
0300
;

//---------------dance-single - ----------------
#NOTES:
     dance-single:
     :
     Easy:
     3:
     0.217,0.261,0.042,0.083,0.004:
0000
0000
0000
0000
,
0000
0000
0000
0000
,
0000
0000
0000
0000
,
0000
0000
0000
0000
,
0000
0000
0000
0000
,
0000
0000
0000
0000
,
0000
0000
0000
0000
,
0000
0000
0000
0000
,
1000
0100
1000
0010
,
0100
0001
1000
0100
,
0010
0001
1000
0010
,
0100
0000
0100
0000
,
0010
1000
0001
0010
,
0100
1000
0010
0100
,
0001
1000
0100
0010
,
0001
0000
1000
0100
,
2000
0000
3002
0000
,
0013
0001
0100
0000
,
0020
0000
0230
0000
,
0301
1000
0100
0000
,
1000
0100
0010
0010
,
0001
0100
0010
0010
,
1000
0001
0100
0100
,
0010
1000
0001
0000
,
0010
0000
0010
0000
,
0001
1000
0010
0100
,
0010
0000
0010
0000
,
1000
0100
0010
0001
,
1000
0000
1000
0000
,
0010
0100
0001
1000
,
0100
0000
1000
0001
,
0100
0100
0000
0000
,
0010
1000
0001
0010
,
0200
0000
2300
0000
,
3010
0100
0001
1000
,
0100
0000
0010
0001
,
1000
0010
0100
0001
,
2000
0000
3020
0000
,
0130
0001
0010
0100
,
1000
0000
0001
0100
,
0001
0100
0000
0100
0000
0010
0000
0010
,
0000
1000
0000
1000
0000
0001
0000
0001
,
0010
0001
0000
0001
0000
0100
0000
0100
,
0000
0010
0000
0010
0000
1000
0000
1000
,
0100
0000
0000
0100
,
0000
0000
1000
0000
,
0000
0010
0000
0000
,
0100
0000
0000
0001
,
0000
0000
0000
0000
0010
0000
0000
0100
,
0000
0000
0000
0000
1000
0000
0000
0000
0000
0000
0001
0000
0000
1000
0000
0000
,
0001
0100
0010
1000
,
0100
0000
1000
0010
,
0100
0001
0010
0100
,
1000
0000
0010
0000
,
0100
0001
1000
0100
,
0010
0000
0100
0000
,
1000
0010
0100
0001
,
1000
0000
0010
0000
,
0110
0000
0110
0000
,
0010
0000
1000
0000
,
1001
0000
1001
0000
,
0010
0100
0001
2002
,
0000
0000
0000
3003
;

//---------------dance-double - ----------------
#NOTES:
     dance-double:
     :
     Medium:
     4:
     0.246,0.287,0.075,0.108,0.000:
00000000
00000000
00000000
00000000
,
00000000
00000000
00000000
00000000
,
00000000
00000000
00000000
00000000
,
00000000
00000000
00000000
00000000
,
00000000
00000000
00000000
00000000
,
00000000
00000000
00000000
00000000
,
00000000
00000000
00000000
00000000
,
00000000
00000000
00000000
00000000
,
00001000
00010000
00001000
00100000
,
00010000
01000000
00100000
10000000
,
00010000
00000000
00100000
00000000
00001000
00000000
00010000
00001000
,
00000000
00010000
00000000
00011000
00000000
00001000
00100000
00000000
,
00010000
01000000
00100000
10000000
,
00010000
00100000
01000000
00100000
,
00010000
01000000
00001000
00010000
,
00000100
00001000
00000000
00000100
00010000
00000000
00001000
00000000
,
00020000
00000000
00030200
00000000
,
00001300
00000010
00000100
00000000
,
00000020
00000000
00002030
00000000
,
00003100
00000010
00000001
00000000
,
00000100
00000010
00001000
00001000
,
00000100
00000000
00010000
00000000
00001000
00010000
00001000
00000000
,
00100000
00010000
01000000
01000000
,
00100000
00000000
10000000
00010000
10000000
00000000
00000000
00000000
,
01000000
00000000
00000000
10000000
00000000
10000000
00000000
00000000
,
01000000
00100000
00010000
01000000
,
00001000
00000000
00000000
00010000
00000000
00010000
00000000
00000000
,
00001000
00010000
00000100
00001000
,
00000010
00000000
00000000
00000100
00000000
00000100
00000000
00000000
,
00000010
00001000
00000100
00010000
,
00001000
00000000
00010000
00001000
,
00100000
00110000
00000000
00000000
,
01000000
00000000
10000000
00000000
00100000
00000000
01000000
00010000
,
00000000
01000000
00000000
00100000
00000000
00000000
10000000
00000000
,
01000000
00100000
00010000
01000000
,
00002000
00000000
00023000
00000000
,
00030100
00000000
00001000
00000000
00000010
00000000
00000100
00000001
,
00000000
00000100
00000000
00000010
00000000
00000000
00001000
00000000
,
00000100
00010000
00000100
00001000
,
00000010
00000000
00000100
00000100
,
00000010
00001000
00000000
00000100
00000000
00001000
00000000
00000010
,
00000000
00010000
00000000
00001000
00000000
00010000
00000000
00001000
,
00100000
00010000
00000000
01000000
00000000
00010000
00000000
00100000
,
00000000
01000000
00000000
10000000
00000000
00010000
00000000
01000000
,
00100000
00000000
00000000
10000000
,
00000000
00000000
01000000
00000000
,
00000000
00100000
00000000
00000000
,
10010000
00000000
00000000
01100000
,
00000000
00000000
00000000
00000000
10010000
00000000
00000000
01001000
,
00000000
00000000
00011000
00000000
00000000
00010100
00000000
00000000
,
00010000
00000000
00000100
00000000
00001000
00000000
00000100
00001000
,
00000000
00000010
00000000
00000100
00000000
00000000
00000010
00000000
,
00001000
00000000
00000001
00000000
00000010
00000000
00000100
00002000
,
00000000
00000000
00000000
00003010
,
00000100
00000000
00000001
00000000
00001000
00000000
00000010
00010000
,
00000000
00000010
00000000
00001000
00000000
00000000
00000100
00000000
,
00010000
00000000
00001000
00000000
00100000
00000000
00010000
01000000
,
00000000
00000000
00100000
10000000
,
00020000
00000000
20030000
00000000
,
30100000
01000000
00010000
00100000
,
00002000
00000000
00023000
00000000
,
00031000
00100000
00001000
00022000
,
00000000
00000000
00000000
00033000
;

//---------------dance-double - ----------------
#NOTES:
     dance-double:
     :
     Easy:
     3:
     0.193,0.261,0.067,0.083,0.000:
00000000
00000000
00000000
00000000
,
00000000
00000000
00000000
00000000
,
00000000
00000000
00000000
00000000
,
00000000
00000000
00000000
00000000
,
00000000
00000000
00000000
00000000
,
00000000
00000000
00000000
00000000
,
00000000
00000000
00000000
00000000
,
00000000
00000000
00000000
00000000
,
00100000
01000000
00010000
00100000
,
01000000
00000000
00100000
00000000
,
00010000
01000000
00001000
00010000
,
00001000
00000000
00010000
00000000
,
00000100
00000010
00000001
00000100
,
00000010
00000000
00001000
00000000
,
00000010
00010000
00000010
00001000
,
00000100
00000000
00010000
00000000
,
00002000
00000000
00023000
00000000
,
00031000
01000000
00100000
00000000
,
20000000
00000000
32000000
00000000
,
03100000
00010000
01000000
00000000
,
00010000
00010000
00100000
00001000
,
00010000
00010000
00000100
00001000
,
00000010
00000010
00000100
00000001
,
00000010
00000100
00001000
00000000
,
00000010
00000000
00010000
00000000
,
00001000
00010000
00000100
00001000
,
00000010
00000000
00000100
00000000
,
00000010
00001000
00000100
00010000
,
00001000
00000000
01000000
00000000
,
00100000
10000000
00010000
00100000
,
01000000
00000000
00100000
00010000
,
10000000
00100000
00000000
00000000
,
01000000
00010000
01000000
00100000
,
20000000
00000000
30010000
00100000
,
01000000
10000000
00100000
01000000
,
00020000
00000000
00030000
00000000
,
00100000
00001000
00010000
00000100
,
00002000
00000000
00003010
00000000
,
00000100
00000001
00001000
00000010
,
00000200
00000000
00000310
00001000
,
00001001
00000000
00000000
00000000
,
00000000
00000000
00000000
00000000
,
10010000
00000000
00000000
00000000
,
00000000
00000000
00000000
00000000
,
00001000
00000000
00000000
00010000
,
00000000
00000000
00000100
00000000
,
00000000
00010000
00000000
00000000
,
00011000
00000000
00000000
00101000
,
00000000
00000000
00000000
00000000
10010000
00000000
00000000
01100000
,
00000000
00000000
10100000
00000000
00000000
00010000
00000000
00000000
,
10000000
01000000
10000000
00100000
,
01000000
00000000
00100000
10000000
,
00010000
00100000
00001000
00010000
,
00000100
00000000
00000100
00000000
,
00001000
00000010
00000100
00000001
,
00001000
00000000
00000100
00000000
,
00001000
00000100
00010000
00001000
,
01000000
00000000
00100000
10000000
,
00010000
00000000
00010000
00000000
,
00100000
00000000
00001000
00000000
,
00010000
00000000
00010000
00000000
,
00000100
00000000
00000010
00002002
,
00000000
00000000
00000000
00003003
;
