#TITLE:Duel;
#SUBTITLE:;
#ARTIST:bond;
#TITLETRANSLIT:;
#SUBTITLETRANSLIT:;
#ARTISTTRANSLIT:;
#GENRE:;
#CREDIT:;
#MENUCOLOR:;
#METERTYPE:DDR;
#BANNER:Duel.png;
#BACKGROUND:Duel-bg.png;
#LYRICSPATH:;
#CDTITLE:ddrencorecdtitle.png;
#MUSIC:Duel.mp3;
#OFFSET:-4.340;
#SAMPLESTART:43.858;
#SAMPLELENGTH:12.980;
#SELECTABLE:YES;
#LISTSORT:;
#BPMS:0.000=123.016;
#STOPS:;
#BGCHANGES:;
#ATTACKS:;

//---------------dance-single - ----------------
#NOTES:
     dance-single:
     :
     Challenge:
     9:
     0.572,0.668,0.201,0.116,0.434: // measure 1
0000
0000
0000
0000
,  // measure 2
0000
0000
0000
0000
,  // measure 3
1001
0002
0010
1000
,  // measure 4
0100
0000
0000
0000
0103
0000
0000
0000
0000
0010
1000
0010
1000
0000
0000
0000
,  // measure 5
1001
2000
0010
0001
,  // measure 6
0100
0000
0000
0000
3100
0000
0000
0000
0000
0010
0001
0010
0001
0000
0000
0000
,  // measure 7
1000
0000
0001
0100
0001
0100
0001
0100
0001
0000
0000
0000
1000
0000
0000
0000
,  // measure 8
0010
0000
1000
0100
1000
0100
1000
0100
1000
0000
0000
0000
0001
0000
0000
0000
,  // measure 9
2000
0100
0010
0100
,  // measure 10
3002
0000
1000
0000
0013
0001
0010
0100
,  // measure 11
1000
0000
0010
0000
1000
0000
0001
0010
,  // measure 12
0100
0000
0110
0000
0001
1000
0010
0100
,  // measure 13
0001
0000
1000
0000
0010
0000
0100
0001
,  // measure 14
1000
0000
0110
0000
0010
0100
1000
0010
,  // measure 15
0200
0000
0001
0000
1000
0000
0310
1000
,  // measure 16
0002
0000
0010
0000
0103
0010
1000
0001
,  // measure 17
0020
0000
0001
0000
1000
0000
0130
0010
,  // measure 18
0002
0000
1000
0000
0013
0001
0100
0010
,  // measure 19
1000
0100
1000
0100
1000
0000
0100
0010
0100
0000
0010
0000
0001
1000
0001
1000
,  // measure 20
0001
0000
0000
0000
0100
0001
0100
0001
0100
0000
0001
1000
0001
0100
0010
0000
,  // measure 21
1000
0001
1000
0001
1000
0000
0001
0100
0001
0000
0100
0000
0010
1000
0010
1000
,  // measure 22
0010
0000
0000
0000
1000
0100
1000
0100
1000
0000
0010
0100
0010
1000
0100
0000
,  // measure 23
0010
0001
0010
0001
0010
0001
0010
0000
0001
1000
0001
0000
1000
0010
1000
0010
,  // measure 24
1000
0000
0001
0100
0001
1000
0100
0000
0010
0100
0010
0100
0010
0000
0000
0001
,  // measure 25
1000
0000
0010
0000
0100
0000
0001
0000
0010
0000
0000
0000
1100
0000
0000
0010
,  // measure 26
0100
0000
1000
0000
0010
0000
0100
0000
0001
0000
0000
0000
1001
0000
0000
0010
,  // measure 27
0100
0010
1001
1000
0010
0100
0101
0001
,  // measure 28
1000
0100
0010
0001
1001
0000
0100
0000
,  // measure 29
1000
0001
0010
0100
1000
0000
0101
0000
,  // measure 30
0100
0001
1000
0100
0010
0000
1001
0000
,  // measure 31
0100
1000
0001
0100
0010
0000
1001
0000
,  // measure 32
0001
0100
0010
1000
0001
0000
0011
0000
,  // measure 33
0010
0000
0001
0000
1000
0000
0010
0000
1000
0100
0010
0001
0010
0001
0010
0001
,  // measure 34
0010
0000
0001
0000
0100
0000
0010
0000
1000
0001
0100
0010
0100
0010
0100
0010
,  // measure 35
0100
0000
0010
0000
1000
0000
0001
0000
0100
0001
1000
0100
1000
0100
1000
0100
,  // measure 36
1000
0000
0010
0000
0100
0000
0001
0000
1000
0001
0010
0100
0010
0100
0010
0100
,  // measure 37
0010
0100
1000
0001
0200
0000
0010
0000
,  // measure 38
0301
1000
0100
0010
0002
0000
1000
0000
,  // measure 39
0010
0003
0100
0000
1000
0000
0010
0000
0200
0000
0000
0000
1000
0000
0000
0000
,  // measure 40
0310
1000
0001
0010
0200
0000
0000
0000
,  // measure 41
1300
0001
1000
0001
1000
0001
1000
0001
1000
0100
1000
0000
0100
1000
0100
0000
,  // measure 42
1000
0001
1000
0000
0001
0100
0001
0000
0100
0010
0100
0000
0010
0100
0010
0000
,  // measure 43
0010
0000
0001
0000
1000
0000
0100
0000
0010
1000
0010
0000
1000
0100
1000
0000
,  // measure 44
0100
1000
0100
0000
1000
0001
1000
0000
0001
0100
0001
0000
0100
0001
0100
0000
,  // measure 45
0001
0000
0100
0000
1000
0000
0100
0000
0010
1000
0010
1000
0010
1000
0010
0000
,  // measure 46
1000
0100
1000
0100
1000
0100
1000
0000
0001
0100
0001
0100
0001
0100
0001
0000
,  // measure 47
1000
0100
0010
0001
1001
1000
0010
0100
,  // measure 48
1001
0001
1000
0100
0110
0010
0011
1000
,  // measure 49
0011
0000
0000
0000
1001
0000
0000
0000
1000
0100
1000
0100
1000
0100
1000
0000
,  // measure 50
0001
0010
0001
0010
0001
0010
0001
0000
0100
0000
0010
0000
1000
0000
0001
0000
,  // measure 51
0011
0000
0010
0000
0110
0000
0100
0000
0010
0001
0010
0001
0010
0001
0010
0000
,  // measure 52
0001
1000
0001
1000
0001
1000
0001
0000
1000
0000
0010
0000
0100
0000
0010
0000
,  // measure 53
1010
0000
1000
0000
1001
0000
0001
0000
1000
0100
1000
0100
1000
0100
1000
0000
,  // measure 54
0010
0100
0010
0100
0010
0100
0010
0000
1000
0001
1000
0001
1000
0100
0010
0001
,  // measure 55
1000
0010
0100
0001
1001
1000
0010
0100
,  // measure 56
0101
0000
0001
0000
1000
0000
0100
0000
1000
0010
0100
0001
1000
0100
0010
0001
,  // measure 57
1000
0001
0100
0010
1000
0001
0010
0100
2000
0000
0000
0000
0000
0000
0000
0000
,  // measure 58
0000
3000
0202
0000
,  // measure 59
0000
0000
0000
0000
,  // measure 60
0000
0000
0303
0000
;

//---------------dance-single - ----------------
#NOTES:
     dance-single:
     :
     Beginner:
     1:
     0.146,0.178,0.031,0.000,0.000:
0000
0000
0000
0000
,
0000
0000
0000
0000
,
0000
1000
1000
1000
,
1000
1000
0000
0001
,
0000
0100
0100
0100
,
0100
0100
0000
0010
,
0000
1000
1000
0000
,
0000
0010
0010
0000
,
0100
0000
0000
0000
,
0000
0000
0000
1000
,
1000
0000
0010
0000
,
1000
0000
0001
0001
,
0001
0000
0010
0000
,
0100
0000
1000
1000
,
1000
0000
0010
0000
,
0100
0000
0010
0010
,
0010
0000
1000
0000
,
0001
0000
0010
0010
,
0010
0000
0000
0000
,
0100
0000
1000
0000
,
0001
0000
0000
0000
,
0100
0000
0010
0000
,
1000
0000
0100
0000
,
1000
0000
0001
0000
,
0100
0100
0100
0000
,
0010
0010
0010
0000
,
1000
0000
0001
0000
,
1001
1001
1001
0000
,
0000
0100
0100
0000
,
0000
0010
0010
0000
,
0000
1000
1000
0000
,
0000
0001
0001
0000
,
1000
1000
1000
0000
,
0010
0010
0010
0000
,
1000
1000
1000
0000
,
0001
0001
0001
0000
,
1000
0000
0100
0000
,
1000
0000
0010
0000
,
0100
0000
0001
0000
,
1000
0000
0010
0000
,
0000
0000
0100
0000
,
0100
0000
0100
0000
,
0010
0010
0010
0000
,
0010
0000
0010
0000
,
1000
1000
1000
0000
,
0001
0000
0001
0000
,
0001
0001
0001
0000
,
0010
0000
0010
0000
,
0010
0000
0001
0000
,
1000
0000
0001
0000
,
0100
0100
0100
0000
,
0010
0000
1000
0000
,
0100
0100
0100
0000
,
0010
0000
0001
0000
,
1000
1000
1000
0000
,
0010
0000
0100
0000
,
0001
0001
0001
0000
,
0000
0000
1001
0000
;

//---------------dance-double - ----------------
#NOTES:
     dance-double:
     :
     Challenge:
     9:
     0.542,0.622,0.085,0.101,0.337:
00000000
00000000
00000000
00000000
,
00000000
00000000
00000000
00000000
,
10100000
00200000
01000000
00010000
,
00001000
00000000
00000000
00000000
01300000
00000000
00000000
00000000
00000000
00100000
10000000
00100000
10000000
00000000
00000000
00000000
,
11000000
02000000
00010000
00001000
,
00100000
00000000
00000000
00000000
13000000
00000000
00000000
00000000
00000000
00010000
01000000
00010000
01000000
00000000
00000000
00000000
,
00010000
00000000
00100000
00000000
00001000
00000000
00010000
00000100
00020000
00000000
00000000
00000000
00001000
00000000
00000000
00000000
,
00030100
00000000
00010000
00000000
00001000
00000000
00100000
00010000
00200000
00000000
00000000
00000000
01000000
00000000
00000000
00000000
,
00310000
01000000
01000000
00100000
10000000
10000000
00010000
00010000
,
01000000
00100000
00100000
10000000
00010000
00010000
00100000
00001000
,
00011000
00000000
00101000
00000000
00010000
00100000
01000000
00000000
,
00100000
00010000
01000000
00100000
10000000
00010000
01000000
00001000
,
00011000
00000000
00010100
00000000
00001000
00000100
00000010
00000000
,
00000001
00001000
00000010
00000100
00000010
00001000
00000100
00010000
,
00010100
00011000
00002000
01000000
,
00103000
00010000
01000000
00100000
10000000
00010000
00100000
01000000
,
11000000
10010000
00020000
00100000
,
10030000
00010000
01000000
00100000
00010000
00001000
00000100
00000010
,
00001000
00000100
00001000
00000100
00001000
00000000
00000010
00000100
00000010
00000000
00001000
00000000
00000001
00000010
00000001
00000010
,
00000001
00000000
00000000
00000000
00001000
00000100
00001000
00000100
00001000
00000000
00000100
00010000
00001000
00100000
00010000
00000000
,
01000000
00010000
01000000
00010000
01000000
00000000
00100000
10000000
00100000
00000000
10000000
00000000
00010000
00100000
00010000
00100000
,
00010000
00000000
00000000
00000000
10000000
01000000
10000000
01000000
10000000
00000000
00010000
01000000
00010000
00100000
01000000
00000000
,
00100000
00010000
00100000
00001000
00100000
00010000
00100000
00000000
00001000
00010000
00001000
00000000
01000000
00010000
01000000
00010000
,
01000000
00000000
00100000
10000000
00100000
01000000
00010000
00000000
10000000
01000000
00100000
00010000
01000000
00000000
00000000
00100000
,
01000000
00000000
00010000
00000000
00100000
00000000
00001000
00000000
00010000
00000000
00000000
00000000
00000100
00000000
00010000
00000100
,
00010000
00000000
00001000
00000000
00100000
00000000
00010000
00000000
01000000
00000000
00000000
00000000
00100000
00000000
01000000
00010000
,
01000000
00100000
10000000
00100000
01000000
00010000
00100000
00001000
,
00010000
00000100
00000010
00000001
00000100
00000000
00000010
00000000
,
00001000
00000001
00000100
00001000
00000100
00000000
00000010
00000000
,
00010000
00001000
01000000
00100000
00010000
00000000
10000000
00000000
,
01000000
00100000
10000000
00010000
00100000
00000000
01000000
00000000
,
00100000
00010000
01000000
00001000
00010000
00000000
00000100
00000000
,
00010000
00000000
00001000
00000000
00100000
00000000
00010000
00000000
01000000
00010000
01000000
00010000
01000000
00010000
01000000
00010000
,
01000000
00000000
00100000
00000000
10000000
00000000
00010000
00000000
00100000
00001000
00100000
00001000
00100000
00001000
00100000
00001000
,
00100000
00000000
00001000
00000000
00010000
00000000
00000100
00000000
00010000
00001000
00010000
00001000
00010000
00001000
00010000
00001000
,
00010000
00000000
00000100
00000000
00000010
00000000
00000001
00000000
00000100
00000010
00000100
00000010
00000100
00000010
00000100
00000010
,
00000100
00000010
00001000
00000100
00020000
00000000
01000000
00000000
,
00031000
00010000
00001000
00100000
02000000
00000000
00001000
00000000
,
03010000
01000000
10000000
00100000
20000000
00000000
00010000
00000000
,
30100000
01000000
00010000
00100000
00002000
00000000
00000000
00000000
,
00013000
00001000
00010000
00001000
00100000
00001000
00010000
00000100
00010000
00000000
00001000
00000000
00100000
00000000
00010000
00000000
,
01000000
00100000
00010000
00100000
10000000
01000000
00100000
00010000
,
01000000
00000000
00001000
00000000
00010000
00000000
00001000
00100000
00001000
00000000
00010000
00000000
00000100
00000000
00000010
00000000
,
00000001
00000100
00001000
00000100
00000010
00001000
00000100
00000010
,
00000001
00000000
00000100
00000000
00000010
00000000
00001000
00000100
00001000
00000000
00000010
00000000
00000100
00000000
00000010
00001000
,
00000010
00000000
00000100
00000000
00000001
00000000
00001000
00000100
00001000
00000000
00000100
00000000
00010000
00000000
00001000
00100000
,
00001000
00000000
01000000
00000000
00010000
00100000
00010000
00100000
00010000
00000000
01000000
00000000
00100000
00000000
10000000
00000000
,
00010000
01000000
00100000
00010000
00001000
00000100
00000010
00000100
,
00001000
00010000
00100000
00000000
01000000
00100000
10000000
00010000
,
00100000
00000000
01000000
00000000
10000000
00000000
00010000
01000000
00010000
00000000
00100000
00000000
01000000
00000000
10000000
00000000
,
00010000
01000000
00010000
01000000
00001000
00010000
00001000
00010000
00000100
00000000
00000010
00000000
00000001
00000000
00000100
00000000
,
00000010
00000000
00001000
00000000
00000100
00000000
00000010
00000001
00000010
00000000
00000100
00000000
00001000
00000000
00000010
00000000
,
00010000
00000100
00010000
00000100
00001000
00000010
00001000
00000010
00000100
00000000
00000010
00000000
00001000
00000000
00000100
00000000
,
00010000
00000000
00001000
00000000
00100000
00000000
00010000
01000000
00010000
00000000
10000000
00000000
01000000
00000000
00100000
00000000
,
00010000
01000000
00010000
01000000
00001000
00010000
00001000
00010000
00000100
00000000
00010000
00000000
00001000
00000000
00100000
00000000
,
00010000
00000000
01000000
00000000
00001000
00000000
00010000
00000000
00001000
00100000
00001000
00010000
00000100
00001000
00000010
00000100
,
00000010
00001000
00000100
00010000
00001000
00100000
00010000
01000000
00200000
00000000
00000000
00000000
00000000
00000000
00000000
00000000
,
00000000
00300000
20020000
00000000
,
00000000
00000000
00000000
00000000
,
00000000
00000000
30030000
00000000
;

//---------------dance-single - ----------------
#NOTES:
     dance-single:
     :
     Hard:
     7:
     0.377,0.392,0.085,0.077,0.000:
0000
0000
0000
0000
,
0000
0000
0000
0000
,
0000
0001
0100
0010
,
1000
0000
0001
0000
0000
1000
0010
0000
,
0000
0010
0100
0001
,
1000
0000
0100
0000
0000
1000
0100
0000
,
0000
1000
0010
0100
0001
0000
0010
0000
,
0000
0001
0100
0010
1000
0000
0000
0000
,
0020
0000
0030
0000
,
0200
0000
0000
0000
0300
0010
1000
0001
,
0010
0001
1000
0010
,
0100
0000
0110
0000
0010
1000
0001
0010
,
0100
0010
0001
1000
,
0010
0000
1001
0000
0010
1000
0001
0010
,
0100
0000
0010
0000
0001
0000
1000
0100
,
1000
0000
1010
0000
0100
0010
1000
0001
,
0010
0000
0100
0000
0010
0000
0001
1000
,
0100
0000
1100
0000
0010
0100
0001
0010
,
0100
0010
0001
0000
1000
0000
0010
0100
,
0001
0000
1000
0100
1000
0010
0100
0000
,
0010
1000
0001
1000
0100
0000
0010
0001
,
0100
0000
0010
0100
0010
1000
0100
0000
,
0010
0001
1000
0001
0100
0010
1000
0100
,
0010
0000
0100
0000
1000
0010
0100
0000
,
0010
1000
0001
1000
0010
0000
0100
0000
,
0001
1000
0100
1000
0001
0000
0010
0000
,
0001
0100
0010
1000
0001
0100
0010
1000
,
0001
0010
0100
1000
0001
0000
0100
0000
,
0010
1000
0001
0100
0010
0000
1000
0000
,
0100
0010
0001
1000
0100
0000
0010
0000
,
0100
1000
0001
0100
0010
0000
1000
0000
,
0001
0010
0100
1000
0010
0000
0100
0000
,
0010
1000
0001
0010
0200
0000
1000
0000
,
1300
0010
0100
0001
0020
0000
0100
0000
,
0130
0010
0001
1000
0002
0000
0010
0000
,
0013
0100
1000
0010
0200
0000
0001
0000
,
0301
0100
0010
1000
0100
0000
1000
0000
,
0000
0001
0100
0001
0100
0000
0010
0000
,
0000
1000
0100
1000
0100
0000
0010
0000
,
0000
0001
1000
0001
2000
0000
0000
0000
,
0000
0000
0000
0000
3001
1000
0001
0100
,
0010
1000
0010
0100
0001
1000
0001
0010
,
0100
0100
1000
1000
0010
1000
0010
0100
,
0001
0010
0001
1000
0100
0010
0100
1000
,
0010
0010
0100
0100
0001
0010
0100
1000
,
0001
0100
0010
1000
0001
1000
0001
0100
,
0010
0010
1000
1000
1001
0000
0000
0000
,
0110
0000
1010
1001
,
0101
0000
0110
0000
0010
1000
0001
1000
,
0100
0010
0001
1000
0001
0100
0010
1000
,
0100
0100
0010
0010
0001
1000
0010
0100
,
0010
1000
0001
0010
0100
1000
0001
0100
,
0010
0010
1000
1000
0100
0010
0001
1000
,
0001
0100
0010
0100
0001
1000
0100
0010
,
0001
0001
1000
1000
0010
1000
0001
0100
,
0001
1000
0010
0100
0001
0000
1000
0000
,
0010
0100
0001
1000
0200
0000
0000
0000
,
0000
0300
2002
0000
,
0000
0000
0000
0000
,
0000
0000
3003
0000
;

//---------------dance-single - ----------------
#NOTES:
     dance-single:
     :
     Medium:
     4:
     0.273,0.300,0.186,0.070,0.000:
0000
0000
0000
0000
,
0000
0000
0000
0000
,
0000
0100
1000
0010
,
0100
0001
0000
1001
,
0000
0010
1000
0001
,
0010
0100
0000
1100
,
0010
0001
1000
0000
,
0010
1000
0001
0000
,
0200
0000
0000
0000
,
0310
1000
0001
0100
,
1001
0010
0100
0001
,
0010
0001
1000
0100
,
1001
0100
1000
0010
,
0100
0001
1000
0010
,
1001
0010
0100
0001
,
1000
0100
0010
0001
,
1001
1000
0010
0100
,
0001
1000
0010
0010
,
1001
0000
0100
0000
0010
0000
0100
1000
,
0100
0010
0001
1000
,
0001
0000
0100
0000
0010
0000
1000
0100
,
1000
0010
0100
0001
,
0010
0000
0001
0000
0100
0000
0010
1000
,
0010
1000
0001
0010
,
0001
1000
0100
1000
,
0001
0100
0010
1000
,
0100
1000
0100
0000
1000
0100
1000
0000
,
0001
0000
0100
0010
0100
0000
0000
0000
,
0010
1000
1001
0001
,
0100
0010
1001
1000
,
0010
0100
1001
0001
,
0010
0100
1001
1000
,
0010
0100
0020
1000
,
1030
0001
0200
0010
,
0310
1000
0002
0010
,
0010
0003
0100
0000
0020
0000
0100
0000
,
0130
0000
0010
0000
1000
0000
0001
0010
,
0001
0000
1000
0000
0001
0000
1000
0100
,
1000
0000
0001
0000
0100
0000
0001
1000
,
0001
1000
0020
0000
,
0000
0000
1030
0100
,
1000
0001
0100
0010
,
1000
1001
0001
0010
,
0001
0100
0010
1000
,
0100
1100
1000
0010
,
0100
0001
1000
0010
,
1000
0101
0010
1000
,
0001
0010
0100
1000
,
0010
0100
0001
1000
,
0100
0010
0001
1000
,
0010
1001
0010
0100
,
0001
1000
0100
0010
,
0001
1100
1000
0010
,
0100
0001
1000
0100
,
0010
1001
0101
0000
,
0110
0000
1010
1001
,
0101
0110
0020
0000
,
0000
0030
2002
0000
,
0000
0000
0000
0000
,
0000
0000
3003
0000
;

//---------------dance-double - ----------------
#NOTES:
     dance-double:
     :
     Hard:
     7:
     0.386,0.392,0.070,0.085,0.000:
00000000
00000000
00000000
00000000
,
00000000
00000000
00000000
00000000
,
00000000
20000000
00100000
01000000
,
00100000
00000000
30100000
00000000
00000000
01000000
00010000
00000000
,
00100000
00002000
00010000
01000000
,
00100000
00000000
00103000
00000000
00000000
00010000
00001000
00000000
,
00000000
00010000
00000100
00001000
00000010
00000000
00000100
00000000
,
00000000
00000010
00001000
00000001
00000010
00000000
00000100
00000000
,
00002000
00000000
00003020
00000000
,
00000130
00000000
00000001
00000000
00001000
00000100
00000010
00000001
,
00000100
00000000
00000010
00000000
00001000
00000000
00000100
00010000
,
00001000
00000000
00011000
00000000
00001000
00100000
00010000
01000000
,
00100000
00000000
10000000
00000000
01000000
00000000
00100000
00010000
,
01000000
00000000
01100000
00000000
00100000
10000000
00010000
00100000
,
01000000
00100000
00010000
01000000
,
00100000
00000000
10000000
00000000
00010000
00100000
01000000
00100000
,
00010000
01000000
00001000
00010000
,
00000100
00000000
00000010
00000000
00000001
00000100
00000010
00001000
,
00000100
00000010
00000001
00000000
00000100
00000000
00000010
00001000
,
00000100
00000000
00001000
00000100
00010000
00000000
00001000
00000000
,
00100000
00010000
01000000
00100000
10000000
00000000
00100000
01000000
,
00010000
00000000
00100000
01000000
00100000
00000000
00010000
00000000
,
01000000
00001000
01000000
00001000
00010000
00000000
00001000
00010000
,
00000100
00000000
00000010
00000100
00001000
00000000
00000010
00000000
,
00000100
00000001
00000100
00000001
00000100
00000000
00000010
00000000
,
00001000
00000100
00001000
00000100
00001000
00000000
00000010
00000000
,
00001000
00000100
00010000
00000100
00001000
00000010
00001000
00000100
,
00010000
00001000
01000000
00100000
,
10000000
00010000
10000000
00010000
01000000
00000000
00100000
00000000
,
10000000
01000000
00100000
00010000
01000000
00000000
00100000
00000000
,
01000000
00010000
00100000
00010000
01000000
00000000
00001000
00000000
,
00010000
00000100
00010000
00001000
00100000
00000000
00010000
00000000
,
01000000
00100000
10000000
00010000
00100000
00000000
00010000
10000000
,
01000000
00100000
00010000
01000000
00100000
00000000
10000000
00010000
,
01000000
00010000
00100000
00001000
00010000
00000000
00000100
00001000
,
00000010
00000100
00000001
00001000
00000100
00000000
00000010
00000001
,
00000100
00000010
00001000
00000100
00000020
00000000
00000001
00000000
,
00000031
00000100
00000010
00001000
00000200
00000000
00010000
00000000
,
00010300
00001000
00100000
00010000
02000000
00000000
00100000
00000000
,
03100000
10000000
01000000
00100000
00020000
00000000
00000000
00000000
,
00000000
00000000
00030000
00000000
10000000
00010000
01000000
00100000
,
01000000
00010000
00100000
01000000
10000000
00100000
01000000
00010000
,
00100000
00001000
00010000
00000100
00001000
00000100
00010000
00001000
,
00100000
00010000
01000000
00100000
10000000
01000000
00100000
00010000
,
01000000
00100000
10000000
01000000
00100000
00010000
01000000
00100000
,
10000000
01000000
00100000
00010000
01000000
00001000
00010000
00000100
,
00001000
00000010
00000100
00000001
00000011
00000000
00000100
00000000
,
00001010
00000100
00010010
00011000
,
00101000
00000000
00110000
00000000
00100000
00010000
01000000
00100000
,
10000000
01000000
10000000
00100000
01000000
00010000
00100000
01000000
,
00100000
00010000
01000000
00001000
00010000
00000100
00001000
00000010
,
00000100
00000001
00001000
00000100
00000010
00000100
00001000
00000010
,
00000100
00000010
00001000
00000100
00010000
00001000
00100000
00010000
,
00100000
00001000
00010000
00001000
00100000
00010000
01000000
00100000
,
10000000
01000000
00100000
00010000
01000000
00100000
10000000
01000000
,
00100000
00010000
10000000
01000000
00100000
00000000
00010000
00000000
,
01000000
00100000
10000000
01000000
00200000
00000000
00000000
00000000
,
00000000
00300000
20020000
00000000
,
00000000
00000000
00000000
00000000
,
00000000
00000000
30030000
00000000
;

//---------------dance-double - ----------------
#NOTES:
     dance-double:
     :
     Medium:
     5:
     0.289,0.323,0.225,0.085,0.000:
00000000
00000000
00000000
00000000
,
00000000
00000000
00000000
00000000
,
00000000
10000000
00010000
01000000
,
00100000
10000000
00000000
00100000
,
01000000
00010000
00100000
01000000
,
00100000
00010000
00000000
01000000
,
00010000
00100000
00010000
00000000
,
01000000
00001000
00010000
00000000
,
00022000
00000000
00000000
00033000
,
00010100
00000000
00000100
00000010
,
00000011
00000001
00001000
00000100
,
00010000
00001000
00100000
00010000
,
01010000
01000000
00100000
10000000
,
01000000
00100000
00010000
01000000
,
01001000
00001000
00100000
00010000
,
01000000
00100000
10000000
01000000
,
11000000
01000000
00100000
00010000
,
01000000
00001000
00010000
00000100
,
00002100
00000000
00000010
00000000
00000100
00000000
00003001
00000100
,
00000001
00001000
00000010
00010000
,
00012000
00000000
00100000
00000000
00010000
00000000
00103000
00010000
,
00100000
00010000
01000000
00100000
,
20010000
00000000
00100000
00000000
01000000
00000000
30100000
10000000
,
00100000
01000000
00010000
00100000
,
00102000
00000000
00010000
00000000
01000000
00000000
00013000
00001000
,
00020000
00000000
00001000
00000000
00000100
00000000
00031000
00010000
,
00001000
00100000
00010000
01000000
,
00100000
00000000
10000000
00010000
10000000
00000000
00000000
00000000
,
10000000
00100000
10100000
10000000
,
00010000
00100000
00101000
00001000
,
00010000
00001000
01001000
01000000
,
00100000
10000000
10010000
00010000
,
01000000
00000000
00100000
10000000
00100000
00000000
10000000
00000000
,
00010000
00000000
00100000
01000000
00100000
00000000
00010000
00000000
,
01000000
00000000
00001000
00010000
00001000
00000000
00010000
00000000
,
00000100
00000000
00000010
00000100
00000010
00000000
00000001
00000000
,
00000100
00000010
00001010
00000100
,
00010000
00001000
00011000
00010000
,
00001000
00100000
01010000
01000000
,
00100000
10000000
12000000
00000000
,
10000000
13000000
10000000
00010000
,
01000000
01010000
00100000
10000000
,
00010000
00101000
00010000
00001000
,
00000010
00001001
00000010
00000100
,
00000001
00001100
00000010
00000001
,
00001000
00000100
00001000
00000000
00000010
00000000
00000100
00000000
,
00000001
00001000
00000001
00000000
00001000
00000000
00000010
00000000
,
00010000
00001000
00100000
00001000
,
00010000
00000100
00000010
00000001
,
00000100
00000110
00000010
00001000
,
00000100
00011000
00010000
00001000
,
00100000
01010000
01000000
00100000
,
10000000
01010000
00100000
10000000
,
00010000
00100000
00001000
00010000
,
00000100
00000010
00000001
00000101
,
00000100
00000110
00000010
00001000
,
00000100
00010000
00002000
00000000
,
00000000
00003000
00022000
00000000
,
00000000
00000000
00000000
00000000
,
00000000
00000000
00033000
00000000
;

//---------------dance-single - ----------------
#NOTES:
     dance-single:
     :
     Easy:
     3:
     0.195,0.254,0.023,0.070,0.000:
0000
0000
0000
0000
,
0000
0000
0000
0000
,
0000
0100
1000
0010
,
1000
0002
0000
0103
,
0000
0010
1000
0001
,
0010
0200
0000
1300
,
0000
0010
1000
0000
,
0000
0001
0100
0000
,
0010
0000
1000
0000
,
0001
0000
1000
0001
,
0100
0000
0010
0000
,
1000
0000
0001
0010
,
0100
0000
0010
0000
,
0001
0000
0100
0010
,
2000
0000
3001
0000
,
0200
0000
0310
1000
,
0002
0000
1003
0000
,
0020
0000
0130
0010
,
1000
0001
1000
0100
,
0010
0000
0001
0000
,
0100
0010
1000
0001
,
0100
0000
0010
0000
,
1000
0001
1000
0100
,
0010
0000
0100
0000
,
1000
0001
0100
0000
,
0010
0100
0001
0000
,
1000
0001
1000
0001
,
0100
0010
1001
0000
,
0000
0010
1000
0000
,
0000
0010
0100
0000
,
0000
0010
1000
0000
,
0000
0001
0010
0000
,
0000
0001
1000
0100
,
0100
0000
1000
0010
,
0010
0000
0100
0001
,
0001
0000
1000
0100
,
0100
0010
0001
0000
,
0000
0100
0010
0000
,
0000
1000
0100
0000
,
0000
0010
0200
0000
,
1000
0000
0310
0010
,
0001
0001
1000
0001
,
0100
0010
1000
1000
,
0001
0001
0100
0010
,
1000
0100
0010
0010
,
0100
0100
1000
0010
,
0100
0001
1000
0000
,
0001
0000
0100
0010
,
0110
1001
1000
1000
,
0010
0010
0100
0001
,
1000
0100
0010
0010
,
0100
0100
1000
0010
,
0100
0001
1000
1000
,
0001
0001
0010
0001
,
0100
0010
1000
0000
,
0001
0000
0010
0001
,
1000
0100
0020
0000
,
0000
0030
0200
0000
,
0000
0000
0000
0000
,
0000
0000
0300
0000
;

//---------------dance-double - ----------------
#NOTES:
     dance-double:
     :
     Easy:
     3:
     0.201,0.254,0.023,0.062,0.000:
00000000
00000000
00000000
00000000
,
00000000
00000000
00000000
00000000
,
00000000
00000010
00000100
00000001
,
00001000
00000200
00000000
00000310
,
00000000
00000100
00001000
00000010
,
00010000
00002000
00000000
00103000
,
00000000
00010000
01000000
00000000
,
00000000
00100000
10000000
00010000
,
02000000
00000000
03020000
00000000
,
10030000
01000000
00100000
00010000
,
01000000
00000000
00001000
00000000
,
00010000
00000000
00000100
00000010
,
00000001
00000000
00000100
00000000
,
00000010
00000000
00001000
00000100
,
00010000
00000000
00001000
00000000
,
00100000
00000000
00010000
01000000
,
00100000
00000000
10000000
00000000
,
01000000
00000000
00100000
00010000
,
00100000
00100000
01000000
10000000
,
00100000
01000000
01000000
00000000
,
00100000
00100000
10000000
00010000
,
00100000
00001000
00001000
00000000
,
00010000
00010000
00000100
00001000
,
00000010
00000100
00000100
00000000
,
00000010
00001000
00000010
00000000
,
00000100
00000001
00000100
00000000
,
00000010
00001000
00000100
00010000
,
00000100
00001000
00000010
00000000
,
00000000
00000100
00000010
00000000
,
00000000
00010000
00001000
00000000
,
00000000
00100000
00010000
00000000
,
00000000
01000000
00100000
00000000
,
00000000
10000000
01000000
00100000
,
00100000
00000000
00010000
01000000
,
01000000
00000000
00100000
10000000
,
10000000
00000000
00010000
00100000
,
00100000
01000000
00100000
00000000
,
00000000
00100000
00001000
00000000
,
00000000
00010000
00000100
00000000
,
00000000
00000010
00000002
00000000
,
00000100
00000000
00000103
00000010
,
00001000
00000100
00010000
00001000
,
00100000
00010000
01000000
00001000
,
00010000
00000100
00000010
00000001
,
00000100
00000010
00001000
00000100
,
00010000
00000100
00001000
00000010
,
00000100
00000001
00001000
00000000
,
00000100
00000000
00010000
00001000
,
00011000
00101000
00100000
00010000
,
01000000
00100000
10000000
01000000
,
00100000
01000000
10000000
00100000
,
01000000
00010000
00100000
00001000
,
00010000
01000000
10000000
00100000
,
01000000
00010000
00100000
00001000
,
00010000
00000100
00000010
00000010
,
00000001
00000001
00000100
00000010
,
00001000
00000100
00020000
00000000
,
00000000
00030000
00022000
00000000
,
00000000
00000000
00000000
00000000
,
00000000
00000000
00033000
00000000
;
