#TITLE:Drama Fanatic;
#SUBTITLE:;
#ARTIST:Raen;
#TITLETRANSLIT:;
#SUBTITLETRANSLIT:;
#ARTISTTRANSLIT:;
#GENRE:;
#CREDIT:;
#MENUCOLOR:;
#METERTYPE:DDR;
#BANNER:Drama Fanatic-bn.png;
#BACKGROUND:Drama Fanatic-bg.png;
#LYRICSPATH:Drama Fanatic.lrc;
#CDTITLE:ddrencorecdtitle.png;
#MUSIC:Drama Fanatic.mp3;
#OFFSET:-0.128;
#SAMPLESTART:45.600;
#SAMPLELENGTH:13.860;
#SELECTABLE:YES;
#LISTSORT:;
#BPMS:0.000=129.000,216.000=64.500,220.000=129.000;
#STOPS:;
#BGCHANGES:0.000=Drama Fanatic.avi=1.000=1=0=0,
254.000=Drama Fanatic-bg.png=1.000=0=0=1,
99999=-nosongbg-=1.000=0=0=0 // don't automatically add -songbackground-
;
#ATTACKS:;

//---------------dance-single - ----------------
#NOTES:
     dance-single:
     :
     Beginner:
     1:
     0.091,0.154,0.048,0.032,0.000:
0000
0000
0000
0000
,
0000
0000
0000
0000
,
0000
0000
0000
0000
,
0000
0000
0000
0000
,
0001
0000
0000
0000
,
0000
0000
0000
0000
,
1000
0000
0000
0000
,
1001
0000
0000
0000
,
0000
0001
0000
0001
,
0000
0001
0000
0000
,
0000
1000
0000
1000
,
0000
1000
0000
0000
,
0010
0000
0000
0000
,
0010
0000
0000
0000
,
0100
0000
0000
0000
,
0100
0000
0000
0000
,
0001
0000
0000
0000
,
1000
0000
0000
0000
,
1000
0000
0000
0000
,
0001
0000
0000
0000
,
0100
0000
0000
0000
,
0010
0000
0000
0000
,
0010
0000
0000
0000
,
0100
0000
0000
0000
,
0001
0000
1000
0000
,
0100
0000
0000
0000
,
0000
0000
1000
0000
,
0001
0000
1000
0000
,
0010
0000
0000
0000
,
0100
0000
0000
0000
,
0000
0000
0001
0000
,
1000
0000
0001
0000
,
2002
0000
0000
0000
,
3003
0000
0000
0000
,
0000
0000
0000
0000
,
0000
0000
0000
0000
,
1000
0000
0000
0000
,
1000
0000
0000
0000
,
0001
0000
0000
0000
,
0001
0000
0000
0000
,
1000
0000
1000
0000
,
0001
0000
0000
0000
,
0001
0000
0001
0000
,
1000
0000
0000
0000
,
0010
0000
0000
0000
,
0010
0000
0000
0000
,
1001
0000
0000
0000
,
1001
0000
0000
0000
,
0001
0000
0001
0000
,
1000
0000
0000
0000
,
1000
0000
1000
0000
,
0001
0000
0000
0000
,
0100
0000
0000
0000
,
0100
0000
0000
0000
,
0110
0000
0000
0000
,
0001
0000
0000
0000
,
1000
0000
0000
0000
,
0001
0000
0010
0000
,
0100
0000
1000
0000
,
0001
0000
0000
0000
,
1000
0000
0000
0000
,
1000
0000
0010
0000
,
0100
0000
0001
0000
,
2002
0000
3003
0000
;

//---------------dance-single - ----------------
#NOTES:
     dance-single:
     :
     Easy:
     3:
     0.188,0.231,0.056,0.113,0.000:
0000
0000
0000
0000
,
0000
0000
0000
0000
,
0000
0000
0000
0000
,
0000
0000
0000
0000
,
0001
0000
1000
0000
,
0100
0000
0000
0000
,
1000
0000
0001
0000
,
0100
0100
0010
0010
,
0000
1001
0000
1001
,
0000
0100
0010
0100
,
0000
1001
0000
1001
,
0000
0010
0100
0010
,
0020
0000
0030
0000
,
0010
0010
0001
1000
,
0200
0000
0300
0000
,
0100
0100
1000
0001
,
1000
0000
1000
0000
,
0001
0000
0001
0000
,
0100
0000
0100
0000
,
0010
0000
0010
1000
,
0001
0000
0001
0000
,
1000
0000
1000
0000
,
0100
0000
0100
0000
,
0010
0000
0010
0100
,
1000
0000
0001
1000
,
0002
0000
2003
0000
,
3010
0000
0010
1000
,
0001
0001
0100
0001
,
1000
0000
1000
0001
,
2000
0000
3002
0000
,
0103
0000
0100
0001
,
1000
1000
0100
0010
,
0200
0000
0000
0000
,
0000
0000
0000
0000
,
0320
0000
0000
0000
,
0000
0000
0000
0000
,
0031
0000
1000
0000
,
0100
0000
0000
0000
,
1000
0000
0001
0000
,
0100
0100
0010
0010
,
1000
0000
1000
0001
,
0100
0000
0100
0000
,
0001
0000
0010
0100
,
1000
0000
0001
1000
,
0020
0000
1030
0001
,
0200
0000
0310
0000
,
1001
0000
1001
0000
,
1000
0000
0001
0000
,
0010
0000
0010
0001
,
0100
0000
0100
0000
,
0010
0000
1000
0001
,
1000
0000
0100
0000
,
0200
0000
1300
0001
,
0020
0000
0130
0000
,
1000
0001
1000
0001
,
0100
0000
0000
0100
,
0010
0000
1000
0000
,
0001
1000
0001
0000
,
1000
0001
1000
0000
,
0010
0000
0100
0000
,
0001
0000
0000
0001
,
1000
0000
0100
1000
,
0010
0000
0100
0001
,
2002
0000
3003
0000
;

//---------------dance-single - ----------------
#NOTES:
     dance-single:
     :
     Medium:
     5:
     0.272,0.282,0.056,0.129,0.000:
0000
0000
0000
0000
,
0000
0000
0000
0000
,
0000
0000
0000
0000
,
0000
0000
0000
0000
,
1000
0000
1000
0100
0000
0200
0000
0000
,
1300
0000
0001
1000
,
0001
0000
0001
0100
0000
0200
0000
0000
,
0301
0000
0001
0000
1000
0001
1000
0000
,
0000
1010
0000
0101
,
0000
0010
0100
0001
,
0000
0011
0000
1100
,
0000
0010
0100
1000
,
0001
0000
0001
0100
0000
0100
0000
0000
,
0010
0000
1000
0000
0001
0100
0001
0000
,
1000
0000
1000
0100
0000
0100
0000
0000
,
0010
0000
0001
0000
1000
0001
1000
0000
,
0010
0000
0010
1000
,
0100
0010
0020
0000
,
0031
0000
1000
0001
,
0100
0000
0010
0000
1000
0001
1000
0000
,
0100
0000
1000
0010
,
1000
0100
0200
0000
,
0310
0000
0001
1000
,
0010
0000
0100
0000
0001
1000
0001
0000
,
0010
0000
0010
0001
,
0100
0000
0100
0020
0000
0000
0000
0000
,
1030
0000
0001
0000
1000
0100
0010
0000
,
0100
0000
1000
0000
0010
0000
0100
0001
,
1000
0100
1000
0010
,
0100
0000
0100
0020
0000
0000
0000
0000
,
1030
0000
0001
0000
0010
0001
1000
0000
,
0010
0000
0100
0001
0010
0000
0100
0000
,
2000
0000
0000
0000
,
0000
0000
0000
0000
,
3002
0000
0000
0000
,
0000
0000
0000
0000
,
0103
0000
0100
0010
0000
0020
0000
0000
,
1030
0000
0001
0000
,
0010
0000
0010
0100
0000
0200
0000
0000
,
1300
0000
0001
0000
1000
0001
1000
0000
,
0010
0000
0000
0000
0100
0001
0100
0000
,
0010
1000
1001
0000
,
0010
0000
0000
0000
0010
0001
0010
0000
,
0100
1000
0010
0100
,
0002
0000
0013
0100
,
2000
0000
3001
0000
,
1000
0000
1000
0000
0001
1000
0001
0000
,
1000
0000
0001
0000
1000
0001
1000
0000
,
0100
0000
0000
0000
0100
1000
0100
0000
,
0010
0001
1001
0000
,
0100
0000
0100
0010
0000
0010
0000
0000
,
1000
0001
0010
0100
,
2000
0000
3010
0100
,
0002
0000
1003
0000
,
0001
0100
0001
0000
1000
0100
1000
0000
,
0001
0000
0001
0000
0000
0100
0010
0000
,
1000
0000
1000
0000
0100
1000
0001
0000
,
0100
0010
0100
0010
,
1000
0100
0010
0001
,
1000
0000
1000
0000
0010
1000
0001
0000
,
0100
0000
0100
0000
0000
0010
1000
0000
,
0001
0001
1000
1000
,
0010
1000
0100
0010
,
2002
0000
3003
0000
;

//---------------dance-single - ----------------
#NOTES:
     dance-single:
     :
     Hard:
     7:
     0.354,0.384,0.202,0.113,0.073: // measure 1
0000
0000
0000
0000
,  // measure 2
0000
0000
0000
0000
,  // measure 3
0000
0000
0000
0000
,  // measure 4
0000
0000
0000
0000
,  // measure 5
0001
0000
0001
0100
0000
0200
0000
0000
,  // measure 6
0301
0000
1000
0000
0010
0000
0100
0001
,  // measure 7
1000
0000
1000
0100
0000
0200
0000
0000
,  // measure 8
0310
0000
0010
0000
0001
0100
1000
0000
,  // measure 9
0100
0101
0000
1100
,  // measure 10
0000
0010
0001
0100
,  // measure 11
0000
1010
0000
0011
,  // measure 12
0000
0100
1000
0010
,  // measure 13
1000
0000
1000
0001
0000
0001
0000
0100
,  // measure 14
0001
0000
1000
0000
0100
0010
0001
0000
,  // measure 15
1000
0000
0001
1000
0000
1000
0000
0100
,  // measure 16
1000
0000
0001
0000
0100
0001
0010
0000
,  // measure 17
0001
0000
0000
0011
0000
0000
0000
0000
1000
0000
0000
1010
0000
0000
0000
0000
,  // measure 18
0010
0000
0000
0110
0000
0000
0000
0000
0001
0000
0000
0000
0010
0000
0100
0000
,  // measure 19
1000
0000
0000
1100
0000
0000
0000
0000
0001
0000
0000
0101
0000
0000
0000
0000
,  // measure 20
0010
0000
0000
0110
0000
0000
0000
0000
1000
0000
0001
0000
0100
0000
0010
0000
,  // measure 21
1000
0000
0000
0101
0000
0000
0000
0000
0001
0000
0000
1100
0000
0000
0000
0000
,  // measure 22
0010
0000
0000
1001
0000
0000
0000
0000
0010
0000
0000
0000
0100
0000
1000
0000
,  // measure 23
0001
0000
0000
1100
0000
0000
0000
0000
1000
0000
0000
0101
0000
0000
0000
0000
,  // measure 24
0010
0000
0000
1001
0000
0000
0000
0000
0100
0000
0000
0000
0010
0000
1000
0000
,  // measure 25
0001
0000
0010
0000
0001
0100
0001
1000
,  // measure 26
0100
0000
0100
0020
0000
0000
0000
0000
,  // measure 27
0130
0000
1000
0000
0001
1000
0100
0000
,  // measure 28
0010
0000
0001
0000
0100
0000
0010
0100
,  // measure 29
0000
0000
0001
0000
1000
0010
0100
0000
,  // measure 30
0001
0000
0001
0200
0000
0000
0000
0000
,  // measure 31
0310
0000
1000
0000
0001
0100
0010
0000
,  // measure 32
1000
0000
0001
1000
0001
0000
1000
0000
,  // measure 33
0020
0000
0000
0000
,  // measure 34
0000
0000
0000
0000
,  // measure 35
0230
0000
0000
0000
,  // measure 36
0000
0000
0000
0000
,  // measure 37
1300
0000
1000
0100
0000
0001
0000
0000
,  // measure 38
0020
0000
0230
0000
,  // measure 39
0301
0000
0001
0100
0000
1000
0000
0000
,  // measure 40
0010
0000
0010
0000
1000
0100
0001
0000
,  // measure 41
0100
0000
1000
0000
0010
1000
0100
0010
,  // measure 42
0001
0100
1001
0000
,  // measure 43
0100
0000
0100
0000
0010
1000
0010
0100
,  // measure 44
0001
0000
0010
0000
0001
0010
0100
0200
,  // measure 45
0010
0000
0000
0310
0000
0001
1000
0020
,  // measure 46
0100
0000
0000
0130
0000
0000
1001
0000
,  // measure 47
0010
0100
0010
0000
1000
0100
0010
0000
,  // measure 48
0001
0010
0001
0010
0100
1000
0100
1000
,  // measure 49
0010
0000
0100
0000
0001
0010
0100
1000
,  // measure 50
0001
0100
1001
0100
,  // measure 51
0010
0000
0010
0000
0100
1000
0100
0010
,  // measure 52
0001
0000
0100
0000
0010
1000
0100
0200
,  // measure 53
0010
0000
0000
0310
0000
0001
1000
0020
,  // measure 54
0100
0000
0000
0130
0000
0000
1001
0000
,  // measure 55
1000
0100
0001
0100
1000
0010
0001
0010
,  // measure 56
1000
0000
0000
0101
0000
0000
0000
0000
0000
0000
0010
0000
0001
0000
1000
0000
,  // measure 57
0100
0000
0000
1001
0000
0000
1000
0000
0010
0000
0100
0000
0001
0000
0010
0000
,  // measure 58
0100
0000
0010
0000
0001
0001
0100
0000
,  // measure 59
1000
0000
0001
0000
0010
0010
1000
0000
,  // measure 60
0001
0000
0000
1100
0000
0000
1000
0000
0001
0000
1000
0000
0001
0000
0100
0000
,  // measure 61
0010
0000
0000
1001
0000
0000
0000
0000
0000
0000
0010
0000
1000
0000
0001
0000
,  // measure 62
0100
0000
0000
0100
0000
0000
0100
0000
0001
0000
0010
0000
0100
0000
1000
0000
,  // measure 63
0010
0000
0000
0010
0000
0000
0010
0000
0100
0000
0001
0000
1000
0000
0000
0000
,  // measure 64
2002
0000
3003
0000
;

//---------------dance-double - ----------------
#NOTES:
     dance-double:
     :
     Easy:
     2:
     0.137,0.205,0.008,0.113,0.000:
00000000
00000000
00000000
00000000
,
00000000
00000000
00000000
00000000
,
00000000
00000000
00000000
00000000
,
00000000
00000000
00000000
00000000
,
00010000
00000000
00000000
00000000
,
01000000
00000000
00000000
00000000
,
00001000
00000000
00000000
00000000
,
00020000
00000000
00032000
00000000
,
00003000
00010000
00000000
00010000
,
00000000
00000100
00001000
00000010
,
00000000
00001000
00000000
00001000
,
00000000
00000001
00000100
00000010
,
00000010
00000000
00000000
00000000
,
00000010
00000000
00000000
00000000
,
00010000
00000000
00000000
00000000
,
00010000
00000000
00000000
00000000
,
00001000
00000000
01000000
00000000
,
00010000
00000000
00000000
00000000
,
00100000
00000000
00010000
00000000
,
10000000
00000000
00000000
00000000
,
00100000
00000000
10000000
00000000
,
00010000
00000000
00000000
00000000
,
01000000
00000000
00001000
00000000
,
00010000
00000000
00000000
00000000
,
00001000
00000000
00010000
00000000
,
00000200
00000000
00000320
00000000
,
00000031
00000000
00000001
00000000
,
00001000
00000000
00001000
00000000
,
00000010
00000000
00010000
00000000
,
00002000
00000000
00023000
00000000
,
00031000
00000000
00001000
00000000
,
01000000
00000000
01000000
00000000
,
00020000
00000000
00000000
00000000
,
00000000
00000000
00000000
00000000
,
20030000
00000000
00000000
00000000
,
00000000
00000000
00000000
00000000
,
31000000
00000000
00000000
00000000
,
01000000
00000000
00000000
00000000
,
00100000
00000000
00000000
00000000
,
00100000
00000000
00000000
00000000
,
00001000
00000000
00010000
00001000
,
00010000
00000000
00000100
00000000
,
00001000
00000000
00000001
00001000
,
00000001
00000000
00000100
00000000
,
00000020
00000000
00001030
00001000
,
00000200
00000000
00000310
00000000
,
00000001
00000000
00000100
00000000
,
00000010
00000000
00010000
00000000
,
00001000
00000000
00001000
00010000
,
00001000
00000000
01000000
00000000
,
00010000
00000000
10000000
00010000
,
10000000
00000000
01000000
00000000
,
00200000
00000000
00310000
00010000
,
02000000
00000000
03100000
00000000
,
10000000
00000000
00010000
00000000
,
01000000
00000000
00000000
01000000
,
00100000
00000000
10000000
00000000
,
00010000
00000000
00000000
00000000
,
01000000
00000000
00000000
00000000
,
00001000
00000000
00010000
00000000
,
00010000
00000000
00000000
00010000
,
00000100
00000000
00001000
00000000
,
00000001
00000000
00000100
00000000
,
00002002
00000000
00003003
00000000
;

//---------------dance-double - ----------------
#NOTES:
     dance-double:
     :
     Medium:
     5:
     0.266,0.308,0.056,0.145,0.000:
00000000
00000000
00000000
00000000
,
00000000
00000000
00000000
00000000
,
00000000
00000000
00000000
00000000
,
00000000
00000000
00000000
00000000
,
00010000
00000000
00010000
00001000
00000000
00002000
00000000
00000000
,
00013000
00000000
00000100
00000000
,
00001000
00000000
00001000
00000001
00000000
00000002
00000000
00000000
,
00000103
00000000
00000001
00000000
00001000
00000100
00010000
00000000
,
00000000
00011000
00000000
01001000
,
00000000
01000000
00010000
00100000
,
00000000
00011000
00000000
00010100
,
00000000
00000100
00001000
00000010
,
00000100
00000000
00000100
00000001
00000000
00000002
00000000
00000000
,
00001003
00000010
00010000
00001000
,
01000000
00000000
01000000
00010000
00000000
00020000
00000000
00000000
,
10030000
00000000
00010000
00000000
10000000
00010000
10000000
00000000
,
01000000
00000000
01000000
10000000
,
00010000
01000000
00001000
00000000
,
00010000
00000000
00001000
00010000
,
00000100
00000000
00001000
00000000
00000010
00001000
00000001
00000000
,
00000100
00000000
00000100
00000001
,
00001000
00000010
00010000
00000000
,
00001000
00000000
00001000
01000000
,
00010000
00000000
00100000
00000000
01000000
10000000
00010000
00000000
,
01000000
00000000
00000000
00000000
00100000
10000000
00100000
00000000
,
20000000
01000000
32000000
00000000
,
13000000
00000000
00000000
00000000
10000000
01000000
10000000
00000000
,
00010000
00100000
00001000
00010000
,
00000010
00000000
00000000
00000000
00000100
00000001
00000100
00000000
,
00000002
00000010
00000023
00000000
,
00000031
00000000
00000000
00000000
00000001
00000100
00000001
00000000
,
00001000
00000010
00010000
00001000
,
00020000
00000000
00000000
00000000
,
00000000
00000000
00000000
00000000
,
00032000
00000000
00000000
00000000
,
00000000
00000000
00000000
00000000
,
01003000
00000000
01000000
00010000
00000000
00020000
00000000
00000000
,
01030000
00000000
00001000
00000000
,
00010000
00000000
00010000
00001000
00000000
00002000
00000000
00000000
,
00013000
00000000
00000010
00000000
00010000
00001000
00010000
00000000
,
00001000
00000000
00001000
00000000
01000000
00010000
01000000
00010000
,
00100000
01000000
11000000
00000000
,
10000000
00000000
00010000
01000000
,
00001000
00100000
00010000
01000000
,
00002000
00000000
00013000
00000010
,
00020000
00000000
00031000
00000000
,
00010000
00000100
00001000
00000010
,
00000100
00000001
00000100
00000001
00001000
00000100
00000010
00000000
,
00000001
00000000
00000000
00000000
00001000
00000100
00001000
00000100
,
00000010
00000001
00000101
00000000
,
00000001
00000000
00001000
00000010
,
00010000
00000100
00001000
00000010
,
00020000
00000000
00031000
01000000
,
00002000
00000000
00013000
00000000
,
00001000
00100000
00010000
10000000
,
01000000
00000000
01000000
00000000
00000000
01000000
10000000
00000000
,
00010000
00000000
00010000
00000000
01000000
00010000
00100000
00000000
,
01000000
10000000
00010000
00100000
,
00001000
00010000
00000010
00000100
,
00000001
00000000
00000001
00000000
00001000
00000001
00000100
00000000
,
00000010
00000000
00000010
00000000
00000000
00000010
00000100
00000000
,
00000001
00000000
00001000
00000000
,
00000100
00010000
00001000
01000000
,
20020000
00000000
30030000
00000000
;

//---------------dance-double - ----------------
#NOTES:
     dance-double:
     :
     Hard:
     7:
     0.378,0.436,0.169,0.097,0.085:
00000000
00000000
00000000
00000000
,
00000000
00000000
00000000
00000000
,
00000000
00000000
00000000
00000000
,
00000000
00000000
00000000
00000000
,
00001000
00000000
00001000
00010000
00000000
00020000
00000000
00000000
,
00031000
00000000
01000000
00000000
00010000
00000000
00100000
01000000
,
10000000
00000000
10000000
00010000
00000000
00020000
00000000
00000000
,
01030000
00000000
00001000
00000000
00010000
00001000
00011000
00000000
,
00000000
00001100
00000000
00000011
,
00000000
00000001
00001000
00010000
,
00000000
01010000
00000000
10100000
,
00000000
10000000
00010000
00001000
,
00001100
00000000
00000100
00000010
00000000
00000010
00000000
00000000
,
00000001
00000000
00000100
00000000
00000010
00000010
00001000
00000000
,
00011000
00000000
00001000
01000000
00000000
01000000
00000000
00000000
,
00010000
00000000
00100000
00000000
00010000
10000000
01000000
00000000
,
10000000
00000000
10010000
00000000
01000000
00010000
10000000
01000000
,
00100000
00010000
01000000
00001000
,
00010000
00000000
00011000
00000000
00000100
00001000
00000010
00000100
,
00000001
00000000
00000001
00000000
00000010
00000001
00001000
00000010
,
00000100
00000000
00001001
00000000
00000001
00000100
00000010
00001000
,
00000100
00000000
00000000
00000000
00001000
00000000
00000000
00000000
00000010
00000000
00000000
00000000
00010000
00001000
00010000
00001000
,
00010000
00000000
00011000
00000000
00001000
01000000
00010000
00100000
,
01000000
00000000
01000000
00000000
10000000
00100000
01000000
00010000
,
10000000
00000000
00010000
00000000
01000000
00010000
00100000
00000000
,
00001000
00000000
00001000
00020000
00000000
00000000
00000000
00000000
,
00031000
00000000
00000010
00000000
00000001
00000100
00000010
00001000
,
00001000
00000000
00000101
00000000
00000010
00000000
00000010
00000100
,
00000001
00000000
00001000
00000000
00000010
00000100
00000001
00001000
,
00000100
00000000
00000100
00020000
00000000
00000000
00000000
00000000
,
00031000
00000000
00100000
00000000
01000000
10000000
00010000
01000000
,
00100000
00000000
10000000
00010000
01000000
00000000
00100000
00000000
,
20000000
00000000
00000000
01000000
00000000
00000000
00000000
00000000
00000000
00000000
00000000
00010000
00000000
00000000
00000000
00000000
,
00000000
00000000
00000000
00100000
00000000
00000000
00000000
00000000
00000000
00000000
00000000
00010000
30000000
00000000
01000000
00000000
,
00002000
00000000
00000000
00000000
00010000
00000000
00000000
00000000
00000000
00000000
00000000
00100000
00000000
00000000
00000000
00000000
,
00000000
00000000
00000000
01000000
00000000
00000000
00000000
00000000
00000000
00000000
00000000
00010000
00003000
00000000
00010000
00000000
,
00000100
00000000
00000100
00000010
00000000
00000010
00000000
00000000
,
00000011
00000000
00000000
00000000
00000000
00000000
00000000
00000000
00001100
00000000
00000000
00000000
00001000
00000001
00001000
00000001
,
00001000
00000000
00001000
00000010
00000000
00000010
00000000
00000000
,
00010000
00000000
00010000
00000000
00001000
00010000
01000000
00000000
,
00100000
00000000
01000000
00000000
10000000
00100000
01000000
00010000
,
00100000
00001000
00011000
00000000
,
00001000
00000000
00010000
00000000
00001000
00010000
00000010
00001000
,
00000100
00000000
00000010
00000000
00000001
00000100
00000010
00002000
,
00000000
00000000
00003000
00011000
00000000
00001000
01000000
00020000
,
00000000
00000000
00030000
00011000
00000000
00000000
00001000
00000000
,
00100000
00000000
00000000
00100000
00010000
00000000
01000000
00000000
00100000
00000000
10000000
00000000
01000000
00000000
01000000
00000000
,
10000000
01000000
00100000
00001000
00010000
00000100
00000010
00000001
,
00001000
00000000
00000000
00001000
00000000
00000000
00000000
00000000
00000100
00000000
00001000
00000000
00000010
00000000
00000100
00000000
,
00000001
00001000
00000110
00000000
,
00010000
00000000
00001000
00000000
00010000
00001000
01000000
00010000
,
00100000
00000000
01000000
00000000
10000000
00100000
01000000
00020000
,
00000000
00000000
00030000
00011000
00000000
00010000
00000100
00002000
,
00000000
00000000
00003000
00011000
00000000
00000000
00010000
00000000
,
00001000
00100000
00010000
01000000
00001000
00010000
00000010
00001000
,
00000001
00000000
00000000
00000001
00000000
00000000
00000000
00000000
00000000
00000000
00000100
00000000
00000010
00000000
00001000
00000000
,
00000100
00000000
00000000
00000100
00000000
00000000
00010000
00000000
00001000
00000000
01000000
00000000
00010000
00000000
00100000
00000000
,
01000000
00000000
00000000
01000000
10000000
00000000
00000000
10000000
00010000
00000000
00100000
00000000
00001000
00000000
00001000
00000000
,
00010000
00001000
00010000
00000010
00000100
00000001
00001000
00000100
,
00000010
00000000
00000000
00000010
00000000
00000000
00000001
00000000
00001000
00000000
00000100
00000000
00000010
00000000
00000100
00000000
,
00001000
00000000
00000000
00001000
00000000
00000000
00000000
00000000
00000000
00000000
00000010
00000000
00010000
00000000
00001000
00000000
,
00010000
00000000
00000000
00010000
00000000
00000000
00010000
00000000
00001000
00000000
01000000
00000000
00100000
00000000
10000000
00000000
,
00010000
00000000
00000000
00010000
00000000
00000000
00010000
00000000
00100000
00000000
01000000
00000000
10000000
00000000
00000000
00000000
,
20020000
00000000
30030000
00000000
;
