#TITLE:Don't Stop The Music;
#SUBTITLE:;
#ARTIST:Rihanna;
#TITLETRANSLIT:;
#SUBTITLETRANSLIT:;
#ARTISTTRANSLIT:;
#GENRE:;
#CREDIT:;
#MENUCOLOR:;
#METERTYPE:DDR;
#BANNER:DSTM.png;
#BACKGROUND:DSTM-bg.png;
#LYRICSPATH:Don't Stop The Music.lrc;
#CDTITLE:ddrencorecdtitle.png;
#MUSIC:Don't Stop The Music.mp3;
#OFFSET:-1.080;
#SAMPLESTART:63.693;
#SAMPLELENGTH:15.280;
#SELECTABLE:YES;
#LISTSORT:;
#BPMS:0.000=122.700;
#STOPS:;
#BGCHANGES:13.000=Don't STM.avi=1.000=0=0=1,
224.000=DSTM-bg.png=1.000=0=0=1,
248.000=DSTM-bg.png=1.000=0=0=1,
99999=-nosongbg-=1.000=0=0=0 // don't automatically add -songbackground-
;
#ATTACKS:;

//---------------dance-single - ----------------
#NOTES:
     dance-single:
     :
     Beginner:
     2:
     0.138,0.214,0.135,0.000,0.000:
0000
0000
0000
0000
,
0000
0000
0000
0000
,
0000
0000
0000
0000
,
0000
0000
0000
0000
,
0010
0000
0010
0000
,
0100
0000
0100
0000
,
0001
0000
0001
0000
,
1001
0000
0000
0000
,
1000
0000
0000
0000
,
0010
0000
0010
0000
,
0100
0000
0000
0000
,
0001
0000
0001
0000
,
1000
0000
0000
0000
,
0100
0000
0100
0000
,
1000
0000
0000
0000
,
1001
0000
1001
0000
,
0010
0000
0010
0000
,
0100
0000
0000
0000
,
0001
0000
0001
0000
,
0010
0000
0000
0000
,
0100
0000
0100
0000
,
1000
0000
0000
0000
,
0010
0000
0010
0000
,
0100
0100
0100
0000
,
0001
0000
0000
1001
,
1001
0000
0000
0110
,
0110
0000
0000
1000
,
1000
1000
1000
0000
,
0001
0000
0000
0110
,
0110
0000
0000
1001
,
1001
0000
0000
0010
,
0010
0000
0100
0000
,
1000
0000
0001
0000
,
1000
0000
0000
0000
,
0010
0000
0100
0000
,
0010
0000
0000
1000
,
1000
1000
0000
0001
,
0001
0001
0000
0100
,
0100
0100
0000
0010
,
0010
0010
0010
0010
,
0010
0000
0100
0000
,
0010
0000
0000
0000
,
1000
0000
0001
0000
,
1000
0000
0000
0010
,
0010
0010
0000
0100
,
0100
0100
0000
0001
,
0001
0001
0000
1000
,
1000
1000
1000
1000
,
1000
0000
0000
0000
,
0110
0000
0000
0000
,
0001
0000
0000
0000
,
1001
0000
0000
0000
,
0100
0000
0000
0000
,
0110
0000
0000
0000
,
1000
0000
0000
0000
,
1001
0000
0000
0000
,
0010
0010
0000
0000
,
1000
0000
0000
0000
,
0001
0000
0000
0000
,
1000
0000
0000
1001
,
1001
0000
0000
0000
;

//---------------dance-single - ----------------
#NOTES:
     dance-single:
     :
     Hard:
     8:
     0.449,0.410,0.174,0.380,0.095:
0000
0000
0000
0000
,
0000
0000
0000
0000
,
0000
0000
0000
0000
,
0000
0000
0000
0000
,
1000
0000
0000
0000
0102
0000
0000
0000
1003
0000
0000
0100
0000
0000
0010
0000
,
0001
0000
0000
0000
0120
0000
0000
0000
1030
0000
0000
0010
0000
0000
0100
0000
,
0001
0000
0000
0000
2010
0000
0000
0000
3010
0000
0000
0100
0000
0000
0010
0000
,
2002
0000
0000
3003
,
0100
0000
0010
0000
2000
0000
0000
0000
3001
0000
0000
0001
0000
0000
0001
0000
,
0100
0010
1000
0001
0100
0010
0100
0001
,
1000
0000
0100
0000
0020
0000
0000
0000
0130
0000
0000
0100
0000
0000
0100
0000
,
1000
0010
0001
0010
1000
0100
0001
0100
,
1000
0001
0020
0000
0130
1000
0010
0100
,
0001
0100
0010
1000
0100
0001
0100
1000
,
0010
0100
0002
0000
1003
0010
0100
0010
,
1000
0100
0002
0000
0103
0000
1000
0000
,
0010
0000
0100
0000
0002
0000
0000
0000
1003
0000
0000
0100
0000
0000
0100
0000
,
1000
0010
0100
0001
1000
0100
0001
0100
,
1000
0000
0010
0000
0200
0000
0000
0000
0301
0000
0000
0010
0000
0000
0010
0000
,
0001
0100
0010
1000
0100
1000
0010
0100
,
0001
0000
1000
0000
0020
0000
0000
0000
0130
0000
0000
0001
0000
0000
0001
0000
,
0100
0010
1000
0100
0001
0100
1000
0010
,
0001
0010
2000
0000
3001
0100
1000
0100
,
0001
0010
0200
0000
0000
0020
0000
0330
,
0000
0010
0100
1000
0001
0100
0101
0000
,
0000
0010
1000
0100
1000
0010
0110
0000
,
0000
0001
1000
0010
0100
0001
1000
0100
,
0020
0000
0032
0000
1003
0010
1010
0000
,
0000
0100
0001
1000
0010
0100
0020
0000
,
0000
1030
0001
0010
1000
0010
0002
0000
,
0003
1000
0100
1000
0020
0000
0130
0001
,
0200
0000
0310
1000
0100
1000
1001
0000
,
0100
0000
0000
0101
0000
0000
0010
0000
0011
0000
0000
0100
0000
0000
1000
0000
,
1010
0000
0100
0001
0010
0100
1000
0010
,
1000
0000
0000
1010
0000
0000
0100
0000
0101
0000
0000
0010
0000
0000
0100
0000
,
2100
0000
3100
0000
0010
0001
0100
0010
,
0200
0000
0301
0000
0010
1000
0100
0010
,
0200
0000
1300
0000
0001
0100
1000
0100
,
0002
0000
0103
0000
1000
0010
0001
0001
,
1000
0100
0001
0001
0020
0000
0130
0000
,
1000
0000
0000
1100
0000
0000
0010
0000
1010
0000
0000
0100
0000
0000
0001
0000
,
0011
0000
0100
1000
0010
0100
0001
0100
,
0001
0000
0000
0011
0000
0000
0100
0000
1100
0000
0000
0010
0000
0000
0100
0000
,
0102
0000
0013
0000
0100
1000
0010
0100
,
0020
0000
1030
0000
0001
0010
0100
0010
,
0002
0000
0103
0000
0010
1000
0100
0001
,
0200
0000
0310
0000
0001
0100
1000
1000
,
0001
0010
1000
1000
0001
0100
1000
1000
,
0200
0000
0301
0000
0010
0100
0010
0000
,
0200
0000
0000
0000
1300
0000
0000
0001
0000
0100
0001
0000
0000
0000
0000
0000
,
0020
0000
0130
0000
0001
1000
0001
0000
,
0020
0000
0000
0000
0130
0000
0000
1000
0000
0001
0100
0000
0010
0000
1000
0000
,
0102
0000
0013
0000
0100
1000
0100
0000
,
0020
0000
0000
0000
0031
0000
0000
0100
0000
0010
1000
0000
0000
0000
0000
0000
,
0200
0000
0310
0000
0001
0010
0001
0000
,
2000
0000
0000
0000
3010
0000
0000
0100
0000
0001
1000
0000
0010
0000
0100
0000
,
0002
0000
2003
0000
,
3200
0000
0320
0000
,
0032
0000
0203
0000
,
0320
0000
0000
0000
0130
0001
0100
0000
,
2002
0000
0000
0000
,
3003
0000
0000
0000
;

//---------------dance-single - ----------------
#NOTES:
     dance-single:
     :
     Medium:
     5:
     0.309,0.319,0.111,0.158,0.000: // measure 1
0000
0000
0000
0000
,  // measure 2
0000
0000
0000
0000
,  // measure 3
0000
0000
0000
0000
,  // measure 4
0000
0000
0000
0000
,  // measure 5
1001
0000
0001
0000
0100
0000
0010
1000
,  // measure 6
0010
0100
0001
1000
,  // measure 7
0010
0000
0100
0000
0001
0000
1000
0100
,  // measure 8
1000
1000
1000
0010
,  // measure 9
0100
0001
0100
0000
0001
0000
1000
0000
,  // measure 10
0100
0010
0001
0100
,  // measure 11
0001
1000
0001
0000
1000
0000
0100
0000
,  // measure 12
1000
0001
0100
0010
,  // measure 13
0100
0010
0100
0000
0001
0000
1000
0000
,  // measure 14
0100
0010
0001
1000
,  // measure 15
0010
0100
0010
0000
1000
0000
0001
0000
,  // measure 16
0010
0100
2000
0000
,  // measure 17
3001
0100
0001
0000
1000
0000
0100
0000
,  // measure 18
0010
0001
0010
0100
,  // measure 19
1000
0010
1000
0000
0010
0000
0100
0000
,  // measure 20
0001
0100
0010
1000
,  // measure 21
0001
0010
0001
0000
1000
0000
0100
0000
,  // measure 22
0010
0100
1000
0001
,  // measure 23
0100
0010
0100
0000
1000
0000
0001
0000
,  // measure 24
0100
0010
2000
0000
,  // measure 25
3001
0000
0010
0000
0001
1000
0010
0000
,  // measure 26
0100
0000
0001
0000
1000
0001
0100
0000
,  // measure 27
0010
1000
0100
1000
,  // measure 28
1001
0000
0110
0000
0010
1000
0001
0010
,  // measure 29
0001
1000
0010
0200
,  // measure 30
0301
1000
0100
0020
,  // measure 31
0031
1000
0001
0100
,  // measure 32
0010
0100
0001
2000
,  // measure 33
3001
0000
0100
0010
1000
0000
0001
0000
,  // measure 34
0011
0000
0100
0000
1000
0001
1000
0000
,  // measure 35
0001
0100
0010
1000
,  // measure 36
1010
0000
0100
0000
0001
0000
1000
0001
,  // measure 37
2000
0000
3100
0000
0010
0000
0001
1000
,  // measure 38
0002
0103
0010
0010
,  // measure 39
2000
3001
0100
0100
,  // measure 40
0010
0010
2000
3001
,  // measure 41
1000
0000
0010
0100
0001
0000
1000
0000
,  // measure 42
1010
0000
0100
0000
0001
0000
1000
0100
,  // measure 43
2000
3001
1000
0010
,  // measure 44
1010
0000
0100
0000
0001
0000
0010
0001
,  // measure 45
0020
0000
0130
0000
1000
0000
0001
1000
,  // measure 46
0002
0103
0010
0010
,  // measure 47
2000
3001
0010
0010
,  // measure 48
0100
0100
1000
1000
,  // measure 49
0020
0000
0130
0000
0001
1000
0001
0000
,  // measure 50
1000
0000
0100
0000
0010
0001
0010
0000
,  // measure 51
0100
0000
1000
0000
0001
1000
0001
0000
,  // measure 52
0100
0010
1010
0101
,  // measure 53
1001
0000
1000
0000
0100
0010
0100
0000
,  // measure 54
1000
0000
0001
0000
1000
0010
1000
0000
,  // measure 55
0001
0000
0010
0000
0100
1000
0100
0000
,  // measure 56
0010
0001
1001
0110
,  // measure 57
2001
0000
0000
3000
,  // measure 58
0020
0000
0000
0030
,  // measure 59
0200
0000
0000
0300
,  // measure 60
0002
0000
0000
0003
,  // measure 61
2002
0000
0000
0000
,  // measure 62
0000
0000
0000
0000
,  // measure 63
3003
0000
0000
0000
;

//---------------dance-single - ----------------
#NOTES:
     dance-single:
     :
     Easy:
     4:
     0.246,0.270,0.095,0.277,0.000:
0000
0000
0000
0000
,
0000
0000
0000
0000
,
0000
0000
0000
0000
,
0000
0000
0000
0000
,
1000
0100
1000
1000
,
0001
0100
0001
0001
,
1000
0010
0100
0100
,
0020
0000
0000
0030
,
1000
0200
0000
0300
,
1000
0001
0100
0010
,
0100
0002
0000
0003
,
1000
0100
1000
0010
,
0100
0020
0000
1030
,
0100
1000
0001
0100
,
0001
0020
0000
0130
,
1000
0002
0000
0003
,
0100
0020
0000
0030
,
0100
0001
0100
0010
,
1000
0020
0000
1030
,
0001
1000
0100
1000
,
0100
2000
0000
3000
,
0001
0100
0001
0010
,
0001
1000
0002
0000
,
0103
0010
0200
0000
,
0310
2000
3000
1001
,
0001
0200
0300
0110
,
0100
0010
1000
0010
,
0100
0001
1000
1001
,
0000
0001
0100
0002
,
0000
1003
0100
2000
,
0000
3010
0100
0010
,
0100
0001
0100
0002
,
1003
0100
1000
0001
,
1001
0000
0200
0000
,
0310
0100
0010
1000
,
1010
0000
0002
0000
,
1003
0010
2000
0000
,
3001
0100
0002
0000
,
0013
0100
0020
0000
,
1030
0001
1001
0000
,
0200
0000
0310
1000
,
0002
0000
0103
0001
,
2000
0000
3100
0010
,
0002
0000
0103
0010
,
0100
0110
0000
1000
,
0001
1001
0000
0100
,
0001
0101
0000
0010
,
1000
0100
1100
1100
,
2000
0010
0010
3010
,
0200
0001
0301
0000
,
0002
0010
0010
0013
,
0200
1000
1300
0000
,
0010
0100
0010
1000
,
0100
1000
0100
0000
,
1000
0001
0100
0001
,
0100
0010
0100
0000
,
0020
0000
0000
0030
,
2000
0000
0000
3000
,
0002
0000
0000
0003
,
0200
0000
0000
0300
,
2002
0000
0000
0000
,
0000
0000
0000
0000
,
3003
0000
0000
0000
;

//---------------dance-double - ----------------
#NOTES:
     dance-double:
     :
     Easy:
     4:
     0.233,0.217,0.055,0.190,0.000:
00000000
00000000
00000000
00000000
,
00000000
00000000
00000000
00000000
,
00000000
00000000
00000000
00000000
,
00000000
00000000
00000000
00000000
,
10000000
01000000
10000000
00010000
,
01000000
00010000
20000000
00000000
,
30010000
01000000
00001000
00010000
,
00022000
00000000
00033000
00000000
,
00000100
00002000
00000000
00003010
,
00000010
00000100
00000001
00000100
,
00000002
00000000
00001003
00000100
,
00001000
00000100
00010000
00001000
,
02000000
00000000
03100000
01000000
,
00010000
01000000
00010000
10000000
,
02000000
00000000
13000000
00010000
,
02000000
00000000
03000000
00000000
,
00010000
00200000
00000000
00300000
,
00010000
01000000
00010000
00100000
,
00001000
00020000
00000000
00030000
,
00000100
00001000
00000010
00001000
,
00000100
00020000
00000000
00031000
,
00010000
00000100
00001000
00000010
,
00000200
00000000
00000301
00002000
,
00000000
00003200
00000000
00010300
,
00001000
01000000
00010000
01010000
,
00000000
00100000
10000000
10100000
,
00000000
01000000
00010000
00100000
,
00001000
00010000
00001000
00011000
,
00000000
00000100
00001000
00001100
,
00000000
00000001
00000100
00000101
,
00000000
00000010
00001000
00000100
,
00010000
00001000
00010000
00002000
,
00103000
01000000
10000000
01000000
,
00100000
00000000
00010000
00000000
,
01000000
00010000
01000000
00001000
,
00010000
00000000
00001000
00010000
,
00000100
00000000
00001000
00000010
,
00000100
00000000
00000001
00001000
,
00000100
00000000
00000010
00000001
,
00000010
00000100
00001000
00000000
,
00000100
00010000
00001000
00010000
,
00000100
00000000
00001000
00000000
,
00000010
00000100
00000001
00000100
,
00000010
00000000
00001000
00000100
,
00001000
00000000
00000100
00010000
,
00000100
00000000
00010000
00001000
,
00010000
00000000
00001000
01000000
,
00100000
01000000
00010000
10000000
,
02000000
00000000
00100000
03100000
,
00020000
00000000
01000000
01030000
,
00002000
00000000
00010000
00013000
,
00000100
00001000
00000010
00001000
,
00000200
00000000
00010000
00010300
,
00002000
00000000
00100000
00103000
,
00020000
00000000
01000000
01030000
,
00200000
00000000
10000000
10300000
,
00010000
01000000
00000000
00001000
,
00000000
00010000
00000000
00001000
,
00000000
01000000
00000000
00010000
,
00000000
00100000
00001000
00010000
,
00022000
00000000
00000000
00000000
,
00033000
00000000
00000000
00000000
;

//---------------dance-double - ----------------
#NOTES:
     dance-double:
     :
     Medium:
     6:
     0.303,0.410,0.103,0.245,0.024:
00000000
00000000
00000000
00000000
,
00000000
00000000
00000000
00000000
,
00000000
00000000
00000000
00000000
,
00000000
00000000
00000000
00000000
,
00010000
01000000
00100000
10010000
,
01000000
00000000
00001000
00000000
00010000
00001000
00001000
00000000
,
00010000
00000010
00000100
00001001
,
00000020
00000000
00000030
00001001
,
00001000
00000100
00002000
00000000
00000000
00000000
00003010
00000000
,
00000100
00000001
00001000
00000100
,
00010000
00001000
00020000
00000000
00000000
00000000
00031000
00000000
,
01000000
00010000
00100000
00010000
,
10000000
00100000
20000000
00000000
00000000
00000000
31000000
00000000
,
00100000
00010000
01000000
00001000
,
00010000
00001000
00020000
00000000
00000000
00000000
00030100
00000000
,
00000100
00001000
00000200
00000000
00000000
00000000
00000310
00000000
,
00000001
00002000
00000000
00003000
,
00000001
00000100
00000001
00000000
00001000
00000000
00000010
00000000
,
00010000
00001000
00020000
00000000
00000000
00000000
00031000
00000000
,
00100000
01000000
00100000
00010000
,
10000000
00010000
20000000
00000000
00000000
00000000
30100000
00000000
,
10000000
01000000
10000000
00000000
00010000
01000000
00010000
00000000
,
00100000
00002000
00000000
00013000
,
00000010
00020000
00000000
00031000
,
00000000
00001000
00100000
01100000
,
00000000
00100000
00001000
00011000
,
00000000
00000000
00010000
00000000
00000010
00001000
00000010
00000000
,
00000100
00000000
00000001
00000000
00001000
00000010
00010000
00000000
,
00000000
00010000
00000100
00000110
,
00000000
00000100
00010000
00011000
,
00000000
00000000
00001000
01000000
00010000
00000000
00100000
00000000
,
01000000
00000000
10000000
00000000
00010000
00100000
00001000
00000000
,
00010000
00000000
00000000
00010000
00000000
00000000
00010000
00000000
00001000
00000000
00000000
00001000
00000000
00000000
00001000
00000000
,
00010000
00000000
01000000
00000000
10000000
00010000
01000000
00000000
,
00001000
00000000
00000000
00001000
00000000
00000000
00001000
00000000
00010000
00000000
00000000
00010000
00000000
00000000
00010000
00000000
,
00001000
00000010
00000001
00001000
,
00000010
00000200
00000301
00000002
,
00001003
00002000
00003100
00000200
,
00010300
00000000
00001000
00000000
00010000
00001000
00010000
00000000
,
00001000
01000000
00010000
00000000
00100000
00000000
10010000
00000000
,
01000000
00200000
10300000
20000000
,
30010000
00020000
01030000
02000000
,
03001000
00000000
00000000
00001000
00000000
00000000
00001000
00000000
00010000
00000000
00000000
00010000
00000000
00000000
00010000
00000000
,
00001000
01000000
00100000
10000000
,
01000000
02200000
03300000
00220000
,
00330000
00022000
00033000
00002020
,
00003030
00000000
00000100
00000000
00000010
00000100
00000010
00000000
,
00001000
00000100
00000010
00000000
00000001
00000100
00000010
00000000
,
00001000
00000100
00000010
00000010
,
00000001
00001000
00000020
00000000
,
00001030
00000100
00010000
00010000
,
00001000
00000000
01000000
00000000
00100000
10000000
00010000
00000000
,
00100000
00010000
01000000
01000000
,
00100000
10000000
00020000
00000000
,
00130000
00001000
00010000
00010000
,
00000010
00000000
00000100
00000000
00000001
00000010
00000100
00001000
,
00000001
00000100
00000000
00000010
,
00000000
00010000
00000000
00000000
,
00001000
00000000
01000000
00000000
,
00100000
00000000
00000000
00000000
10000000
01000000
00100000
00000000
,
20020000
00000000
00000000
00000000
,
30030000
00000000
00000000
00000000
;

//---------------dance-double - ----------------
#NOTES:
     dance-double:
     :
     Hard:
     7:
     0.402,0.386,0.190,0.158,0.028:
00000000
00000000
00000000
00000000
,
00000000
00000000
00000000
00000000
,
00000000
00000000
00000000
00000000
,
00000000
00000000
00000000
00000000
,
00000010
00000000
00000000
00000000
00001001
00000000
00000000
00000000
00000100
00000000
00000000
00000010
00000000
00000000
00001000
00000000
,
00000100
00000000
00011000
00000000
00100000
00001000
00010000
00000000
,
00001000
00000000
00000000
00000000
01010000
00000000
00000000
00000000
00100000
00000000
00000000
01000000
00000000
00000000
00010000
00000000
,
00100000
00001000
00010000
00011000
,
00010000
00000000
00000100
00000000
00001000
00000000
00000000
00000000
00000010
00000000
00000000
00000100
00000000
00000000
00000010
00000000
,
00001000
00000001
00001000
00000100
00010000
00001000
01000000
00010000
,
10000000
00000000
01000000
00000000
00100000
00000000
00000000
00000000
01000000
00000000
00000000
10000000
00000000
00000000
00010000
00000000
,
01000000
00000000
10010000
00000000
00100000
00000000
01000000
00010000
,
00100000
00001000
00010000
00000000
00001000
00000000
00010000
00000100
,
00010000
00000010
00001000
00000001
00000100
00000010
00001000
00000100
,
00010000
00000000
00000010
00000000
00001000
00000000
00000000
00000000
00000001
00000000
00000000
00001000
00000000
00000000
00000010
00000000
,
00000100
00001001
00000001
00001100
,
00000010
00000000
00000100
00000000
00001000
00000000
00000000
00000000
00000010
00000000
00000000
00010000
00000000
00000000
00001000
00000000
,
00100000
00000000
00011000
00000000
00001000
01000000
00100000
10000000
,
00010000
00000000
00100000
00000000
01000000
00000000
00000000
00000000
00100000
00000000
00000000
00010000
00000000
00000000
01000000
00000000
,
00100000
10000000
00010000
00000000
00100000
00010000
01000000
00000000
,
00010000
00100000
00001000
00000000
00010000
00000000
00101000
00000000
,
00001000
00010000
00000100
00000010
00000001
00000100
00000001
00001000
,
00000100
00010000
00000010
00000000
00001000
00000000
00000101
00000000
,
00000010
00001000
00000001
00000000
00000010
00000000
00001100
00000000
,
00000000
00000001
00000100
00001000
00010000
00100000
10000000
11000000
,
00000000
10000000
00100000
00010000
00001000
00000100
00000001
00000011
,
00000000
00000001
00001000
00001000
00000010
00010000
00001000
00001000
,
01000000
00100000
10000000
00010000
10000000
00100000
01000000
01100000
,
00000000
00010000
10000000
00010000
01000000
00001000
00020000
00000000
,
00000000
00031000
00010000
00000100
00000010
00000001
00002000
00000000
,
00000000
00003010
00001000
00000001
00001000
00000000
00000100
00010000
,
00000100
00000000
00010000
00001000
00010000
00000000
00001100
00000000
,
00000020
00001000
00000230
00000001
,
00000310
00000000
00001000
00000001
00001000
00000100
00010000
00001000
,
00200000
00010000
00302000
00010000
,
00103000
00000000
01000000
00000000
10000000
01000000
00100000
00010000
,
10000000
00000000
10010000
00000000
00010000
01000000
00001000
00010000
,
00000100
00000000
00011000
00000000
00010000
00000100
00001000
00000010
,
00000100
00000000
00001001
00000000
00000010
00000100
00000001
00000001
,
00001000
00000100
00000010
00000001
00001000
00000000
00000110
00000000
,
00000002
00001000
00000203
00000010
,
00000301
00000000
00000100
00000010
00001000
00000010
00000100
00000001
,
00002000
00000100
00003020
00010000
,
00001030
00000000
00000101
00000000
00000010
00000100
00000001
00001000
,
00000100
00000000
00011000
00000000
00001000
01000000
00010000
00100000
,
00001000
00000000
00011000
00000000
00001000
01000000
00100000
10000000
,
00010000
00000000
10010000
00000000
00010000
01000000
00100000
00100000
,
10000000
00010000
00100000
00100000
00010000
01000000
00001000
00010000
,
00000200
00010000
00001000
00010300
,
00002000
00000000
01000000
00000000
00103000
00010000
01000000
00000000
,
00200000
10000000
01000000
10300000
,
00020000
00000000
10000000
00000000
00130000
00001000
00010000
00000100
,
00002000
00000010
00000001
00003100
,
00000020
00000000
00010000
00000000
00001030
00000001
00000100
00000000
,
00000020
00001000
00000100
00010030
,
00002000
00000000
00010000
00000000
00103000
00001000
00010000
00000100
,
00001000
00001100
00010000
00000000
,
00000010
00000000
00010000
00001000
,
00100000
00000000
01000000
00000000
,
10000000
00000000
00000000
00000000
00010000
00100000
00001000
00010000
,
00000200
00002000
00000000
00000000
,
00003300
00000000
00000000
00000000
;
