#TITLE:Disturbia;
#SUBTITLE:(Craig C's Master Vocal Mix);
#ARTIST:Rihanna;
#TITLETRANSLIT:;
#SUBTITLETRANSLIT:;
#ARTISTTRANSLIT:;
#GENRE:;
#CREDIT:;
#MENUCOLOR:;
#METERTYPE:DDR;
#BANNER:Disturbia (Craig C's Master Vocal Mix)-bn.png;
#BACKGROUND:Disturbia (Craig C's Master Vocal Mix)-bg.png;
#LYRICSPATH:Lyrics.lrc;
#CDTITLE:ddrencorecdtitle.png;
#MUSIC:Disturbia (Craig C's Master Vocal Mix).mp3;
#OFFSET:-0.030;
#SAMPLESTART:22.266;
#SAMPLELENGTH:15.234;
#SELECTABLE:YES;
#LISTSORT:;
#BPMS:0.000=128.000,176.000=64.000,192.000=128.000;
#STOPS:;
#BGCHANGES:;
#ATTACKS:;

//---------------dance-single - ----------------
#NOTES:
     dance-single:
     :
     Beginner:
     1:
     0.097,0.145,0.008,0.000,0.000:
0000
0000
0000
0000
,
0000
0000
0000
0000
,
0000
0000
0000
0000
,
0000
0000
0000
0000
,
0100
0000
0000
0000
,
0000
0000
0000
0000
,
0001
0000
0000
0000
,
0000
0000
0000
0000
,
1000
0000
0000
0000
,
0000
0000
0000
0000
,
0010
0000
0000
0000
,
1000
0000
0000
0000
,
0001
0001
0000
0000
,
1000
0000
0001
0000
,
1000
1000
0000
0000
,
0010
0000
0100
0000
,
0001
0001
0000
0000
,
0010
0000
0100
0000
,
1000
1000
0000
0000
,
0001
0001
0000
0000
,
1000
0000
0000
0000
,
0100
0000
0010
0000
,
0001
0000
0000
0000
,
0100
0000
0010
0000
,
1000
0000
0000
0000
,
0001
0000
0100
0000
,
0010
0000
0000
0000
,
1000
0000
0010
0000
,
0100
0000
0000
0000
,
0000
0000
0010
0010
,
0000
0000
0000
0000
,
0000
0000
1000
1000
,
0000
0000
0000
0000
,
0000
0000
0001
0001
,
0000
0000
0000
0000
,
0000
0000
0001
0000
,
1000
0000
0001
0000
,
0100
0000
0010
0000
,
1000
0000
0001
0000
,
0010
0000
0100
0000
,
1000
0000
0001
0000
,
0100
0000
0010
0000
,
1000
1000
1000
0000
,
0001
0000
1000
0000
,
0001
0000
0000
0000
,
1000
0000
0000
0000
,
0001
0000
0000
0000
,
1001
0000
0000
0000
,
1000
1000
0000
0000
,
0010
0000
0100
0000
,
0001
0001
0000
0000
,
0010
0000
0100
0000
,
1000
1000
0000
0000
,
0001
0000
1000
0000
,
0001
0001
0000
0000
,
1000
1000
0000
0000
,
0010
0000
0000
0000
,
0100
0000
0000
0000
,
0010
0000
0000
0000
,
0100
0000
0000
0000
;

//---------------dance-single - ----------------
#NOTES:
     dance-single:
     :
     Easy:
     4:
     0.245,0.269,0.098,0.156,0.000:
0000
0000
0000
0000
,
0000
0000
0000
0000
,
0000
0000
0000
0000
,
0000
0000
0000
0000
,
0001
0001
1000
0010
,
0100
0000
0100
0000
,
0010
0010
1000
0001
,
0100
0000
0100
0000
,
0001
0001
0010
0100
,
1000
0000
1000
0000
,
0100
0100
1000
0010
,
0200
0000
0301
1000
,
0001
2000
0000
3010
,
1000
0010
0100
0001
,
1000
0002
0000
1003
,
0001
0100
0010
1000
,
0010
0020
0000
1030
,
0100
1000
0001
0100
,
0001
0002
0000
0003
,
1000
2000
0000
3000
,
1001
0001
0100
0010
,
1000
0000
0001
0000
,
1000
0010
0100
0001
,
1000
0000
0010
0010
,
1000
0100
0010
0001
,
1000
0000
0001
0000
,
1000
0010
0100
0001
,
1000
0000
0001
0000
,
1001
0001
0100
0010
,
1000
0100
0010
0010
,
0100
1000
0010
0100
,
0001
1000
0001
0001
,
0010
0100
1000
0001
,
0100
0010
0100
0100
,
0001
1000
0100
0010
,
0001
0000
1000
0000
,
0002
0000
2003
0000
,
3020
0000
1030
0001
,
0200
0000
0302
0000
,
2003
0000
3010
1000
,
0200
0000
2300
0000
,
3020
0000
0130
0001
,
1000
1000
0001
0001
,
0010
0000
0002
0000
2000
0003
0000
3000
,
0001
0001
0000
0000
1000
0000
0001
0000
,
1000
1000
0000
0000
0010
0000
0100
0000
,
0001
0001
0000
0000
0010
0000
0100
0000
,
1000
0001
1000
0010
,
1001
1001
0000
0000
,
0010
0001
0100
0010
,
1001
1001
0000
0000
,
0010
1000
0001
0100
,
1001
1001
0000
0000
,
0010
0001
0100
0010
,
1001
0110
0000
0000
,
0110
2002
0000
3003
,
0001
0010
0100
0000
,
0010
0100
1000
0000
,
0100
1000
0001
0000
,
1000
0001
0100
0100
;

//---------------dance-single - ----------------
#NOTES:
     dance-single:
     :
     Medium:
     5:
     0.333,0.392,0.107,0.156,0.000:
0000
0000
0000
0000
,
0000
0000
0000
0000
,
0000
0000
0000
0000
,
0000
0000
0000
0000
,
0001
0000
0001
0000
1000
0100
0010
0001
,
0000
0000
1000
0100
1000
0000
0101
0000
,
1000
0000
1000
0000
0001
0010
0100
1000
,
0000
0010
0010
1001
,
0001
0000
0001
0000
1000
0010
0100
0001
,
0000
0000
1000
0010
1000
0000
0011
0000
,
1000
0000
1000
0000
0001
0100
0010
1000
,
0002
0000
1003
0001
,
0100
0200
0000
0310
,
1000
0000
0001
1000
0000
0001
0000
0000
,
0010
0020
0000
0130
,
1000
0000
0001
1000
0000
0001
0000
0000
,
1000
2000
0000
3010
,
0100
0000
0001
1000
0000
0001
0000
0000
,
0110
0220
0000
0330
,
1001
1002
0100
0003
,
0001
0000
0100
0000
0001
0100
0001
1000
,
0100
0010
0100
0100
,
1000
0000
0010
0000
1000
0010
1000
0001
,
0100
0001
0010
0010
,
0001
0000
1000
0000
0001
0100
0010
1000
,
0001
0100
0010
0010
,
1000
0000
0001
0000
1000
0100
0010
0001
,
1000
0010
0100
0100
,
1001
0010
0001
0100
,
0010
0000
1000
0000
0100
0010
0100
0000
,
1000
0001
0100
0010
,
0100
0000
0001
0000
1000
0001
1000
0000
,
0001
0010
0100
1000
,
0001
0000
0100
0000
0010
1000
0010
0000
,
0100
0100
0010
0010
,
1000
0001
0010
0000
,
0001
0000
1000
0100
0000
0100
0010
0000
,
0100
0000
1000
0001
0100
0000
0100
0000
,
0001
0000
1000
0010
0000
0010
0100
0000
,
0010
0000
1000
0001
0010
0000
0010
0000
,
0001
0000
1000
0100
0000
0100
0010
0000
,
0001
0000
1000
0010
0100
0000
0001
0000
,
1001
1001
0110
0110
,
0001
0000
2000
0000
0002
3000
0000
0003
,
0100
0200
0000
0000
0310
1000
0010
1000
,
0001
0002
0000
0000
0013
0001
0010
0001
,
1000
2000
0000
0000
3010
0100
0010
0100
,
0001
1000
0100
0010
2002
0000
0000
3003
,
0001
0100
0002
0000
0000
1003
0001
0000
,
0010
0100
1000
0001
,
1000
0010
2000
0000
0000
3001
1000
0000
,
0001
0100
0010
1000
,
0001
1000
0002
0000
0000
1003
0001
0000
,
0010
0100
1000
0010
,
1000
0001
2000
0000
0000
0000
3000
0000
,
0001
1000
0002
0000
0010
0000
0003
0000
,
0001
0000
0100
0000
0001
1000
0100
0000
,
1000
0000
0010
0000
1000
0001
0100
0000
,
0001
0000
0010
0000
0100
1000
0010
0000
,
0100
0000
0001
0000
1000
0001
0100
0000
;

//---------------dance-single - ----------------
#NOTES:
     dance-single:
     :
     Hard:
     8:
     0.519,0.719,0.205,0.287,0.148: // measure 1
0000
0000
0000
0000
,  // measure 2
0000
0000
0000
0000
,  // measure 3
0000
0000
0000
0000
,  // measure 4
0000
0000
0000
1100
,  // measure 5
0001
0000
0000
0000
0001
0000
0000
1000
0001
0000
0100
0000
0010
0000
1000
0000
,  // measure 6
0100
0000
0100
0010
0100
0000
0011
0000
,  // measure 7
1000
0000
0000
0000
1000
0000
0000
0001
1000
0000
0010
0000
0100
0000
0001
0000
,  // measure 8
0010
0000
0010
0100
0010
0100
1001
0000
,  // measure 9
0001
0000
0000
0000
0001
0000
0000
1000
0001
0000
0010
0000
0100
0000
1000
0000
,  // measure 10
0010
0000
0010
0100
0010
0000
0101
0000
,  // measure 11
1000
0000
0000
0000
1000
0000
0000
0001
1000
0000
0100
0000
0010
0000
0001
0000
,  // measure 12
0100
1000
0100
1000
0001
0010
0001
0010
,  // measure 13
2000
0000
0200
0000
3000
1000
1300
0010
,  // measure 14
0100
0001
0010
0100
0001
0100
1000
0001
,  // measure 15
2000
0000
0020
0000
3000
1000
1030
0001
,  // measure 16
0100
0010
1000
0100
0010
1000
0010
0001
,  // measure 17
2000
0000
0002
0000
3000
1000
1003
0010
,  // measure 18
1000
0001
0010
0001
0100
1000
0100
0001
,  // measure 19
0020
0000
0200
0000
0030
0000
0310
0001
,  // measure 20
1000
0000
0001
0000
1000
1000
0001
0001
,  // measure 21
0110
0000
0000
0000
0001
0000
0010
0001
0010
0000
0100
0000
1000
0000
0100
0000
,  // measure 22
0020
1000
0031
1001
,  // measure 23
0001
0000
0000
0000
1000
0000
0100
1000
0100
0000
0010
0000
0001
0000
0010
0000
,  // measure 24
0200
0000
0001
0000
1300
1000
0101
0000
,  // measure 25
0010
0000
0000
0000
0100
0000
1000
0010
1000
0000
0100
0000
0010
0000
0001
0000
,  // measure 26
0200
1000
0301
1010
,  // measure 27
0010
0000
0000
0000
0100
0000
0001
0010
0001
0000
0100
0000
0010
0000
1000
0000
,  // measure 28
0100
0001
0100
0001
1000
0010
1000
0010
,  // measure 29
0001
0100
0001
0010
0001
0100
0001
1000
,  // measure 30
0001
0100
1000
0100
0010
0010
0101
0000
,  // measure 31
1000
0010
1000
0100
1000
0010
1000
0001
,  // measure 32
1000
0010
0001
0010
0100
0100
1010
0000
,  // measure 33
0001
0010
1000
0010
0100
1000
0010
0001
,  // measure 34
0010
0100
0001
1000
0100
0100
0011
0000
,  // measure 35
1000
0100
0001
0100
0010
0001
1000
0010
,  // measure 36
0001
0010
0100
0001
1000
0000
1001
0000
,  // measure 37
0110
0100
0001
0020
0000
0031
0100
2000
,  // measure 38
0000
3100
0010
0100
0002
0000
1003
0000
,  // measure 39
0110
0010
1000
0200
0000
1300
0010
0002
,  // measure 40
0000
0013
0100
0010
2000
0000
3001
0000
,  // measure 41
0110
0100
1000
0020
0000
1030
0100
0002
,  // measure 42
0000
0103
0010
0100
2000
0000
3001
0000
,  // measure 43
0110
0011
1100
1001
,  // measure 44
0001
0100
0010
2000
0002
0000
0000
3003
,  // measure 45
0100
0000
0200
0000
0000
0310
1000
0010
0100
0001
0010
0100
1000
0100
0010
0001
,  // measure 46
0010
0000
0020
0000
0000
0130
1000
0100
0010
0001
0100
0010
1000
0010
0100
0001
,  // measure 47
1000
0000
2000
0000
0000
3001
0010
0100
1000
0001
0100
0010
1000
0010
0100
0001
,  // measure 48
1000
0100
0010
0001
0000
1000
0001
0100
0000
0001
1000
0020
0000
0000
0130
0000
,  // measure 49
0002
0000
2000
0000
0003
0001
3001
0010
,  // measure 50
0100
1000
0010
0100
1000
0100
0001
0010
,  // measure 51
0002
0000
2000
0000
0003
0001
3001
1000
,  // measure 52
0010
0100
0001
1000
0010
0001
0010
1000
,  // measure 53
0002
0000
2000
0000
0003
0001
3001
0100
,  // measure 54
0010
1000
0100
0010
1000
0010
0001
0100
,  // measure 55
0020
0000
0200
0000
0030
0000
0310
1000
,  // measure 56
0001
0000
1000
0000
0001
0001
1000
1000
,  // measure 57
0110
0000
0000
0000
0001
0000
0000
0000
1000
0100
1000
0000
0001
0000
0000
0000
,  // measure 58
0110
0000
0000
0000
1000
0000
0000
0000
0001
0100
0001
0000
1000
0000
0000
0000
,  // measure 59
0110
0000
0000
0000
1001
0000
0000
0000
0010
0001
1000
0000
0001
0000
0000
0000
,  // measure 60
0110
0000
0000
0000
1001
0000
0000
0000
0100
1000
0001
0000
1000
0000
0000
0000
,  // measure 61
0020
0000
0030
0000
;

//---------------dance-double - ----------------
#NOTES:
     dance-double:
     :
     Easy:
     4:
     0.249,0.318,0.098,0.180,0.000:
00000000
00000000
00000000
00000000
,
00000000
00000000
00000000
00000000
,
00000000
00000000
00000000
00000000
,
00000000
00000000
00000000
00000000
,
10000000
00000000
10000000
00010000
,
01000000
00000000
00001000
00000000
,
00010000
00000000
00010000
00000100
,
00001000
00000000
00000001
00000000
,
00001000
00000000
00001000
00000010
,
00010000
00000000
00001000
00000000
,
00010000
00000000
00010000
00001000
,
00200000
00000000
00310000
01000000
,
00010000
00020000
00000000
10030000
,
01000000
00100000
00001000
00010000
,
00001000
00002000
00000000
00013000
,
00000100
00001000
00000010
00001000
,
00000001
00000002
00000000
00000013
,
00000001
00000100
00000010
00010000
,
00001000
00002000
00000000
00003000
,
00010000
00020000
00000000
00030000
,
00011000
00001000
01000000
00100000
,
10000000
00010000
00100000
00000000
,
00010000
01000000
00100000
10000000
,
01000000
00100000
00001000
00001000
,
00010000
00000100
00001000
00000010
,
00000100
00000001
00001000
00000000
,
00000001
00000010
00000100
00001000
,
00000010
00010000
00001000
00000000
,
00011000
00001000
01000000
00100000
,
10000000
00010000
00100000
00100000
,
01000000
10000000
00100000
01000000
,
00010000
00100000
00001000
00001000
,
00100000
00010000
01000000
00001000
,
00010000
00000100
00001000
00001000
,
00000010
00000100
00000001
00001000
,
00000001
00000000
00000010
00000000
,
00000002
00000000
00002003
00000000
,
00003200
00000000
00000310
00000100
,
00002000
00000000
00003200
00000000
,
00020300
00000000
00031000
01000000
,
00020000
00000000
00230000
00000000
,
00302000
00000000
01003000
00010000
,
00100000
00100000
01000000
01000000
,
00100000
00000000
00020000
00000000
20000000
00030000
00000000
30000000
,
00010000
00010000
00000000
00000000
01000000
00000000
00001000
00000000
,
00010000
00010000
00000000
00000000
00000100
00000000
00001000
00000000
,
00000010
00000010
00000000
00000000
00000100
00000000
00000001
00000000
,
00001000
00000100
00010000
00001000
,
00011000
00012000
00000000
00013000
,
00001000
01000000
00100000
10010000
,
20010000
00000000
00000000
30100000
,
01000000
00010000
00100000
00011000
,
00012000
00000000
00000000
00013000
,
00000100
00001000
00000010
00000100
,
00001001
00001002
00000000
00000003
,
00001001
00002001
00000000
00003000
,
00000001
00000100
00000010
00000000
,
00000010
00001000
00000100
00000000
,
00001000
00000100
00010000
00000000
,
00000100
00010000
00001000
00001000
;

//---------------dance-double - ----------------
#NOTES:
     dance-double:
     :
     Medium:
     5:
     0.324,0.367,0.164,0.148,0.000:
00000000
00000000
00000000
00000000
,
00000000
00000000
00000000
00000000
,
00000000
00000000
00000000
00000000
,
00000000
00000000
00000000
00000000
,
00000100
00000100
00000010
00000001
,
00001000
00000000
00000001
00000110
,
00000001
00000001
00000100
00000010
,
00010000
00000000
00001000
01010000
,
00001000
00001000
00100000
00010000
,
01000000
00000000
00100000
10010000
,
00100000
00100000
10000000
00010000
,
02000000
00000000
00000000
00000000
03010000
10000000
00100000
01000000
,
00100000
00000000
00200000
00000000
00000000
00000000
10300000
00100000
,
10000000
01000000
00100000
00100000
,
00001000
00000000
00002000
00000000
00000000
00000000
00013000
00001000
,
00010000
00000100
00001000
00001000
,
00000010
00000000
00000020
00000000
00000000
00000000
00000130
00000010
,
00000100
00000001
00001000
00001000
,
00000100
00000200
00000000
00010300
,
00000100
00020000
00001000
00030000
,
00011000
00000000
00001000
00000000
01000000
00010000
00100000
01000000
,
20000000
00000000
30010000
10010000
,
00010000
00000000
01000000
00000000
00001000
00010000
00000100
00010000
,
00002000
00000000
00013000
00010100
,
00001000
00000000
00000010
00000000
00001000
00000100
00000010
00000001
,
00000200
00000000
00000310
00001001
,
00000010
00000000
00010000
00000000
00001000
01000000
00010000
00100000
,
02000000
00000000
03100000
10010000
,
10000000
01000000
00100000
00001000
,
00010000
00000000
00000100
00000000
00010000
00001000
00010000
00000000
,
00000100
00001000
00000010
00000100
,
00000001
00000000
00000010
00000000
00000001
00001000
00000001
00000000
,
00001000
00000010
00010000
00001000
,
01000000
00000000
00010000
00000000
00100000
01000000
00100000
00000000
,
00010000
10000000
01000000
00100000
,
00001000
00010000
00000100
00000000
,
00001000
00000100
00001000
00000000
00000100
00001000
00000100
00000000
,
00000010
00000000
00000001
00000000
00001000
00000001
00001000
00000000
,
00000001
00000100
00000001
00000000
00000100
00000001
00000100
00000000
,
00000010
00000000
00010000
00000000
00001000
00010000
00001000
00000000
,
01000000
00010000
01000000
00000000
00010000
01000000
00010000
00000000
,
10000000
00100000
01000000
00010000
,
10000000
10000000
00010000
00010000
,
00100000
00010000
20000000
00000000
00020000
30000000
00000000
00030000
,
10000000
20000000
00000000
00000000
31000000
00100000
01000000
00100000
,
00001000
00002000
00000000
00000000
00013000
00000100
00010000
00000100
,
00000010
00000020
00000000
00000000
00000031
00000100
00000001
00000100
,
00000010
00010000
00022000
00033000
,
00011000
00011000
00000000
00001000
,
01000000
00000000
01000000
00010000
00000000
00010000
00100000
00000000
,
10010000
10010000
00000000
01000000
,
00001000
00000000
00001000
00010000
00000000
00010000
00000100
00000000
,
00011000
00011000
00000000
00010000
,
00000100
00000000
00001000
00000010
00000000
00000010
00000100
00000000
,
00001001
00001001
00000010
00000100
,
00011000
00012000
00010000
00013000
,
00011000
00010000
00000100
00000010
,
00000001
00000010
00000100
00000100
,
00001000
00000010
00010000
00001000
,
01000000
00010000
00100000
00100000
;

//---------------dance-double - ----------------
#NOTES:
     dance-double:
     :
     Hard:
     8:
     0.506,0.719,0.230,0.139,0.148:
00000000
00000000
00000000
00000000
,
00000000
00000000
00000000
00000000
,
00000000
00000000
00000000
00000000
,
00000000
00000000
00000000
10010000
,
01000000
00000000
00000000
00000000
01000000
00000000
00000000
00100000
01000000
00000000
00010000
00000000
10000000
00000000
01000000
00000000
,
00100000
00000000
00100000
00010000
00100000
00000000
00011000
00000000
,
00010000
00000000
00000000
00000000
00010000
00000000
00000000
00001000
00010000
00000000
00000100
00000000
00001000
00000000
00000010
00000000
,
00000100
00000000
00000100
00000001
00000100
00000001
00001001
00000000
,
00000010
00000000
00000000
00000000
00000010
00000000
00000000
00000100
00000010
00000000
00001000
00000000
00000001
00000000
00000010
00000000
,
00000100
00000000
00000100
00001000
00000100
00000000
00011000
00000000
,
00001000
00000000
00000000
00000000
00001000
00000000
00000000
00010000
00001000
00000000
01000000
00000000
00010000
00000000
00100000
00000000
,
01000000
10000000
00100000
00010000
00001000
00000100
00000010
00001000
,
00000001
00000100
00000002
00000000
00000000
00001003
00000001
00000100
,
00000010
00001000
00000100
00000010
00000100
00010000
00001000
01000000
,
00010000
00100000
00020000
00000000
00000000
10030000
00010000
01000000
,
00100000
01000000
00010000
00100000
00001000
00010000
00000100
00000000
,
00001000
00000010
00002000
00000000
00000000
00003001
00001000
00000010
,
00000100
00000010
00001000
00000100
00010000
00001000
01000000
00000000
,
00010000
20000000
00020000
00000000
30000000
00030000
00000000
10000000
,
01000000
00100000
01000000
10000000
00010000
00000000
00100000
00000000
,
00011000
00000000
00000000
00000000
00001000
00000000
01000000
00010000
01000000
00000000
00100000
00000000
10000000
00000000
00010000
00000000
,
00200000
00001000
01300000
00100000
,
00011000
00000000
00000000
00000000
00010000
00000000
00000100
00001000
00000100
00000000
00000010
00000000
00000001
00000000
00001000
00000000
,
00000020
00010000
00000130
00001001
,
00000110
00000000
00000000
00000000
00000001
00000000
00001000
00000100
00001000
00000000
00000010
00000000
00010000
00000000
00001000
00000000
,
02000000
00001000
03100000
01000000
,
01100000
00000000
00000000
00000000
10000000
00000000
00010000
01000000
00010000
00000000
00100000
00000000
00001000
00000000
00100000
00000000
,
01000000
10000000
00100000
00010000
00001000
00000100
00000010
00001000
,
00000001
00000010
00001000
00000000
00000010
00001000
00010000
00000000
,
00001000
00010000
01000000
00100000
00010000
00010000
11000000
00000000
,
10000000
00100000
00010000
00000000
00100000
00010000
00001000
00000000
,
00010000
00001000
00000100
00000010
00001000
00001000
00000101
00000000
,
00000001
00000010
00000100
00001000
00000000
00000100
00010000
00001000
,
00000000
00010000
00001000
01000000
00100000
00100000
10010000
00000000
,
10000000
01000000
00100000
00010000
00100000
00001000
00010000
00000100
,
00001000
00000100
00000010
00001001
,
00001000
00000100
00000001
00000100
00010000
00001000
00100000
00001000
,
00010000
01000000
00100000
00010000
10000000
00100000
01000000
00000000
,
00010000
01000000
10000000
01000000
00001000
00010000
00000010
00010000
,
00001000
00000100
00000010
00001000
00000001
00000100
00000010
00000000
,
00001000
00000010
00000001
00000010
00000100
00000001
00001000
00000100
,
00010000
00000010
00001000
00010000
00100000
10000000
00010000
00000000
,
00110000
00101000
00011000
00010100
,
00000100
00001000
00000010
00002000
00000002
00000000
00000000
00003003
,
00000100
00000000
00000200
00000000
00000000
00000301
00000100
00000010
00001000
00000010
00000100
00000001
00001000
00000100
00000010
00000100
,
00010000
00000000
00020000
00000000
00000000
00031000
00100000
00001000
00010000
00000100
00001000
00000010
00001000
00000100
00010000
00001000
,
01000000
00000000
02000000
00000000
00000000
03100000
10000000
00010000
10000000
00100000
01000000
00010000
00100000
01000000
10000000
00100000
,
10000000
01000000
00100000
00010000
00000000
01000000
00100000
00001000
00000000
00100000
00001000
00020000
00000000
00000000
00031000
00000000
,
00011000
00000000
01001000
00000000
01000000
00100000
10000000
01000000
,
00100000
00001000
00010000
00000100
00000010
00000001
00000010
00000100
,
00001100
00000000
00010100
00000000
00010000
00001000
01000000
00010000
,
00100000
00001000
00010000
00000010
00001000
00000100
00000010
00000001
,
00001001
00000000
00001100
00000000
00000010
00000100
00000001
00001000
,
00000100
00010000
00001000
01000000
00001000
00100000
00010000
01000000
,
00001000
00020000
00002000
00000000
00030000
00003000
00000000
00001000
,
00010000
00000010
00010000
00001000
01000000
00000000
00001000
00000000
,
00101000
00000000
00000000
00000000
00001000
00000000
00000000
00000000
00010000
00000100
00010000
00000000
00001000
00000000
00000000
00000000
,
00000010
00000000
00000000
00000000
00000001
00000000
00000000
00000000
00001000
00000100
00001000
00000000
00000010
00000000
00000000
00000000
,
00011000
00000000
00000000
00000000
01001000
00000000
00000000
00000000
00010000
10000000
00010000
00000000
01000000
00000000
00000000
00000000
,
00011000
00000000
00000000
00000000
00010100
00000000
00000000
00000000
00001000
00000001
00001000
00000000
00000010
00000000
00000000
00000000
,
00000200
00000000
00000300
00000000
;
