#TITLE:Dirty Little Secret;
#SUBTITLE:;
#ARTIST:The All-American Rejects;
#TITLETRANSLIT:;
#SUBTITLETRANSLIT:;
#ARTISTTRANSLIT:;
#GENRE:;
#CREDIT:;
#MENUCOLOR:;
#METERTYPE:DDR;
#BANNER:Dirty Little Secret-bn.png;
#BACKGROUND:Dirty Little Secret-bg.png;
#LYRICSPATH:Dirty Little Secret.lrc;
#CDTITLE:ddrencorecdtitle.png;
#MUSIC:Dirty Little Secret.mp3;
#OFFSET:-3.370;
#SAMPLESTART:78.447;
#SAMPLELENGTH:20.009;
#SELECTABLE:YES;
#LISTSORT:12;
#DISPLAYBPM:144.000;
#BPMS:0.000=143.790,268.000=133.790,268.500=123.790,269.000=113.790,269.500=103.790,270.000=93.790,270.500=83.790,271.000=73.790,271.500=63.790,272.000=53.790,272.500=43.790,273.000=33.790,273.500=23.790,274.000=13.790;
#STOPS:;
#BGCHANGES:;
#ATTACKS:;

//---------------dance-single - ----------------
#NOTES:
     dance-single:
     :
     Beginner:
     1:
     0.140,0.166,0.040,0.008,0.000:
0000
0000
0000
0000
,
0000
0000
0000
0000
,
1000
0000
1000
0000
,
0110
0000
0000
0000
,
0001
0000
0001
0000
,
0110
0000
0000
0000
,
1001
0000
0000
0000
,
1000
0000
0100
0000
,
1000
0000
0100
0000
,
0010
0000
0001
0000
,
0010
0000
0001
0000
,
1000
0000
0010
0000
,
1000
0000
0010
0000
,
0100
0000
0001
0000
,
0100
0000
0001
0000
,
1000
0000
0100
0000
,
0010
0000
0001
0000
,
0001
0000
0100
0000
,
0010
0000
1000
0000
,
1000
0000
0001
0000
,
1000
0000
0001
0000
,
0100
0000
0100
0000
,
0010
0000
0000
0000
,
0100
0000
0100
0000
,
0010
0010
0010
0000
,
0100
0000
0001
0000
,
1000
0000
0100
0000
,
1000
0000
1000
0000
,
0001
0001
0001
0000
,
0100
0000
0001
0000
,
1000
0000
0010
0000
,
0100
0100
0100
0100
,
0000
0000
0000
0000
,
1000
0000
0100
0000
,
1000
0000
0000
0000
,
0001
0000
0100
0000
,
0001
0000
0000
0000
,
1000
0000
0010
0000
,
1000
0000
0000
0000
,
0001
0000
1000
0000
,
0001
0000
0000
0000
,
1000
0000
0100
0000
,
0010
0000
0100
0000
,
1000
0000
0001
0000
,
0100
0000
0010
0000
,
1000
0000
1000
0000
,
0001
0001
0001
0000
,
0010
0000
0100
0000
,
0010
0000
0001
0000
,
0100
0000
0100
0000
,
0010
0010
0010
0000
,
1000
0000
0010
0000
,
0100
0000
0001
0000
,
1000
1000
1000
0000
,
0001
0001
0001
0000
,
1000
1000
1000
0000
,
0000
0000
0000
0000
,
0010
0000
0010
0000
,
1001
0000
0000
0000
,
0100
0000
0100
0000
,
1001
0000
0100
0200
,
0000
0000
0000
0000
,
0000
0000
0000
0000
,
0000
0000
0000
0000
,
0000
0000
0000
0000
,
0000
0000
0000
0000
,
0000
0000
0000
0000
,
0000
0000
0000
0000
,
0000
0000
0000
0000
0000
0000
0000
0000
0000
0000
0000
0000
0000
0000
0000
0000
0000
0000
0000
0300
0000
0000
0000
0000
0000
0000
0000
0000
0000
0000
0000
0000
;

//---------------dance-single - ----------------
#NOTES:
     dance-single:
     :
     Easy:
     4:
     0.220,0.277,0.008,0.097,0.000:
0000
0000
0000
0000
,
0000
0000
0000
0000
,
1000
0000
1000
0000
,
0001
1000
0100
0100
,
0010
0000
0010
0000
,
0100
0010
0001
0001
,
1000
0010
0100
0100
,
0010
0000
1000
0000
,
0001
0000
1000
0000
,
0100
0000
1000
0000
,
0001
0000
0100
0000
,
0010
0000
0100
0000
,
0001
0000
1000
0000
,
0100
0000
1000
0000
,
0001
0000
0100
0000
,
0010
0000
1000
0001
,
0100
0010
1000
1000
,
0000
0000
0100
1000
,
0010
0100
0001
0001
,
0000
0000
1000
0100
,
0000
0010
0100
1000
,
0001
0100
0010
1000
,
0002
0000
0000
0000
,
1003
0010
0100
0010
,
1000
0001
0010
0010
,
0001
1000
0010
0010
,
0000
0100
0010
1000
,
0001
0010
0100
0010
,
0001
1000
0010
0010
,
0100
0001
1000
1000
,
0001
0010
0100
0100
,
2000
0001
0001
3002
,
0000
0203
0020
0300
,
0130
0000
0010
0000
,
0100
0000
0010
1000
,
0001
0000
1000
0000
,
0100
0000
0010
0001
,
1000
0000
0001
0000
,
0100
0000
0010
0100
,
0001
0000
1000
0000
,
0100
0000
0010
0100
,
1000
0000
0100
0000
,
1000
0000
0001
0000
,
0100
0000
0010
0000
,
1000
0000
0001
0000
,
1000
0100
0010
0001
,
1000
0010
0100
0100
,
0010
1000
0001
0001
,
0000
1000
0100
1000
,
0010
0100
0001
0010
,
0100
1000
0100
0100
,
1000
0001
0100
0100
,
0010
1000
0001
0001
,
0200
0010
0010
0310
,
0020
1000
1000
1030
,
2000
0001
0001
3001
,
0000
2000
0002
3000
,
0013
0000
0010
0000
,
0001
1000
0100
0100
,
1000
0000
1000
0000
,
0001
1000
0100
2002
,
0000
0000
0000
0000
,
0000
0000
0000
0000
,
0000
0000
0000
0000
,
0000
0000
0000
0000
,
0000
0000
0000
0000
,
0000
0000
0000
0000
,
0000
0000
0000
0000
,
0000
0000
0000
0000
0000
0000
0000
0000
0000
0000
0000
0000
0000
0000
0000
0000
0000
0000
0000
3003
0000
0000
0000
0000
0000
0000
0000
0000
0000
0000
0000
0000
;

//---------------dance-single - ----------------
#NOTES:
     dance-single:
     :
     Medium:
     6:
     0.296,0.361,0.162,0.089,0.000:
0000
0000
0000
0000
,
0000
0000
0000
0000
,
0001
0000
0001
0000
,
1000
0000
0100
0010
0100
0010
0100
0000
,
1000
0000
1000
0000
,
0001
0000
0100
0010
0100
0010
0100
0000
,
0001
0000
1000
0100
1000
0100
1000
0000
,
0001
0000
1000
0100
,
1000
0010
0100
0001
,
1000
0000
0100
1000
,
0010
0100
0001
1000
,
0010
0000
1000
0100
,
0010
0001
1000
0010
,
0100
0000
0001
0100
,
0001
0010
0100
1000
,
0001
0000
0000
0001
1000
0000
0010
0000
,
0010
0100
0001
1000
,
0100
0000
0000
0100
1000
0000
0001
0000
,
0001
0100
0010
1000
,
0001
0000
1000
0010
,
0000
1000
0010
0100
,
0001
1000
0100
0010
,
0001
1000
0100
1000
0001
0100
0001
1000
,
0010
1000
0001
0100
,
0001
0010
1100
0011
,
0001
1000
1010
0101
,
0000
0000
0001
0000
1000
0001
0100
0000
,
0001
1000
0100
0010
,
0001
1000
1001
0110
,
0010
1000
0110
1001
,
1000
0000
0100
1000
0001
0000
0100
0000
,
0002
1000
1000
2003
,
0000
3020
0200
0030
,
0310
0100
0110
0010
,
1000
0001
0010
0000
,
0001
1000
1100
1000
,
0010
0100
0001
0000
,
0010
0001
1001
0100
,
0010
1000
0001
0000
,
1000
0010
0110
0100
,
0001
1000
0100
0000
,
1000
0000
0001
0000
,
0100
0000
0010
0100
,
0001
0000
1000
0000
,
0010
0000
0100
0001
,
1000
0100
1000
0010
,
0100
0001
0011
1100
,
1000
0001
0101
1010
,
0000
0000
0010
0000
1000
0001
0100
0000
,
0010
1000
0001
0100
,
0001
0010
0110
1001
,
1000
0010
1001
0110
,
0100
0000
0001
1000
0100
0000
0010
0000
,
0200
1000
1000
1300
,
2000
0001
0001
3001
,
0002
0100
0100
0103
,
0001
2000
0002
3000
,
0103
0000
0100
0000
,
0010
0000
1000
0001
1000
0001
1000
0000
,
0100
0000
0100
0000
,
0010
0000
0001
1000
0001
2000
0002
0000
,
0000
0000
0000
0000
,
0000
0000
0000
0000
,
0000
0000
0000
0000
,
0000
0000
0000
0000
,
0000
0000
0000
0000
,
0000
0000
0000
0000
,
0000
0000
0000
0000
,
0000
0000
0000
0000
0000
0000
0000
0000
0000
0000
0000
0000
0000
0000
0000
0000
0000
0000
0000
3003
0000
0000
0000
0000
0000
0000
0000
0000
0000
0000
0000
0000
;

//---------------dance-single - ----------------
#NOTES:
     dance-single:
     :
     Hard:
     7:
     0.389,0.444,0.162,0.097,0.016: // measure 1
0000
0000
0000
0000
,  // measure 2
0000
0000
0000
0000
,  // measure 3
0010
1001
0010
1001
,  // measure 4
0100
0000
0010
1000
0001
0100
0001
0000
,  // measure 5
1000
0110
1000
0110
,  // measure 6
0001
0000
0010
0001
1000
0100
0010
0000
,  // measure 7
0100
0000
1000
0001
0100
0010
1000
0000
,  // measure 8
0100
0000
1000
0001
0100
0000
0010
0000
,  // measure 9
1000
0000
0001
0100
0010
1000
0001
0000
,  // measure 10
0100
0000
0010
1000
0001
0000
0100
0000
,  // measure 11
0001
0000
0010
0001
1000
0100
0010
0000
,  // measure 12
0100
0000
1000
0001
0100
0000
0010
0000
,  // measure 13
1000
0000
0010
1000
0100
0010
0001
0000
,  // measure 14
1000
0000
0001
0100
0010
0000
1000
0000
,  // measure 15
0001
0000
0100
0001
0010
0100
1000
0000
,  // measure 16
0101
0010
0100
0001
,  // measure 17
1000
0000
0001
0100
1000
0100
0001
0000
,  // measure 18
1001
1000
0100
0010
,  // measure 19
0100
0000
1000
0100
0001
0100
1000
0000
,  // measure 20
0010
0100
0001
1000
,  // measure 21
0000
0010
1000
0001
,  // measure 22
0010
0100
0010
0001
,  // measure 23
1000
0000
0001
0000
0100
0000
0001
0000
1000
0000
0010
0000
1000
0001
1000
0001
,  // measure 24
1000
0000
0010
0100
0001
0000
1000
0000
,  // measure 25
0001
0100
0010
1000
0001
0000
0010
0000
,  // measure 26
0001
0010
0100
1000
0001
0000
1000
0000
,  // measure 27
0010
0000
0100
0000
0010
0100
0001
0000
,  // measure 28
1000
0000
0100
1000
0001
0000
0100
0000
,  // measure 29
0010
1000
0010
0100
0001
0000
0010
0000
,  // measure 30
0100
1000
0100
0010
0001
0000
1000
0000
,  // measure 31
0010
0100
0001
1000
0100
0000
0010
0000
,  // measure 32
0100
0000
0001
0100
2000
0000
0002
0000
,  // measure 33
3000
0203
0001
0310
,  // measure 34
0100
0000
0001
0000
1010
0000
0100
0001
,  // measure 35
0010
0100
0110
0000
,  // measure 36
0010
0000
0001
0000
1100
0000
0010
1000
,  // measure 37
0001
0100
1001
0000
,  // measure 38
0010
0000
1000
0000
0101
0000
0001
1000
,  // measure 39
0010
0100
0110
0000
,  // measure 40
0010
1000
1001
0010
,  // measure 41
0011
1100
1010
0001
,  // measure 42
0100
0000
0010
0100
0000
0001
0000
2000
,  // measure 43
0000
0000
3100
0000
1000
0100
0010
0001
,  // measure 44
1000
0000
0010
0100
0000
0100
0002
0000
,  // measure 45
0000
0000
2000
0000
0000
0000
0003
0000
3001
0000
0100
0000
0001
1000
0001
1000
,  // measure 46
0001
0000
1000
0001
0100
0000
0010
0000
,  // measure 47
1000
0100
0010
0001
1000
0000
0010
0000
,  // measure 48
0100
0001
1000
0010
1000
0000
0100
0000
,  // measure 49
0010
0000
0001
0000
0100
0010
1000
0000
,  // measure 50
0001
0000
0010
0001
0100
0000
0010
0000
,  // measure 51
1000
0001
1000
0010
0100
0000
0001
0000
,  // measure 52
0010
0001
0010
0100
1000
0000
0010
0000
,  // measure 53
0100
0001
0010
0100
0010
0000
0001
0000
,  // measure 54
1000
0010
0100
0001
2000
0000
0100
0000
,  // measure 55
3100
0010
0001
1000
0020
0000
0100
0000
,  // measure 56
0130
0010
1000
0001
0200
0000
0001
0000
,  // measure 57
0301
2000
0100
3001
,  // measure 58
0100
1001
0100
1001
,  // measure 59
0010
0000
1000
0100
0001
0100
1000
0000
,  // measure 60
0001
0110
0001
0110
,  // measure 61
1000
0000
0001
0010
1000
0020
0002
0000
,  // measure 62
0000
0000
0000
0000
,  // measure 63
0000
0000
0000
0000
,  // measure 64
0000
0000
0000
0000
,  // measure 65
0000
0000
0000
0000
,  // measure 66
0000
0000
0000
0000
,  // measure 67
0000
0000
0000
0000
,  // measure 68
0000
0000
0000
0000
,  // measure 69
0000
0000
0000
0000
0000
0000
0000
0000
0000
0000
0000
0000
0000
0000
0000
0000
0000
0000
0000
0033
0000
0000
0000
0000
0000
0000
0000
0000
0000
0000
0000
0000
;

//---------------dance-double - ----------------
#NOTES:
     dance-double:
     :
     Easy:
     3:
     0.192,0.250,0.008,0.138,0.000:
00000000
00000000
00000000
00000000
,
00000000
00000000
00000000
00000000
,
00001000
00000000
00010000
00000000
,
00000100
00001000
00000100
00000000
,
00010000
00000000
00001000
00000000
,
01000000
00010000
01000000
00000000
,
00001000
00010000
00001000
00000000
,
00100000
00000000
00010000
00000000
,
10000000
00000000
01000000
00000000
,
10000000
00000000
00010000
00000000
,
01000000
00000000
00001000
00000000
,
00010000
00000000
00001000
00000000
,
00100000
00000000
00010000
00000000
,
01000000
00000000
00100000
00000000
,
10000000
00000000
00010000
00000000
,
01000000
00000000
00010000
01000000
,
00001000
00000000
00010000
00000000
,
00000100
00000000
00001000
00000010
,
00000100
00000000
00000010
00000000
,
00001000
00000000
00000001
00000100
,
00000000
00000100
00000010
00000000
,
00010000
00000000
00001000
00000000
,
00200000
00000000
00000000
00000000
,
00301000
00000000
00100000
00000000
,
00010000
01000000
00200000
00000000
,
10300000
00010000
02000000
00000000
,
03000000
00010000
10000000
00000000
,
00010000
00000000
01000000
00000000
,
00001000
00010000
00000200
00000000
,
00001300
00000010
00000200
00000000
,
00000310
00001000
00000002
00000000
,
00001003
00000100
00000010
00000001
,
00000000
00002000
00000200
00003000
,
00001300
00000000
00000001
00000000
,
00000100
00000000
00000010
00001000
,
00000100
00000000
00010000
00000000
,
00001000
00000000
00100000
00001000
,
00010000
00000000
00001000
00000000
,
01000000
00000000
00100000
10000000
,
00010000
00000000
10000000
00000000
,
01000000
00100000
00010000
00000000
,
10000000
00000000
01000000
00000000
,
00100000
00000000
00001000
00000000
,
00100000
00000000
00010000
00000000
,
01000000
00000000
00100000
00000000
,
10000000
00000000
00010000
00000000
,
01000000
00010000
00200000
00000000
,
00310000
01000000
00002000
00000000
,
00003000
00010000
00000100
00000000
,
00001000
00000000
00000100
00000000
,
00001000
00000010
00000200
00000000
,
00000310
00001000
00000002
00000000
,
00000103
00000010
00002000
00000000
,
00003100
00010000
00001000
00001000
,
00100000
00001000
00010000
00010000
,
00000100
00010000
00001000
00001000
,
00000000
00020000
00002000
00030000
,
00013000
00000000
00001000
00000000
,
00100000
00010000
00100000
00000000
,
00001000
00000000
00010000
00000000
,
00000100
00001000
00000100
00002002
,
00000000
00000000
00000000
00000000
,
00000000
00000000
00000000
00000000
,
00000000
00000000
00000000
00000000
,
00000000
00000000
00000000
00000000
,
00000000
00000000
00000000
00000000
,
00000000
00000000
00000000
00000000
,
00000000
00000000
00000000
00000000
,
00000000
00000000
00000000
00000000
00000000
00000000
00000000
00000000
00000000
00000000
00000000
00000000
00000000
00000000
00000000
00000000
00000000
00000000
00000000
00003003
00000000
00000000
00000000
00000000
00000000
00000000
00000000
00000000
00000000
00000000
00000000
00000000
;

//---------------dance-double - ----------------
#NOTES:
     dance-double:
     :
     Medium:
     5:
     0.277,0.361,0.178,0.073,0.000:
00000000
00000000
00000000
00000000
,
00000000
00000000
00000000
00000000
,
00010000
00000000
00001000
00000000
,
00010000
00000000
00000100
00001000
00000100
00001000
00000100
00000000
,
00010000
00000000
00001000
00000000
,
00010000
00000000
00000010
00001000
00000010
00001000
00000010
00000000
,
00010000
00000000
00001000
00100000
00001000
00100000
00001000
00000000
,
00010000
00000000
00001000
00010000
,
00001000
01000000
00010000
00100000
,
01000000
00000000
00100000
00010000
,
10000000
00100000
01000000
00010000
,
10000000
00000000
01000000
10000000
,
00100000
01000000
00010000
00100000
,
00001000
00000000
00010000
00000100
,
00010000
00001000
00000010
00000100
,
00001000
00000000
00000010
00000100
,
00000001
00000000
00000100
00000000
00000010
00001000
00000010
00000000
,
00000100
00000000
00000010
00001000
,
00000100
00000000
00010000
00000000
00001000
00010000
00001000
00000000
,
00010000
00000000
00001000
01000000
,
00000000
01000000
00100000
10000000
,
00010000
00100000
01000000
10000000
,
11000000
00000000
00000000
01100000
00000000
00000000
00110000
00000000
,
00010000
01000000
00100000
10000000
,
00010000
10000000
11000000
00110000
,
00010000
01000000
01010000
01001000
,
00000000
00001000
00010000
00000000
,
00010000
00000100
00001000
00000010
,
00000100
00000010
00001010
00000101
,
00000001
00001000
00001100
00010100
,
00010000
00000000
00001000
00010000
00001000
00000000
00010000
00000000
,
00001000
01000000
00010000
10000000
,
00000000
02000000
20000000
03000000
,
31000000
00000000
10000000
00000000
,
01000000
00100000
10010000
00000000
,
00010000
00000000
01000000
00000000
,
00001000
00010000
00011000
00000000
,
00010000
00000000
00000100
00000000
,
00000010
00000001
00001100
00000000
,
00000010
00000000
00000001
00000000
,
00000100
00000010
00001000
00000010
,
00000100
00000000
00000010
00000000
,
00001000
00000100
00010000
00000100
,
00001000
00000000
00000010
00000000
,
00000100
00000000
00000001
00001000
,
00000100
00000010
00000001
00001000
,
00000010
00000100
00000110
00001001
,
00001000
00000010
00001010
00010010
,
00000000
00010000
00001000
00000000
,
00010000
00001000
01000000
00100000
,
10000000
00010000
01100000
10010000
,
00010000
01000000
01010000
01001000
,
00001000
00000000
00010000
00001000
00010000
00000000
00001000
00000000
,
00200000
00010000
00010000
00310000
,
02000000
00001000
00001000
03001000
,
00020000
00000100
00000100
00030100
,
00000000
00000200
00002000
00000300
,
00003100
00000000
00000010
00000000
,
00000100
00000000
00000010
00000001
00000010
00000001
00000010
00000000
,
00000100
00000000
00010000
00000000
,
00001000
00000000
01000000
00010000
01000000
00020000
02000000
00000000
,
00000000
00000000
00000000
00000000
,
00000000
00000000
00000000
00000000
,
00000000
00000000
00000000
00000000
,
00000000
00000000
00000000
00000000
,
00000000
00000000
00000000
00000000
,
00000000
00000000
00000000
00000000
,
00000000
00000000
00000000
00000000
,
00000000
00000000
00000000
00000000
00000000
00000000
00000000
00000000
00000000
00000000
00000000
00000000
00000000
00000000
00000000
00000000
00000000
00000000
00000000
03030000
00000000
00000000
00000000
00000000
00000000
00000000
00000000
00000000
00000000
00000000
00000000
00000000
;

//---------------dance-double - ----------------
#NOTES:
     dance-double:
     :
     Hard:
     7:
     0.398,0.416,0.202,0.097,0.016:
00000000
00000000
00000000
00000000
,
00000000
00000000
00000000
00000000
,
00001000
00110000
00001000
01010000
,
00001000
00000000
00010000
00001000
00010000
00000010
00000100
00000000
,
00000001
00001100
00000001
00001010
,
00000001
00000000
00001000
00000010
00000100
00000001
00001000
00000000
,
00000010
00000000
00000100
00000001
00001000
00000010
00010000
00000000
,
00001000
00000000
00100000
00010000
01000000
00000000
00100000
00000000
,
10000000
00000000
01000000
00100000
00010000
00100000
01000000
10000000
,
00010000
00000000
01000000
00001000
00010000
00000000
00001000
00000000
,
00100000
00000000
00010000
01000000
00100000
10000000
00100000
01000000
,
00010000
00000000
00100000
00001000
00010000
00000000
00001000
00000000
,
00100000
00000000
00001000
00010000
00000100
00001000
00000100
00010000
,
00000010
00000000
00000100
00000001
00000010
00000000
00000100
00000000
,
00001000
00000000
00000100
00000010
00000001
00000010
00000100
00001000
,
00000010
00000000
00000000
00000010
00000100
00000000
00000010
00000000
,
00001001
00000000
00000010
00001000
00000100
00010000
00001000
00000000
,
00100000
00000000
00000000
00100000
00010000
00000000
00100000
00000000
,
10010000
00000000
10000000
01000000
00100000
00001000
00010000
00000000
,
00001000
01000000
01010000
01001000
,
00001000
00011000
00010100
00001100
,
00000100
00000010
00000001
00001000
,
00000010
00000000
00000100
00000000
00000001
00000000
00000100
00000000
00000010
00000000
00001000
00000000
00000001
00000100
00000001
00000100
,
00000001
00001000
00000100
00010000
,
01000000
00100000
00010000
10000000
00100000
00000000
01000000
00000000
,
00010000
01000000
00100000
10000000
00010000
00000000
00100000
00000000
,
01000000
00000000
00100000
00000000
00010000
10000000
00100000
00000000
,
10000000
00010000
01000000
00001000
,
00000100
00000010
00001000
00000001
00000010
00000000
00000100
00000000
,
00001000
00000010
00000100
00000001
00000010
00000000
00000001
00000000
,
00001000
00000100
00000010
00000100
00010000
00000000
00001000
00000000
,
00010000
01000000
10000000
01000000
00020000
00000000
00002000
00000000
,
00030000
00023000
00000010
00031000
,
00010000
00000000
00000100
00000000
00001100
00000000
00000010
00000010
,
00000100
00000001
00001100
00000000
,
00000010
00000000
00000100
00000000
00001100
00000000
00010000
00010000
,
00001000
01000000
10010000
00000000
,
00100000
00000000
01000000
00000000
01010000
00000000
00010000
00010000
,
00100000
00001000
01010000
00000000
,
00001000
00010000
00001100
00000010
,
00000011
00000110
00001100
00001000
,
00000010
00000000
00001000
00000001
00000000
00000100
00000000
00000020
,
00000000
00000000
00001030
00000000
00000100
00010000
00000100
00001000
,
00000001
00000000
00000100
00000010
00000000
00000010
00002000
00000000
,
00000000
00000000
00003002
00000000
00000000
00000000
00000000
00000000
00001003
00000000
00000100
00000000
00010000
00001000
00010000
00001000
,
00010000
00001000
01000000
00100000
,
10000000
00100000
01000000
00010000
00100000
00000000
01000000
00000000
,
00100000
00010000
10000000
00100000
01000000
00000000
00010000
00000000
,
00100000
00000000
00001000
00000000
00010000
00000100
00001000
00000000
,
00000100
00010000
00000010
00000100
,
00000001
00001000
00000100
00000010
00000100
00000000
00001000
00000000
,
00000001
00000100
00000010
00001000
00000100
00000000
00010000
00000000
,
00001000
00010000
00000100
00010000
00001000
00000000
00100000
00000000
,
00010000
01000000
00100000
10000000
00020000
00000000
10000000
00000000
,
10030000
01000000
00100000
00001000
00020000
00000000
00000100
00000000
,
00030100
00001000
00000010
00000100
00000002
00000000
00001000
00000000
,
00001003
00000020
00001000
00000130
,
00000010
00001100
00000010
00001001
,
00000010
00000000
00000100
00000010
00001000
00000100
00010000
00000000
,
00001000
01010000
00001000
00110000
,
00001000
00000000
01000000
00100000
10000000
02000000
00200000
00000000
,
00000000
00000000
00000000
00000000
,
00000000
00000000
00000000
00000000
,
00000000
00000000
00000000
00000000
,
00000000
00000000
00000000
00000000
,
00000000
00000000
00000000
00000000
,
00000000
00000000
00000000
00000000
,
00000000
00000000
00000000
00000000
,
00000000
00000000
00000000
00000000
00000000
00000000
00000000
00000000
00000000
00000000
00000000
00000000
00000000
00000000
00000000
00000000
00000000
00000000
00000000
03300000
00000000
00000000
00000000
00000000
00000000
00000000
00000000
00000000
00000000
00000000
00000000
00000000
;
