#TITLE:Destruction;
#SUBTITLE:;
#ARTIST:HardkoreBeatz;
#TITLETRANSLIT:;
#SUBTITLETRANSLIT:;
#ARTISTTRANSLIT:;
#GENRE:;
#CREDIT:;
#MENUCOLOR:;
#METERTYPE:DDR;
#BANNER:Destruction-bn.png;
#BACKGROUND:Destruction-bg.png;
#LYRICSPATH:;
#CDTITLE:ddrencorecdtitle.png;
#MUSIC:Destruction.mp3;
#OFFSET:-0.109;
#SAMPLESTART:34.240;
#SAMPLELENGTH:12.000;
#SELECTABLE:YES;
#LISTSORT:;
#DISPLAYBPM:239.000;
#BPMS:0.000=238.896,64.000=119.448,64.500=238.896,65.000=119.448,65.500=238.896,67.000=119.448,80.000=477.792,84.000=238.896,99.000=477.792,101.000=238.896,116.000=477.793,126.000=119.448,126.500=238.896,127.500=119.448,128.000=238.896,129.000=119.448,129.188=238.896,129.813=119.448,130.000=238.896,130.625=477.792,131.875=238.896,138.500=477.792,140.500=238.896,147.500=477.792,149.500=238.896,156.500=477.792,158.500=238.896,165.500=477.792,167.500=238.896,168.000=119.448,176.000=238.896,208.000=119.448,216.000=238.896,240.000=119.448,240.375=238.896,241.500=477.792,242.500=238.896,244.500=477.792,248.500=119.448,249.000=238.896,249.500=477.792,253.500=119.448,254.000=238.896,254.500=477.792,258.500=238.896,259.500=477.792,261.500=238.896,262.500=119.448,263.000=238.896,264.000=477.792,268.000=238.896,300.000=179.172,301.500=159.264,302.833=119.448,307.333=161.698,308.000=477.792,312.000=119.448,319.000=477.792,323.000=119.448,330.000=477.792,334.000=119.448,337.000=477.792,341.000=119.448,344.000=477.792,348.000=238.896,352.000=477.792;
#STOPS:118.000=0.063
,118.500=0.063
,119.000=0.063
,119.500=0.063
,120.000=0.031
,120.250=0.031
,120.500=0.063
,121.000=0.063
,121.500=0.063
,122.000=0.063
,122.500=0.063
,123.000=0.063
,123.500=0.063
,124.000=0.031
,124.250=0.031
,124.500=0.063
,125.000=0.063
,125.500=0.063
,130.625=0.031
,130.875=0.031
,131.125=0.110
,131.250=0.063
,131.750=0.078
,240.625=0.031
,242.000=0.126
,243.500=0.126
,244.000=0.126
,249.000=0.126
,254.000=0.126
,263.000=0.126
,263.500=0.126
,348.000=0.753
,349.000=0.753
,350.000=0.251
,351.000=0.251
,352.000=0.126
,353.000=0.126
;
#BGCHANGES:;
#ATTACKS:;

//---------------dance-single - ----------------
#NOTES:
     dance-single:
     :
     Medium:
     9:
     0.577,0.781,0.279,0.061,0.017:
0000
0000
0000
0000
,
0000
0000
0000
0000
,
0000
0000
0000
0000
,
0000
0000
0000
0000
,
0000
0000
0000
0000
,
0000
0000
0000
0000
,
0000
0000
0000
0000
,
0000
0000
0000
0000
,
1000
0100
1000
0000
0001
0010
0100
0000
,
1000
0001
1000
0000
0010
1000
0001
0000
,
0100
0010
0100
0000
0001
1000
0100
0000
,
0010
0100
0010
0000
0100
1000
0001
0000
,
1000
0100
1000
0000
0010
1000
0001
0000
,
0100
0001
0100
0000
0010
0100
0001
0000
,
0010
0001
0010
0000
0001
1000
0001
0000
,
0010
0100
1000
0000
0100
0010
0001
0000
,
1000
0000
0100
0000
0010
0000
0002
0100
,
1000
0100
0013
0000
0001
0000
0100
0000
,
1000
0010
0100
0001
,
1000
0100
0010
0001
,
1000
0100
1000
0100
,
1000
0010
1000
0001
,
0010
0000
0001
0000
0100
0000
0010
1000
,
0001
0010
0100
1000
,
0001
0100
0010
1000
,
0001
1000
0010
0100
,
0001
0010
0100
1000
,
0001
0100
0001
0000
1000
0000
0010
0000
,
0100
0001
0010
0100
,
1000
0000
0001
0000
1000
0100
1000
0100
,
2000
3000
1000
0100
1000
0100
1000
0100
,
2000
3000
0001
0100
0101
0000
0000
1100
,
0000
0000
0000
0000
0000
0000
0000
0000
0000
0000
0000
0000
0000
0000
0000
0000
1001
0000
0000
0000
0000
0000
0000
0000
0000
0000
0000
0000
0000
1001
0000
0000
0000
0000
0000
0000
0000
0000
0000
0000
0000
0000
0010
0000
0000
0000
0000
0000
0000
0000
0000
0000
0100
0000
0000
0000
0000
0000
0000
0000
0000
0000
0000
0000
,
0001
0100
0000
0001
0000
1000
0000
0100
,
0000
1000
0000
0010
0000
1000
0000
0000
,
0000
0001
0100
0001
0000
1000
0000
0100
,
0000
0010
0000
0001
0000
1000
0000
0001
,
0000
0000
0000
0010
0001
0010
0000
0001
,
0000
1000
0000
0100
0000
0010
0000
0001
,
0000
1000
0000
0000
0000
0001
0100
0001
,
0000
1000
0000
0100
0000
0010
0000
0001
,
0000
1000
0000
0001
0000
0000
0000
1000
,
0100
1000
0010
0001
0100
0001
0010
1000
,
0001
0010
0100
1000
0010
0001
1000
0100
,
1000
0010
1000
0000
0010
0000
1001
0000
,
0001
0100
0001
0000
1000
0100
1000
0000
,
0010
1000
0100
0000
0010
0001
0100
0000
,
0010
1000
0001
1000
0010
0000
1001
0000
,
0001
0010
0001
0000
0010
0000
1001
0000
,
1000
0100
1000
0000
0001
0100
0001
0000
,
0010
0001
0100
0000
0010
1000
0100
0000
,
0010
0001
1000
0001
0010
0000
1001
0000
,
1000
0000
0000
0000
,
0000
0000
0000
0000
,
0001
0100
0001
0000
1000
0100
1000
0000
,
0001
0010
0001
0000
1000
0010
1000
0000
,
0010
0100
0001
0000
0100
0010
1000
0000
,
0010
1000
0001
0000
1000
0001
0010
0000
,
0001
0010
0100
0000
0010
0100
1000
0000
,
0100
1000
0001
0000
1000
0001
0100
0000
,
0101
0000
0000
0000
0000
0000
0000
0000
0000
0000
0000
0000
0000
1100
0000
0000
0000
0000
0000
0000
0000
0000
0000
0000
0000
0000
0000
0000
1001
0000
0000
0000
,
1001
1000
0000
0000
0000
0001
0000
0000
,
0000
1001
0000
0000
0000
0000
0000
0000
,
0000
0000
0000
0000
,
0000
0000
0000
0000
0000
1001
0000
0000
,
0000
0000
0000
1010
0000
0000
0101
1100
,
0001
0000
1000
0000
,
0010
1000
0100
0000
1000
0000
1002
0000
,
0010
1000
0100
1003
,
0010
0001
0010
0001
0100
0000
0201
0000
,
0010
0001
1000
0301
,
0010
0000
1000
0100
0010
0000
2100
0000
,
0010
0001
0100
3001
,
1000
0010
1000
0010
1000
0000
0201
0000
,
0010
0001
1000
0001
,
0310
0000
0000
0000
,
0000
0000
0000
0000
,
0001
0000
1000
0000
,
1001
0010
1000
0010
0001
0010
1000
0010
,
0001
0010
1000
0010
0001
0010
1000
0000
,
0000
0000
0010
0000
0000
0000
1001
0100
,
0001
0100
1000
0100
0001
0100
1000
0100
,
0001
0100
1000
0100
0001
0000
0000
0000
,
0100
0000
0000
0000
1001
0010
0100
0001
,
1000
0010
0100
0000
0000
0000
0001
0000
,
0000
0000
1001
0010
0100
0001
1000
0010
,
0100
0000
0001
0000
,
1001
1100
0101
1100
,
0110
1001
0001
0000
,
1000
0000
0010
1000
,
0100
0000
0010
0001
,
1000
0000
0001
0100
,
0001
1000
0010
1000
,
0001
0000
0010
0100
,
1000
0000
0100
0010
,
0001
0000
0010
0100
,
1000
0010
1000
0001
,
0100
0000
0010
1000
,
0100
0000
0010
0001
,
1000
0000
0001
0100
,
0001
1000
0010
0100
,
0001
0000
1000
0100
,
1000
0000
0001
0010
,
0001
0000
1000
0100
,
0010
0001
0010
0100
,
1000
0001
1001
0000
;

//---------------dance-single - ----------------
#NOTES:
     dance-single:
     :
     Easy:
     7:
     0.367,0.597,0.174,0.061,0.009:
0000
0000
0000
0000
,
0000
0000
0000
0000
,
0000
0000
0000
0000
,
0000
0000
0000
0000
,
0000
0000
0000
0000
,
0000
0000
0000
0000
,
0000
0000
0000
0000
,
0000
0000
0000
0000
,
1000
0100
1000
0010
,
1000
0001
0010
0001
,
0100
0010
0100
0001
,
1000
0100
0010
0001
,
1000
0001
0100
0010
,
1000
0100
0010
0001
,
1000
0001
0100
0001
,
1000
0100
0010
0001
,
1000
0000
0000
0020
,
0000
0130
0001
1000
,
0100
0010
0001
1000
,
0010
1000
0001
0100
,
0010
0000
0000
0000
,
1000
0001
1000
0000
,
0001
0010
0100
1000
,
0001
0100
0001
0000
,
1000
0010
0100
0001
,
0000
1000
0100
1000
,
0000
0001
0010
0001
,
1000
0010
1000
0001
,
0000
0100
0010
0100
,
0001
0000
1000
0000
,
0100
0000
0010
0000
,
0001
0000
0000
0000
1001
0000
0000
1001
,
0000
0000
0000
0000
0000
0000
0000
0000
1001
0000
0000
0000
0000
0000
0000
0000
0000
0000
0000
0000
0000
0010
0000
0000
0000
0000
0000
0000
0000
0000
0000
0000
,
1000
0100
1000
0001
,
0010
0001
1000
0000
,
0000
0001
0010
0100
,
1000
0010
0100
0001
,
0000
0000
1000
0010
,
0100
0001
0010
0100
,
1000
0000
0000
0001
,
0010
0100
1000
0010
,
0100
0001
0000
0000
,
1000
1100
0001
0101
,
1000
1010
0001
0011
,
0010
0100
0010
0100
,
1000
0001
0010
0001
,
1000
0001
0100
0001
,
1000
0100
1000
0000
,
0001
0010
0001
1000
,
0010
1000
0001
0100
,
0001
1000
0100
1000
,
0010
0100
0001
1000
,
0001
0000
0000
0000
,
0000
0000
0000
0000
,
0001
0010
0001
0000
,
0010
1000
0010
0000
,
0001
0010
0001
0010
,
1000
0010
0001
0000
,
1000
0100
1000
0000
,
0100
0001
0100
0000
,
1000
0000
0000
0000
0000
0000
0000
0000
0000
0000
0000
0000
0000
0010
0000
0000
0000
0000
0000
0000
0000
0000
0000
0000
0000
0000
0000
0000
0100
0000
0000
0000
,
0001
1000
0000
0000
0000
0000
0000
0000
,
0000
1001
0000
0000
0000
0000
0000
0000
,
0000
0000
0000
0000
,
0000
0000
0000
0000
0000
1001
0000
0000
,
0000
0000
0000
1001
0000
0000
0010
1000
,
0001
0000
0100
0000
,
0001
0010
0100
2000
,
0000
0000
0000
3000
,
0010
1000
0001
0200
,
0000
0000
0000
0300
,
0001
1000
0001
2002
,
0000
0000
0000
3003
,
0010
1000
0100
2002
,
0000
0000
0000
0000
,
3003
0000
0000
0000
,
0000
0000
0000
0000
,
0010
0000
0000
0000
,
1001
0100
0001
0010
,
0100
1000
0010
0100
,
0000
0000
0000
1001
,
0010
1000
0001
0100
,
0010
1000
0001
0000
,
0000
0000
1001
0010
,
0100
0001
0000
0000
,
0000
1001
0010
0100
,
1000
0000
0000
0000
,
1001
1001
1001
1001
,
0001
1000
0001
0000
,
1000
0000
0010
0000
,
1000
0000
0100
0000
,
1000
0000
0001
0000
,
0100
0000
0010
0100
,
0010
0000
1000
0000
,
0010
0000
0100
0000
,
0001
0000
0010
0000
,
0100
0000
1000
0001
,
1000
0000
0001
0000
,
0100
0000
0010
0000
,
1000
0000
0100
0000
,
0010
0000
0001
1000
,
0001
0000
0010
0000
,
0100
0000
1000
0000
,
0010
0000
0100
0000
,
0001
0000
1000
0001
,
1000
0100
0001
0000
;

//---------------dance-single - ----------------
#NOTES:
     dance-single:
     :
     Beginner:
     3:
     0.152,0.367,0.078,0.035,0.000:
0000
0000
0000
0000
,
0000
0000
0000
0000
,
0000
0000
0000
0000
,
0000
0000
0000
0000
,
0000
0000
0000
0000
,
0000
0000
0000
0000
,
0000
0000
0000
0000
,
0000
0000
0000
0000
,
0010
0000
0000
0000
,
1000
0000
0000
0000
,
0001
0000
0000
0000
,
0100
0000
0000
0000
,
0010
0000
0000
0000
,
1000
0000
0000
0000
,
0100
0000
0000
0000
,
0001
0000
0000
0000
,
0010
0000
0000
0000
,
0000
0100
0000
0100
,
0000
0001
0000
1000
,
0000
0010
0000
0010
,
0000
0000
0000
0000
,
1000
0000
1000
0000
,
0010
0000
0000
0000
,
0001
0000
0001
0000
,
0010
0000
0000
0000
,
0000
1000
0000
1000
,
0000
0100
0000
0000
,
0000
0001
0000
0001
,
0000
0100
0000
0000
,
0000
0000
0010
0000
,
0000
0000
0000
0000
,
0000
0000
0010
0000
,
0000
0000
0000
0000
,
0010
0000
1000
0000
,
0010
0000
0000
0000
,
0000
0100
0000
0001
,
0000
0100
0000
0000
,
0000
0000
0001
0000
,
1000
0000
0001
0000
,
0000
0000
0000
1000
,
0000
0100
0000
1000
,
0000
0000
0000
0000
,
0001
0000
1000
0000
,
0100
0000
0001
0000
,
1000
0000
0100
0000
,
1000
0000
0000
0000
,
0001
0000
0100
0000
,
0001
0000
0000
0000
,
1000
0000
0010
0000
,
1000
0000
0000
0000
,
0001
0000
0010
0000
,
0001
0000
0000
0000
,
1001
0000
0000
0000
,
0000
0000
0000
0000
,
0010
0000
1000
0000
,
0100
0000
0001
0000
,
0010
0000
1000
0000
,
0100
0000
0001
0000
,
0010
0000
1000
0000
,
0100
0000
0001
0000
,
0010
0000
0000
0000
,
0000
0000
0000
0000
,
0000
0000
0000
0000
,
0000
0000
0000
0000
,
0000
0000
0000
0000
,
0000
0000
0000
0000
,
0000
0000
0000
0000
,
0001
0000
0000
2000
,
0000
0000
3000
0000
,
0010
0000
0000
0200
,
0000
0000
0300
0000
,
0001
0000
0000
2000
,
0000
0000
3000
0000
,
0010
0000
0000
0200
,
0000
0000
0300
0000
,
0000
0000
0000
0000
,
0000
0000
0000
0000
,
0000
0000
0000
0000
,
1001
0000
0010
0000
,
1000
0000
0001
0000
,
0000
0000
0000
1001
,
0000
0010
0000
0001
,
0000
1000
0000
0000
,
0000
0000
1001
0000
,
0010
0000
0000
0000
,
0000
1001
0000
0100
,
0000
0000
0000
0000
,
1001
1001
1001
0000
,
1001
0000
0010
0000
,
0000
0000
1000
0000
,
0000
0000
0100
0000
,
0000
0000
0000
0000
,
0000
0000
0010
0000
,
0000
0000
0001
0000
,
0000
0000
0100
0000
,
0000
0000
0000
0000
,
0000
0000
0010
0000
,
0000
0000
1000
0000
,
0000
0000
0001
0000
,
0000
0000
0000
0000
,
0000
0000
0010
0000
,
0000
0000
0001
0000
,
0000
0000
1000
0000
,
0000
0000
0000
0000
,
0000
0000
0100
0000
,
0000
0000
0010
0000
;

//---------------dance-double - ----------------
#NOTES:
     dance-double:
     :
     Medium:
     8:
     0.398,0.784,0.052,0.000,0.009:
00000000
00000000
00000000
00000000
,
00000000
00000000
00000000
00000000
,
00000000
00000000
00000000
00000000
,
00000000
00000000
00000000
00000000
,
00000000
00000000
00000000
00000000
,
00000000
00000000
00000000
00000000
,
00000000
00000000
00000000
00000000
,
00000000
00000000
00000000
00000000
,
00001000
00100000
00010000
01000000
,
00100000
10000000
01000000
00100000
,
00001000
00010000
00000100
00001000
,
00000010
00000100
00000001
00000010
,
00000100
00010000
00001000
00100000
,
00010000
01000000
00100000
10000000
,
01000000
00100000
00001000
00010000
,
00000100
00001000
00000010
00000100
,
00000001
00000001
00000010
00000100
,
00010000
00001000
01000000
00100000
,
10000000
01000000
00100000
00001000
,
00010000
00000100
00001000
00000010
,
00000100
00000000
00000100
00000000
,
00000001
00000001
00000010
00000010
,
00000100
00000100
00010000
00010000
,
00001000
00001000
01000000
01000000
,
00010000
00010000
10000000
01000000
,
10000000
01000000
10000000
00100000
,
00100000
01000000
01000000
00010000
,
00010000
00100000
00100000
00001000
,
00001000
00010000
00010000
00000010
,
00001000
00000100
00001000
00000010
,
00000001
00000100
00001000
00100000
,
00010000
00000000
01000000
00000000
10000000
00000000
00000000
00010000
,
00000000
00100000
00000000
00000000
,
10010000
10000000
01000000
10000000
,
00010000
00100000
00001000
00000000
,
00000000
00010000
00000100
00001000
,
00000010
00000100
00000001
00000010
,
00000000
00000000
00000100
00010000
,
00001000
01000000
00010000
00100000
,
10000000
00000000
00000000
00100000
,
00001000
00010000
00000100
00001000
,
00000010
00000001
00000000
00000000
,
00000010
00001000
00000100
00010000
00001000
00100000
00010000
01000000
,
00001000
00100000
00010000
10000000
01000000
00010000
01000000
10000000
,
00010000
00100000
00001000
00010000
,
00000100
00001000
00000010
00001000
,
00000100
00010000
00001000
01000000
,
00010000
10000000
01000000
00100000
,
00001000
00010000
00000010
00000100
,
00000001
00000010
00000100
00010000
,
00001000
01000000
00010000
10000000
,
01000000
00100000
00010000
00100000
,
01000000
00000000
00000000
00000000
,
00000000
00000000
00000000
00000000
,
10000000
00100000
01000000
00010000
,
00100000
00010000
01000000
00100000
,
01000000
00010000
00100000
00001000
,
00010000
00000010
00001000
00000100
,
00001000
00000010
00000100
00000001
,
00000010
00000100
00010000
00001000
,
01000000
00000000
00000000
00000000
00000000
11000000
00000000
00000000
00000000
00000000
00000000
00000000
00000000
10010000
00000000
00000000
00000000
00000000
00000000
00000000
01000000
00000000
00000000
00000000
00000000
00000000
00000000
00000000
10010000
00000000
00000000
00000000
,
00100000
10000000
00000000
00000000
00000000
00000000
00000000
00000000
,
00000000
00010000
00000000
00000000
00000000
00000000
00000000
00000000
,
00000000
00000000
00000000
10000000
00000000
00100000
00000000
00000000
,
00000000
00000000
00000000
00000000
00000000
00100000
00000000
00000000
,
00000000
00100000
00000000
00000000
00000000
00000000
00100000
00100000
,
10000000
00000000
00010000
00000000
,
10000000
01000000
10000000
00010000
,
00100000
00001000
01000000
10010000
,
00100000
10000000
01000000
00100000
,
00001000
00010000
00000100
00001000
,
00000010
00000001
00000010
00001000
,
00000100
00010000
00001000
00100000
,
00010000
00010000
10000000
00000000
,
00000000
00000000
00000000
00000000
,
00000000
00000000
00000000
00000000
,
00000000
00000000
00000000
00000000
,
00100000
00000000
00000000
00000000
,
00010000
00000000
00000000
00000000
,
00010000
00000000
00000000
00000000
,
00001000
00000000
00000000
00000010
,
00000000
00000000
00000000
00000000
,
00000000
00010100
00000100
00000000
,
00001000
00000000
00001000
00000000
,
00100000
01000000
00000000
00000000
,
00000000
00000000
10000000
01000000
10000000
01000000
00010000
00000000
,
00000000
00000000
00000000
00000000
,
00100000
10000000
00010000
01000000
,
00010000
01000000
00100000
00000000
,
10000000
00000000
01000000
10000000
,
01000000
10000000
00100000
01000000
,
00100000
01000000
00010000
00100000
,
00010000
00100000
00001000
00010000
,
00001000
00000000
00010000
00000100
,
00010000
00000100
00001000
00000100
,
00001000
00000100
00001000
00000010
,
00001000
00000010
00001000
00000100
,
00001000
00000000
00000100
00010000
,
00001000
01000000
00010000
10000000
,
01000000
00000000
00100000
00000000
,
00001000
00000000
00010000
00000000
,
00000010
00000000
00001000
00000000
,
00000100
00000000
00010000
00000000
,
00001000
00000000
01000000
00000000
,
00010000
00000000
10000000
00000000
,
01000000
00000000
00100000
00000000
,
01000000
00000000
00000000
00000000
;

//---------------dance-double - ----------------
#NOTES:
     dance-double:
     :
     Easy:
     5:
     0.245,0.413,0.061,0.044,0.004:
00000000
00000000
00000000
00000000
,
00000000
00000000
00000000
00000000
,
00000000
00000000
00000000
00000000
,
00000000
00000000
00000000
00000000
,
00000000
00000000
00000000
00000000
,
00000000
00000000
00000000
00000000
,
00000000
00000000
00000000
00000000
,
00000000
00000000
00000000
00000000
,
00000100
00000000
00000100
00000000
,
00010000
00000000
00010000
00000000
,
00001000
00000000
00001000
00000000
,
01000000
00000000
01000000
00000000
,
00010000
00000000
10000000
00000000
,
01000000
00000000
00100000
00000000
,
00001000
00000000
00010000
00000000
,
00000010
00000000
00000100
00000000
,
00000001
00000000
00000000
00000010
,
00000000
00000100
00000000
00010000
,
00000000
00001000
00000000
01000000
,
00000000
00010000
00000000
10000000
,
01000000
00000000
10000000
00000000
,
00010000
00000000
01000000
00000000
,
00001000
00000000
00010000
00000000
,
00000100
00000000
00001000
00000000
,
00000010
00000000
00000100
00000100
,
00000000
00000001
00000000
00001000
,
00000000
00000100
00000000
00010000
,
00000000
00001000
00000000
01000000
,
00000000
00100000
00000000
10000000
,
00010000
00000000
00000000
00000000
,
00000000
00000000
00000000
00000000
,
00000000
00000000
10010000
00000000
,
00000000
00000000
00000000
00000000
,
10010000
00000000
00100000
00000000
,
00010000
00010000
00001000
00000000
,
00000100
00000010
00000001
00000010
,
00000100
00000100
00001000
00000000
,
00000000
00000000
00100000
00100000
,
00001000
00000000
00010000
00010000
,
00000010
00000000
00000000
00000100
,
00000100
00000001
00001000
00000001
,
00000001
00000010
00000000
00000000
,
00000100
00100000
00001000
00010000
,
00100000
01000000
00010000
01000000
,
10000000
00000000
00100000
00000000
,
01000000
00000000
00000000
00000000
,
00100000
00000000
00001000
00000000
,
00010000
00000000
00000010
00000000
,
00000100
00000000
00000001
00000000
,
00001000
00000000
00000100
00000000
,
00010000
00000000
00001000
00000000
,
00100000
00000000
00010000
01000000
,
10000000
01000000
00010000
10000000
,
00000000
01000000
00000000
00000000
,
00100000
00000000
00000000
00000000
,
00001000
00000000
00000000
00000000
,
00010000
00000000
00010000
00000000
,
00001000
00000000
00001000
00000000
,
01000000
00000000
00000000
00000000
,
00010000
00000000
00010000
00000000
,
00100000
00000000
00000000
00000000
00000000
00000000
00000000
00000000
00000000
00000000
00000000
00000000
00000000
00100000
00000000
00000000
00000000
00000000
00000000
00000000
00000000
00000000
00000000
00000000
00000000
00000000
00000000
00000000
00100000
00000000
00000000
00000000
,
00100000
00100000
00000000
00000000
00000000
00000000
00000000
00000000
,
00000000
00001000
00000000
00000000
00000000
00000000
00000000
00000000
,
00000000
00000000
00000000
00000000
,
00000000
00000000
00000000
00000000
,
00000000
00000000
00000000
00000000
,
00010000
00000000
00000000
00000000
,
00000010
00000000
00000100
00000000
,
00000100
00000010
00000100
00000000
,
00000100
00000000
00000100
00000000
,
00000001
00000001
00001000
00000000
,
00000100
00000000
00010000
00010000
,
00001000
00001000
00010000
00010000
,
00100000
00000000
00010000
00000000
,
10000000
10000000
01000000
01000000
,
10000000
00000000
00000000
00000000
,
00000000
00000000
00000000
00000000
,
00000000
00000000
00000000
00000000
,
00200000
00000000
00000000
00300000
,
00100000
00000000
00000000
00000000
,
00000000
00000000
00000000
20000000
,
00000000
00000000
30000000
10000000
,
00000000
00000000
00000000
00000000
,
00000000
00000000
00002000
00000000
,
00003000
00000000
00000000
00000000
,
00000000
00000020
00000030
00000020
,
00000030
00000000
00000000
00000000
,
00000100
01000000
00000001
00001000
,
00000010
00000000
00000000
00010000
,
00000000
00000000
00100000
00000000
,
11000000
00000000
00010000
00000000
,
00010000
00000000
10000000
00000000
,
00010000
00000000
01000000
00000000
,
00100000
00000000
00100000
00000000
,
00010000
00000000
00100000
00000000
,
00011000
00000000
00010000
00000000
,
00100000
00000000
00001000
00000000
,
00010000
00000000
00000100
00000000
,
00001000
00000000
00000010
00000000
,
00000110
00000000
00000100
00000000
,
00000001
00000000
00001000
00000000
,
00000100
00000000
00010000
00000000
,
00000010
00000000
00001000
00000000
,
00000100
00000000
00010000
00000000
,
00001000
00000000
01000000
00000000
,
01100000
00000000
10010000
00000000
;

//---------------dance-double - ----------------
#NOTES:
     dance-double:
     :
     Hard:
     12:
     0.984,1.000,0.444,0.026,0.605:
00000000
00000000
00000000
00000000
,
00000000
00000000
00000000
00000000
,
00000000
00000000
00000000
00000000
,
00000000
00000000
00000000
00000000
,
00000000
00000000
00000000
00000000
,
00000000
00000000
00000000
00000000
,
00000000
00000000
00000000
00000000
,
00000000
00000000
00000000
00000000
,
00010000
00000000
00000100
00000000
00001000
00000000
00000010
00000000
00000100
00000001
00000100
00000000
00000010
00000000
00001000
00000000
,
00000100
00000000
00010000
00000000
00001000
00000000
01000000
00000000
00010000
10000000
00010000
00000000
00100000
00000000
01000000
00000000
,
10000000
00000000
00100000
00000000
10000000
00000000
00010000
00000000
01000000
00010000
01000000
00000000
00100000
00000000
10000000
00000000
,
01000000
00000000
00100000
00000000
00001000
00000000
00010000
00000000
00000100
00001000
00000100
00000000
00001000
00000000
00000010
00000000
,
00000100
00000000
00000001
00000000
00000010
00000000
00000001
00000000
00001000
00000100
00001000
00000000
00000010
00000000
00010000
00000000
,
00001000
00000000
00100000
00000000
00010000
00000000
01000000
00000000
00100000
10000000
00100000
00000000
10000000
00000000
00010000
00000000
,
00100000
00000000
00001000
00000000
00010000
00000000
00000010
00000000
00001000
00000100
00001000
00000000
00000010
00000000
00000100
00000000
,
00000001
00000000
00000010
00000000
00000100
00000000
00010000
00000000
00001000
01000000
00001000
00000000
00100000
00000000
00010000
00000000
,
20000000
00000000
00000000
00000000
32000000
00000000
00000000
00000000
03200000
00000000
00000000
00000000
00310000
00100000
00001000
00010000
,
00000010
00001000
00000010
00000000
00000100
00000000
00000001
00000000
00000010
00000000
00000100
00000000
00010000
00000000
00001000
00000000
01000000
00010000
10000000
00000000
00100000
00000000
01000000
00000000
00001000
00000000
00010000
00000000
00000010
00000000
00000100
00000000
,
00000001
00000010
00000100
00000000
00010000
00000000
00001000
00000000
01000000
00000000
00100000
00000000
10000000
00000000
01000000
00000000
00100000
00001000
00010000
00000000
00000010
00000000
00001000
00000000
00000100
00000000
00010000
00000000
00001000
00000000
01000000
00000000
,
00100000
10000000
00010000
00000000
00100000
00000000
00001000
00000000
00010000
00000000
00000100
00000000
00001000
00000000
00000001
00000000
00000010
00000100
00001000
00000000
00000001
00000000
00001000
00000000
00000100
00000000
00010000
00000000
00001000
00000000
01000000
00000000
,
00100000
10000000
00010000
00000000
00100000
00000000
00110000
00000000
,
01100000
11000000
10010000
01010000
,
01001000
00000000
00101000
00000000
00011000
00000000
00010000
00000100
,
00001000
00001010
00001001
00000011
,
00000110
00000000
00001100
00000000
00011000
00000000
00001000
00100000
,
00010000
01000000
00100000
00000000
10010000
00000000
00110000
00000000
,
00001010
00000110
00001001
00001100
,
00001000
00100000
00110000
00000000
01100000
00000000
11000000
00000000
,
10010000
01010000
01100000
10010000
,
10000000
00100000
01000000
00010000
10000000
00100000
01000000
00010000
,
00100000
00001000
00010000
00000000
00000010
00000000
00001000
00000000
00000100
00000000
00010000
00000000
00001000
00000000
01000000
00000000
,
00010000
10000000
01000000
00000000
00100000
00000000
00010000
00000000
10010000
00000000
10100000
00000000
00000000
00000000
10010000
00000000
,
00110000
00000000
00000000
00000000
00000000
00000000
00000000
00000000
00000000
00000000
00000000
00000000
00000000
00000000
00000000
00000000
01100000
00000000
00000000
00000000
00000000
00000000
00000000
00000000
00000000
00000000
00000000
00000000
00000000
00110000
00000000
00000000
00000000
00000000
00000000
00000000
00000000
00000000
00000000
00000000
00000000
00000000
00100000
00000000
00000000
00000000
00001000
00000000
00000000
00000000
00010000
00000000
00000100
00000000
00000000
00000000
00000000
00000000
00000000
00000000
00001000
00000000
00000000
00000000
,
00010000
00000010
00000100
00000001
00000010
00000100
00010000
00001000
,
01000000
00010000
10000000
00100000
01000000
00010000
00100000
01000000
,
00000000
10000000
00010000
01000000
00100000
10000000
00010000
00100000
,
00001000
00010000
00000010
00001000
00000100
00010000
00001000
01000000
,
00010000
10000000
00000000
01000000
10000000
00100000
00010000
00100000
,
10000000
01000000
00100000
00001000
00010000
00000100
00001000
00000010
,
00000100
00000001
00000010
00000100
00000000
00010000
00001000
01000000
,
00010000
10000000
01000000
00100000
00001000
00010000
00000010
00001000
,
00000100
00010000
00001000
01000000
00010000
10000000
00000000
01000000
,
11000000
00100000
00010000
01000000
00100000
10000000
01000000
00010000
10000000
01000000
00100000
10000000
00010000
00100000
00001000
00010000
,
00000100
00001000
00000010
00000100
00001000
00000100
00000001
00001000
00000100
00010000
00001000
00100000
00010000
01000000
00001000
00010000
,
00000100
00000000
00001000
00000000
00000001
00000000
00000100
00000000
00000010
00001000
00000010
00001000
00000010
00001000
00000010
00001000
,
00000010
00000100
00000010
00000100
00000010
00000100
00000001
00000000
00000010
00000000
00000100
00001000
00000100
00001000
00000100
00001000
,
00000100
00000010
00000000
00000010
00000100
00001000
00000100
00000000
00010000
00000000
00001000
00000000
01000000
00010000
10000000
00000000
,
01000000
00000000
00100000
00000000
00010000
00000000
01000000
00000000
00010000
00100000
00010000
00100000
00010000
00000000
00100000
00000000
,
00001000
00000000
00010000
00000000
00000100
00000000
00001000
00000000
00000010
00001000
00000010
00001000
00000001
00001000
00000001
00001000
,
00000100
00001000
00000100
00001000
00000100
00001000
00000100
00000000
00000010
00000000
00000100
00001000
00000100
00001000
00000100
00001000
,
00000001
00000100
00000000
00000001
00001000
00000001
00001000
00000000
00000010
00000000
00001000
00000000
00000100
00010000
00000100
00010000
,
00001000
00000000
00100000
00000000
00010000
00000000
01000000
00000000
00100000
01000000
00100000
01000000
00100000
00000000
10000000
00000000
,
00010000
00000000
00000000
00000000
,
00000000
00000000
00000000
00000000
,
10000000
01000000
00100000
00001000
00010000
00000010
00001000
00000100
,
00000010
00000001
00000100
00000010
00001000
00000001
00001000
00000100
,
00010000
00001000
01000000
00010000
10000000
00100000
01000000
00010000
,
00100000
00001000
00010000
00000010
00001000
00000100
00010000
00001000
,
01000000
00010000
00100000
00001000
00010000
00000010
00001000
00000100
,
00010000
00000010
00001000
00000100
00010000
00001000
01000000
00010000
,
10010000
00000000
00000000
00000000
00000000
11000000
00000000
00000000
00000000
00000000
00000000
00000000
00000000
01100000
00000000
00000000
00000000
00000000
00000000
00000000
00110000
00000000
00000000
00000000
00000000
00000000
00000000
00000000
10010000
00000000
00000000
00000000
,
00010000
10000000
01000000
00100000
00000000
00010000
00000000
00110000
,
00000000
00100000
00000000
01000000
10000000
00010000
00000000
01000000
,
00000000
00001000
00000000
01001000
00000000
00001000
00010000
00000100
,
00000000
00001000
00000000
00000010
00000000
00000110
00000000
00000010
,
00010000
00001000
00000000
00100000
00000000
01000000
10000000
00100000
,
10000000
01000000
10000000
00000000
00010000
00000000
10010000
00000000
,
10000000
00100000
01000000
00010000
00100000
00001000
00010000
00000010
,
00001000
00000100
00001000
00000010
00000100
00000001
00001000
00000100
,
00000010
00000001
00000010
00000100
00001000
00000001
00000010
00001000
,
00000010
00000001
00000100
00000010
00001000
00000100
00010000
00001000
,
01000000
00010000
10000000
01000000
00010000
00100000
00010000
01000000
,
00100000
01000000
10000000
01000000
00100000
00010000
00001000
00010000
,
00100000
00001000
00010000
00000100
00001000
00000010
00000001
00000010
,
00001000
00010000
01000000
10000000
01000000
00010000
10000000
00100000
,
10000000
00000000
00000000
00000000
00000000
00000000
00000000
00000000
00000000
00100000
00000000
00000000
00000000
00000000
00000000
00000000
00000000
00000000
01000000
00000000
00000000
00000000
00000000
00000000
00000000
00000000
00010000
00000000
00000000
00000000
00000000
00000000
00000000
00000000
10000000
00000000
00000000
01000000
00000000
00000000
10000000
00000000
00000000
00000000
00000000
00000000
00100000
00000000
,
00000000
00000000
00000000
00000000
00001000
00000000
00000000
00000000
00000000
00000000
00010000
00000000
00000000
00000000
00000000
00000000
00000100
00000000
00000000
00000000
00000000
00000000
00001000
00000000
00000000
00000000
00000000
00000000
00000010
00000000
00000000
00000000
00000000
00000000
00001000
00000000
00000000
00000100
00000000
00000000
00000010
00000000
00000000
00000000
00000000
00000000
00000000
00000000
,
00000001
00000010
00000100
00001000
00000001
00000000
00000101
00000000
,
00001001
00000010
00001000
00000100
00010000
00001000
00100000
00010000
,
01000000
10000000
01000000
00010000
00100000
10000000
00100000
00010000
,
10000000
00000000
00010000
00000000
01000000
00000000
00000000
00000000
10010000
00000000
00000000
00000000
10000000
00100000
00010000
00100000
,
10000000
01000000
00010000
01000000
00100000
00001000
00010000
00000100
00001000
00000010
00000001
00000010
00001000
00000100
00000010
00000100
,
00001000
00000010
00000100
00000001
00001000
00000100
00010000
00001000
01000000
00000000
00010000
00000000
10000000
00000000
01000000
00000000
,
10000000
00000000
00000000
00000000
00010000
00000000
00000000
00000000
10000000
00100000
00000000
00010000
00000000
01000000
00000000
00100000
,
00000000
00010000
01000000
00010000
00100000
00000000
00010000
00000000
00000000
00000000
01000000
00000000
00100000
00000000
00000000
00000000
,
00010000
00000000
00000000
00000000
00100000
00001000
00010000
00001000
00100000
00010000
01000000
00010000
00100000
00001000
00010000
00000100
,
00001000
00000010
00000100
00000001
00000010
00000000
00000110
00000000
,
00001001
10010000
00001001
00011000
,
00010000
00000000
00100000
00000000
01000000
10000000
00010000
01000000
,
00010000
00100000
00001000
00010000
,
00000100
00001000
00000010
00000001
,
00000010
00001000
00000100
00000010
,
00000001
00000100
00000010
00010000
,
00001000
01000000
00010000
10000000
,
00100000
00010000
00100000
10000000
,
01000000
00100000
00001000
00100000
,
00001000
00010000
00000100
00001000
,
00000010
00000001
00000010
00001000
,
00000100
00010000
00001000
01000000
,
00010000
00100000
10000000
00100000
,
01000000
10000000
01000000
00100000
,
00001000
00010000
00000100
00001000
,
00000010
00000100
00000001
00000010
,
00000100
00010000
00001000
01000000
,
00010000
10000000
01000000
00100000
,
00010000
10000000
00010000
10000000
00010000
00000000
00000000
00000000
;

//---------------dance-single - ----------------
#NOTES:
     dance-single:
     :
     Hard:
     12:
     0.994,1.000,0.470,0.148,0.522: // measure 1
0000
0000
0000
0000
,  // measure 2
0000
0000
0000
0000
,  // measure 3
0000
0000
0000
0000
,  // measure 4
0000
0000
0000
0000
,  // measure 5
0000
0000
0000
0000
,  // measure 6
0000
0000
0000
0000
,  // measure 7
0000
0000
0000
0000
,  // measure 8
0000
0000
0000
0000
,  // measure 9
1000
0000
0100
0000
0010
0000
0001
0000
1000
0100
1000
0000
0001
0000
0010
0000
,  // measure 10
0100
0000
1000
0000
0001
0000
0010
0000
0001
0010
0001
0000
0010
0000
0100
0000
,  // measure 11
1000
0000
0001
0000
0100
0000
0010
0000
1000
0001
1000
0000
0010
0000
0100
0000
,  // measure 12
0001
0000
0010
0000
0100
0000
1000
0000
0001
0010
0001
0000
0010
0000
0100
0000
,  // measure 13
1000
0000
0010
0000
1000
0000
0001
0000
0100
0010
0100
0000
0001
0000
1000
0000
,  // measure 14
0100
0000
0010
0000
0001
0000
1000
0000
0100
0010
0100
0000
1000
0000
0001
0000
,  // measure 15
0010
0000
0100
0000
1000
0000
0001
0000
0010
0100
0010
0000
0100
0000
1000
0000
,  // measure 16
0001
0000
0010
0000
0100
0000
1000
0000
0001
0100
0001
0000
1000
0000
0010
0000
,  // measure 17
0002
0000
0000
0003
2200
0000
0000
3300
0022
0000
0000
0033
1001
1000
0001
0100
,  // measure 18
0001
0001
1000
0010
0100
0001
0010
0100
1000
1000
0100
0010
0001
0100
0010
1000
,  // measure 19
0001
0001
1000
0010
0100
0001
1000
0100
0010
0010
0001
1000
0100
0010
0100
1000
,  // measure 20
0001
0001
1000
0010
0100
0001
0010
0100
1000
1000
0010
0100
0001
0010
0100
1000
,  // measure 21
0001
0100
0010
0000
1000
0000
0001
0000
,  // measure 22
1001
1010
0110
0101
,  // measure 23
0011
0000
0110
0000
1100
0000
1000
0001
,  // measure 24
1001
0011
0110
1100
,  // measure 25
0101
0000
0110
0000
1001
0000
0010
1000
,  // measure 26
0001
0100
0010
0000
1001
0000
0101
0000
,  // measure 27
0011
1100
1010
1001
,  // measure 28
1000
0100
1100
0000
0011
0000
1010
0000
,  // measure 29
0101
0110
1001
0011
,  // measure 30
0100
1000
0001
0010
0100
0010
0100
1000
,  // measure 31
0001
0100
0001
0000
1000
0000
0010
0000
0100
0000
0001
0000
1000
0000
0100
0000
,  // measure 32
0010
0100
1000
0000
0001
0000
0100
0000
0101
0000
0010
0000
0000
0000
1100
0000
,  // measure 33
0010
0000
0000
0000
0000
0000
0000
0000
0000
0000
0000
0000
0000
0000
0000
0000
1001
0000
0000
0000
0000
0000
0000
0000
0000
0000
0000
0000
0000
0110
0000
0000
0000
0000
0000
0000
0000
0000
0000
0000
0000
0000
0001
0000
0000
0000
1000
0000
0000
0000
0100
0000
1000
0000
0000
0000
0000
0000
0000
0000
0010
0000
0000
0000
,  // measure 34
0100
0001
0010
0001
1000
0010
0100
0001
,  // measure 35
1000
0100
0010
0001
1000
0001
0010
0100
,  // measure 36
0000
1000
0001
0100
0001
0010
0001
1000
,  // measure 37
0010
0100
0001
1000
0100
0010
0001
1000
,  // measure 38
0100
0010
0000
0001
0100
0010
1000
0001
,  // measure 39
0010
0001
1000
0100
0010
0001
1000
0010
,  // measure 40
1000
0001
0100
0010
0000
1000
0100
0010
,  // measure 41
0001
0010
0100
1000
0001
0100
0010
1000
,  // measure 42
0001
0100
0010
1000
0001
0100
0000
0001
,  // measure 43
1000
0010
0100
0001
0010
0100
1000
0001
0010
0100
1000
0010
0100
0001
1000
0001
,  // measure 44
0100
1000
0010
1000
0100
0001
1000
0010
0001
0100
0010
0001
1000
0010
0100
1000
,  // measure 45
0001
0000
0100
0000
0001
0000
1000
0000
0001
0100
0001
0000
1000
0000
0010
0000
,  // measure 46
0100
0000
0001
0000
0010
0000
0100
0000
1000
0000
0010
0000
1000
0001
1000
0001
,  // measure 47
1000
0001
0000
1000
0001
1000
0001
0000
0010
0000
0100
0000
1000
0001
0010
0100
,  // measure 48
1000
0000
0010
0000
0001
0000
1000
0000
0001
0100
0001
0100
0001
0000
1000
0000
,  // measure 49
0001
0000
0100
0000
0001
0000
1000
0000
0001
0100
0001
0000
1000
0000
0010
0000
,  // measure 50
0100
0000
0001
0000
0010
0000
0100
0000
1000
0000
0010
0000
0100
0001
0100
0001
,  // measure 51
0100
0001
0000
0100
0010
0100
0001
0000
0010
0000
0100
0000
1000
0010
1000
0100
,  // measure 52
1000
0000
0010
0000
0100
0000
0001
0000
0001
0100
0001
0100
0001
0000
1000
0000
,  // measure 53
0010
0000
0000
0000
,  // measure 54
0000
0000
0000
0000
,  // measure 55
1000
0100
0010
0001
0010
0100
1000
0001
,  // measure 56
0010
1000
0010
0001
0100
0010
0100
0001
,  // measure 57
1000
0100
0001
0100
1000
0010
1000
0100
,  // measure 58
0010
0001
0100
0010
0001
0010
1000
0001
,  // measure 59
0100
0001
1000
0100
1000
0010
1000
0100
,  // measure 60
0010
0001
1000
0001
0100
0010
1000
0001
,  // measure 61
0101
0000
0000
0000
0000
1000
0000
0000
0000
0000
0000
0000
0000
1100
0000
0000
0000
0000
0000
0000
0001
0000
0000
0000
0000
0000
0000
0000
1001
0000
0000
0000
,  // measure 62
0110
0010
1000
0001
0000
0100
0000
0010
,  // measure 63
0000
1001
0000
1000
0010
0100
0000
0001
,  // measure 64
0000
0010
0000
1001
0000
0001
0100
0010
,  // measure 65
0000
1000
0000
0001
0000
1001
0000
0010
,  // measure 66
0000
0000
0000
1010
0000
0100
0101
1100
,  // measure 67
0001
1000
0100
0000
0010
0000
0001
0000
,  // measure 68
1001
0001
0100
0001
1000
0010
1000
0100
,  // measure 69
1000
0010
0100
0010
1000
0001
0100
0001
,  // measure 70
0010
0100
1000
0001
0100
0001
0010
0100
,  // measure 71
1000
0010
1000
0100
0010
0001
1000
0001
,  // measure 72
0100
0010
1000
0100
0010
0001
1000
0001
,  // measure 73
0100
0010
1000
0100
0010
0001
1000
0001
,  // measure 74
0100
1000
0100
0001
0010
1000
0010
0001
,  // measure 75
0100
0010
1000
0001
0100
1000
0100
0001
,  // measure 76
1000
0000
0000
0000
0000
0000
0000
0000
0000
0100
0000
0000
0000
0000
0000
0000
0000
0000
0010
0000
0000
0000
0000
0000
0000
0000
0010
0000
0000
0000
0000
0000
0000
0000
1000
0000
0000
0100
0000
0000
1000
0000
0000
0000
0000
0000
0001
0000
,  // measure 77
0000
0000
0000
0000
0001
0000
0000
0000
0000
0000
0010
0000
0000
0000
0000
0000
0010
0000
0000
0000
0000
0000
0100
0000
0000
0000
0000
0000
0100
0000
0000
0000
0000
0000
0010
0000
0000
0001
0000
0000
1000
0000
0000
0000
0000
0000
0000
0000
,  // measure 78
0001
0100
0010
1000
0100
0000
0010
0000
,  // measure 79
1001
0100
0001
0100
1000
0010
1000
0001
,  // measure 80
0010
1000
0100
0001
0010
0100
1000
0010
,  // measure 81
0100
0000
0001
0000
1000
0000
0000
0000
0100
0000
0000
0000
1000
0010
0100
0001
,  // measure 82
0010
0100
1000
0010
1000
0001
0100
1000
0100
0001
0010
0100
1000
0001
0010
0001
,  // measure 83
1000
0010
1000
0001
0100
1000
0100
0001
0010
0000
0100
0000
1000
0000
0001
0000
,  // measure 84
0010
0000
0000
0000
0100
0000
0000
0000
1000
0010
0100
0001
1000
0100
0001
0100
,  // measure 85
1000
0010
0100
0001
0100
0000
0001
0000
1000
0000
0100
0000
1000
0000
0000
0000
,  // measure 86
0001
0000
0000
0000
1000
0010
0100
0001
1000
0100
1000
0010
0100
1000
0100
0010
,  // measure 87
0100
0001
1000
0010
0100
0000
0001
0000
,  // measure 88
2200
3300
0000
0000
0000
0000
0000
0000
0000
0000
0000
0000
0000
0000
0000
0000
0202
0303
0000
0000
0000
0000
0000
0000
0000
0000
0000
0000
0000
0000
0000
0000
2002
3003
0000
0000
0000
0000
0000
0000
0000
0000
0000
0000
0000
0000
0000
0000
2002
3003
0000
0000
0000
0000
0000
0000
0000
0000
0000
0000
0000
0000
0000
0000
,  // measure 89
0220
0330
0000
0000
0000
0000
0000
0000
0000
0000
0000
0000
0000
0000
0000
0000
2002
3003
0000
0000
0000
0000
0000
0000
0000
0000
0000
0000
0000
0000
0000
0000
0001
0000
0000
0000
0000
0000
0000
0000
1000
0000
0000
0000
0000
0000
0000
0000
0100
0000
0000
0000
0000
0000
0000
0000
0010
0000
0000
0000
0000
0000
0000
0000
,  // measure 90
0001
1000
0001
0100
,  // measure 91
0010
0000
1000
0000
0001
0000
0010
1000
,  // measure 92
0001
1000
0100
0010
,  // measure 93
0100
0000
1000
0000
0010
0000
0001
0010
,  // measure 94
0100
0001
0010
1000
,  // measure 95
0100
0000
0010
0000
1000
0000
0010
0100
,  // measure 96
0001
1000
0001
0100
,  // measure 97
0010
0000
1000
0000
0100
0000
0001
0010
,  // measure 98
0100
1000
0001
0010
,  // measure 99
0100
0000
1000
0000
0001
0000
0010
0100
,  // measure 100
0001
1000
0100
1000
,  // measure 101
0010
0000
1000
0000
0001
0000
0010
0001
,  // measure 102
0100
1000
0001
0100
,  // measure 103
0010
0000
1000
0000
0001
0000
0010
0100
,  // measure 104
0001
1000
0100
0010
,  // measure 105
0100
0000
1000
0000
0001
0010
0100
1000
,  // measure 106
0001
1100
0101
0000
;
