#TITLE:Destruction UNLIMITED;
#SUBTITLE:;
#ARTIST:HardkoreBeatz;
#TITLETRANSLIT:;
#SUBTITLETRANSLIT:;
#ARTISTTRANSLIT:;
#GENRE:;
#CREDIT:;
#MENUCOLOR:;
#METERTYPE:DDR;
#BANNER:Destruction UNLIMITED-bn.png;
#BACKGROUND:Destruction UNLIMITED-bg.png;
#LYRICSPATH:;
#CDTITLE:;
#MUSIC:Destruction UNLIMITED.mp3;
#OFFSET:-0.015;
#SAMPLESTART:30.067;
#SAMPLELENGTH:11.900;
#SELECTABLE:YES;
#LISTSORT:;
#DISPLAYBPM:*;
#BPMS:0.000=319.501,239.000=159.750,241.000=319.501,351.000=666.000,358.000=600.000,360.000=400.000,361.000=300.000,362.000=150.000,363.000=100.000,364.000=20.000,364.500=18.975,365.000=319.481,421.000=159.751,425.000=319.501,453.000=3000.000,482.146=450.000,482.167=319.501,563.000=159.751,565.000=319.501,567.000=2000.000;
#STOPS:129.000=0.282
,129.500=0.282
,134.000=0.282
,134.500=0.282
,140.000=0.282
,141.500=0.282
,143.000=0.469
,146.500=0.282
,305.000=0.188
,308.000=0.188
,364.000=1.500
,425.000=0.563
,430.000=0.282
,433.500=0.282
,441.000=0.094
,442.500=0.094
,478.250=0.010
,478.500=0.001
,482.500=0.188
;
#BGCHANGES:0.000=Destruction UNLIMITED.avi=1.000=1=0=0,
595.000=Destruction UNLIMITED-bg.png=1.000=0=0=1,
99999=-nosongbg-=1.000=0=0=0 // don't automatically add -songbackground-
;
#ATTACKS:;

//---------------dance-single - ----------------
#NOTES:
     dance-single:
     :
     Hard:
     11:
     1.000,1.000,0.631,0.166,0.018: // measure 1
0000
0000
0000
0000
,  // measure 2
0000
0000
0000
0000
,  // measure 3
0000
0000
0000
0000
,  // measure 4
0000
0000
0000
0000
,  // measure 5
1001
0010
0110
1000
,  // measure 6
0101
0000
1100
0000
0001
1000
0010
0100
,  // measure 7
1001
0100
1100
0100
,  // measure 8
0110
0000
1001
0000
0001
1000
0010
0100
,  // measure 9
1001
0000
0200
0000
0000
0301
0000
0100
,  // measure 10
0001
0000
2000
0000
0000
3100
0000
0001
,  // measure 11
0100
0000
2000
0000
0000
3010
0000
0001
,  // measure 12
0010
0000
0200
0000
0000
0301
0000
0100
,  // measure 13
1000
0000
0200
0000
0000
0310
0000
1000
,  // measure 14
0100
0000
0020
0000
0000
0031
0000
0010
,  // measure 15
1000
0000
0020
0000
0000
0130
0000
1000
,  // measure 16
0010
0000
2000
0000
0000
3001
0000
1000
,  // measure 17
0010
0000
1000
0000
0100
0010
0000
0100
,  // measure 18
0010
0000
0001
0000
0100
0010
0000
0100
,  // measure 19
0010
0000
1000
0000
0001
0010
0000
0100
,  // measure 20
1000
0100
2001
0000
,  // measure 21
3001
0000
1000
0000
0010
1000
0000
0010
,  // measure 22
1000
0000
0100
0000
0010
0001
0000
0010
,  // measure 23
0001
0000
0100
0000
0010
1000
0000
0001
,  // measure 24
0100
0000
0010
0000
1000
0001
0000
1000
,  // measure 25
0100
0010
0100
1000
0001
1000
0001
0100
,  // measure 26
0001
0010
0001
0010
0100
1000
0100
0000
,  // measure 27
0010
0001
0010
0001
0100
0010
0100
0001
,  // measure 28
1000
0100
0010
0100
1000
0001
1000
0000
,  // measure 29
0010
0100
0001
0100
0010
1000
0100
1000
,  // measure 30
0010
0100
0010
1000
0001
1000
0001
0000
,  // measure 31
0100
0010
0100
0001
0100
0010
0100
0010
,  // measure 32
1000
0100
1000
0100
0010
0001
0010
0000
,  // measure 33
0100
0000
1100
1001
0001
0000
0010
0000
,  // measure 34
0100
0000
1000
0000
1010
0110
0001
0000
,  // measure 35
0010
0100
1000
0010
,  // measure 36
0110
1000
0000
1010
0001
0010
0011
0001
,  // measure 37
0000
1000
0000
0100
0000
1100
1001
0000
,  // measure 38
0100
0000
0001
1000
0001
0000
0010
0100
,  // measure 39
1000
0000
0010
0100
0010
0000
1000
0000
,  // measure 40
0001
0000
1000
0100
0001
0000
0100
0010
,  // measure 41
0100
0000
0010
0001
0100
0000
0001
0000
,  // measure 42
1000
0000
0100
0010
0100
0000
1000
0010
,  // measure 43
0001
0000
0010
1000
0100
0000
0010
0000
,  // measure 44
0001
0000
0100
0010
0100
0000
1000
0100
,  // measure 45
0001
0000
0100
0001
0010
0000
0001
0000
,  // measure 46
1000
0000
0010
0100
0010
0000
1000
0001
,  // measure 47
0100
0000
0001
1000
0001
0000
0010
0000
,  // measure 48
0100
0000
1000
0010
0100
0000
0001
0010
,  // measure 49
1000
0000
0010
0001
0010
0000
0100
0000
,  // measure 50
1000
0000
0010
0100
0010
0000
0001
0010
,  // measure 51
1000
0000
0010
1000
0100
0000
0010
0000
,  // measure 52
0001
0000
0100
0001
0010
0000
1000
0010
,  // measure 53
0001
0000
0100
0001
0010
0000
0100
0000
,  // measure 54
0010
0001
0100
0010
1000
0000
0001
0100
,  // measure 55
0001
1000
0001
0010
0001
0100
0010
0000
,  // measure 56
1000
0100
0010
0001
0100
0000
0001
0010
,  // measure 57
0100
0010
0001
0010
0100
0000
1000
0000
,  // measure 58
0100
0010
0001
0100
0010
0000
1000
0001
,  // measure 59
0010
0100
1000
0010
0100
0001
1000
0000
,  // measure 60
0100
0010
0001
1000
0010
0000
2002
0000
,  // measure 61
0000
3003
1001
0000
1000
0100
1000
0000
,  // measure 62
0001
1000
0001
0000
0100
0010
0100
0000
,  // measure 63
0001
0000
1000
0000
0001
0010
0001
0000
,  // measure 64
0010
0100
0010
0000
0100
1000
0001
0000
,  // measure 65
0101
0000
0010
0000
0100
0001
0100
0000
,  // measure 66
0010
1000
0100
0000
1000
0001
1000
0000
,  // measure 67
0100
0000
0010
0000
0001
0010
0100
0000
,  // measure 68
1000
0001
1000
0000
0010
1000
0100
0000
,  // measure 69
1001
0000
0010
0000
0100
0010
1000
0000
,  // measure 70
0010
0100
0001
0000
1000
0100
0010
0000
,  // measure 71
0001
0000
1000
0000
0001
0010
0100
0000
,  // measure 72
1000
0010
1000
0000
0001
0100
0010
0000
,  // measure 73
1010
0000
0001
0000
1000
0100
0010
0000
,  // measure 74
0001
1000
0100
0000
0010
0100
1000
0000
,  // measure 75
0010
0110
1000
1001
,  // measure 76
0100
0000
0101
0000
1100
0000
0001
0010
,  // measure 77
0100
1000
0001
0000
0010
0001
1000
0010
,  // measure 78
0100
0000
0010
1000
0001
0100
0001
0000
,  // measure 79
1000
1001
0100
1100
,  // measure 80
0101
0000
0001
1000
0100
0010
0001
0000
,  // measure 81
0000
1100
0000
0000
1001
0000
0101
0000
,  // measure 82
0000
0110
0000
0000
1010
0000
0110
0000
,  // measure 83
0001
1000
0000
0000
0101
0000
0110
0000
,  // measure 84
1000
0001
0000
0000
1001
0000
1010
0000
,  // measure 85
0000
0110
0000
0000
1001
0000
0011
0000
,  // measure 86
0000
0110
0000
0000
1001
0000
1010
0000
,  // measure 87
0100
0010
0000
0000
1001
0000
0101
0000
,  // measure 88
0010
0100
0000
0000
1100
0000
2002
0000
,  // measure 89
0000
0000
0000
0000
,  // measure 90
0000
0000
0000
0000
,  // measure 91
0000
0000
0000
0000
,  // measure 92
0000
3003
0000
0000
0000
0000
0000
0000
0000
0000
0000
0000
0000
0000
0000
0000
0000
0000
0000
0000
0000
0000
0000
0000
0000
0000
0000
0000
0000
0000
0000
0000
0000
0000
0000
0000
0000
0000
0000
0000
0000
0000
0000
0000
0000
0000
0000
0000
0010
0000
0000
0000
0000
0000
0000
0000
0000
0000
0000
0000
0000
0000
0000
0000
0000
0000
0000
0000
0000
0000
0000
0000
0001
0000
0000
0000
0000
0000
0000
0000
0000
0000
0000
0000
0000
0000
0000
0000
0000
0000
0000
0000
0000
0000
0000
0000
0000
0000
0000
0000
0000
0000
0000
0000
0000
0000
0000
0000
0000
0000
0000
0000
0000
0000
0000
0000
0000
0000
0000
0000
0101
0000
0000
0000
0000
0000
0000
0000
0000
0000
0000
0000
0000
0000
0000
0000
0000
0000
0000
0000
0000
0000
0000
0000
0000
0000
0000
0000
0000
0000
0000
0000
0000
0000
0000
0000
0000
0000
0000
0000
0000
0000
0000
0000
0000
0000
0000
0000
0110
0000
0000
0000
0000
0000
0000
0000
0000
0000
0000
0000
0000
0000
0000
0000
0000
0000
0000
0000
0000
0000
0000
0000
,  // measure 93
0000
1010
0000
1000
0000
0100
0000
1000
,  // measure 94
0001
0100
0010
1000
0000
1100
0000
0110
,  // measure 95
0000
0011
0000
0001
0000
0100
0000
0001
,  // measure 96
0010
0100
1000
0010
0000
0101
0000
1100
,  // measure 97
0000
0101
0000
1000
0000
0001
0000
1000
,  // measure 98
0010
0100
0001
0010
0000
1100
0000
0101
,  // measure 99
0000
1100
0000
0001
0000
1000
0000
0001
,  // measure 100
0100
0010
1000
0100
0000
0010
0001
0010
,  // measure 101
0000
0100
1000
0100
0010
0100
1000
0100
,  // measure 102
0000
0010
0001
0100
0000
0001
0100
0010
,  // measure 103
0000
1000
0001
0100
0001
1000
0010
0100
,  // measure 104
0000
0001
0100
0010
0000
1000
0001
0100
,  // measure 105
0000
0010
1000
0100
0010
0001
1000
0010
,  // measure 106
0000
1000
1100
0000
0011
0000
0001
1000
,  // measure 107
0100
1000
0001
0010
0000
0000
0000
0000
0010
0000
0001
0000
0010
0000
0001
0000
,  // measure 108
1000
0010
0100
0001
1000
1000
0010
0100
,  // measure 109
0001
0010
0100
0010
0010
0001
0010
0100
,  // measure 110
1000
0010
0100
0001
1000
0010
0100
0001
,  // measure 111
1000
0010
0001
0001
0010
1000
1000
0100
,  // measure 112
0010
0001
0010
0100
1000
0001
0100
0010
,  // measure 113
1000
0100
0010
0001
1000
0100
0010
0001
,  // measure 114
1000
0001
1000
0000
0000
0000
0000
0000
,  // measure 115
0000
0000
0000
0000
,  // measure 116
0000
0000
0000
0000
,  // measure 117
0000
0000
0000
0000
,  // measure 118
0000
0000
0000
0000
,  // measure 119
0000
0000
0000
0000
,  // measure 120
0000
0000
0000
0000
,  // measure 121
0000
0000
0000
0000
0000
0000
0001
0010
,  // measure 122
0100
1000
0010
0100
0001
1000
0001
0100
,  // measure 123
0001
0010
0100
1000
0010
1000
0100
0010
,  // measure 124
0100
1000
0100
0010
0001
1000
0001
0010
,  // measure 125
0001
1000
0100
0010
0100
1000
0010
0100
,  // measure 126
0010
1000
0010
0100
0001
0100
0010
1000
,  // measure 127
0010
0100
0010
1000
0001
1000
0001
1000
,  // measure 128
0100
0010
0001
0010
0100
0010
0100
1000
,  // measure 129
0001
0100
0001
0100
0010
1000
0100
1000
,  // measure 130
0001
1000
0001
1000
0010
0100
0001
1000
,  // measure 131
0001
0100
0010
1000
0010
0100
0001
0010
,  // measure 132
0001
0100
0010
0100
0010
1000
0100
1000
,  // measure 133
0001
1000
0100
0010
0100
1000
0001
0100
,  // measure 134
0001
1000
0001
0010
0100
1000
0010
1000
,  // measure 135
0100
1000
0001
1000
0001
1000
0100
0010
,  // measure 136
0100
1000
0010
1000
0100
0010
0001
1000
,  // measure 137
0001
0100
0010
1000
0100
0000
1001
0000
,  // measure 138
0200
0020
0330
1001
,  // measure 139
0020
0200
0330
1001
,  // measure 140
0100
0101
1000
0110
,  // measure 141
1001
0000
0000
0000
0001
0000
1000
0000
0010
0000
1000
0000
0001
0010
0100
1000
,  // measure 142
0001
0000
1000
0010
0100
0001
2002
0000
,  // measure 143
0000
0000
0000
0000
,  // measure 144
0000
0000
0000
0000
,  // measure 145
0000
0000
0000
0000
,  // measure 146
0000
0000
0000
0000
,  // measure 147
0000
0000
0000
0000
,  // measure 148
0000
0000
0000
0000
,  // measure 149
0000
0000
0000
0000
,  // measure 150
0000
0000
0000
0000
,  // measure 151
0000
0000
0000
0000
,  // measure 152
0000
0000
0000
0000
,  // measure 153
0000
0000
0000
0000
,  // measure 154
0000
0000
0000
3003
;

//---------------dance-single - ----------------
#NOTES:
     dance-single:
     :
     Medium:
     9:
     0.704,1.000,0.674,0.236,0.004:
0000
0000
0000
0000
,
0000
0000
0000
0000
,
0000
0000
0000
0000
,
0000
0000
0000
0000
,
1001
0000
0101
0000
,
1100
0000
1001
0000
1000
0001
1000
0000
,
1001
0000
0011
0000
,
0101
0000
1100
0000
0100
1000
0100
0000
,
1001
1000
0100
1000
,
0010
0100
0001
0010
,
0100
1000
0001
1000
,
0010
0100
1000
0100
,
0010
0100
0001
0010
,
0100
1000
0001
1000
,
0100
0010
0001
1000
,
0001
0100
0010
1000
,
0100
0010
0001
1000
,
0001
0100
1000
0100
,
0010
1000
0100
0010
,
1000
0010
0001
1000
,
0100
0010
0100
1000
,
0010
0001
0010
1000
,
0100
0010
0001
1000
,
0100
0001
0100
1000
,
0001
0100
0010
0000
1000
0000
0100
0000
,
0010
0001
1000
0001
,
0010
0100
1000
0000
0001
0000
0100
0000
,
0010
1000
0100
0010
,
0001
1000
0100
0000
0010
0000
0001
0000
,
0100
0010
0100
0001
,
1000
0010
0100
0000
0001
0000
1000
0000
,
0100
0010
0001
1000
,
0100
0000
0100
1000
0001
0000
1000
0000
,
0010
0000
0100
0000
0100
0001
1000
0000
,
0100
0010
0001
1000
,
1001
0100
0000
0110
0010
0000
1001
0100
,
0000
0010
0000
0010
0000
1001
1000
0100
,
1000
0010
0100
0001
,
0010
0000
0100
0000
0000
0000
1000
0001
,
1000
0010
0100
0001
,
0010
0000
0100
0000
0000
0000
1000
0100
,
1000
0001
0100
0010
,
1000
0000
0100
0000
0000
0000
0010
0001
,
0010
0100
1000
0001
,
0100
0000
0010
0000
0000
0000
1000
0100
,
1000
0001
0100
0010
,
0100
0000
0001
0000
0000
0000
1000
0010
,
0100
0010
1000
0010
,
0100
0000
0010
0000
0000
0000
1000
0001
,
0100
0001
1000
0001
,
0100
0000
0001
0000
0000
0000
1000
0001
,
0010
0001
1000
0001
,
0100
0010
0000
1000
,
0100
1100
0100
2000
,
0000
0001
3000
0010
,
0100
0110
0100
0020
,
0000
0100
0030
0001
,
1000
1001
1000
0002
,
0000
0100
0003
0010
,
0100
0110
0100
0010
,
0000
1001
0000
0011
,
0000
1100
0000
1010
,
0000
0101
0000
1001
,
0000
0110
0000
1001
,
0000
0011
0000
0101
,
0000
1100
0000
1010
,
0000
0110
0000
1100
,
0000
0011
0000
1100
,
0000
1001
0000
0110
,
0000
1001
0000
0011
,
0000
1100
0000
0101
,
0000
0110
0000
1001
,
0000
1010
0000
0011
,
0000
0110
0000
1100
,
0000
0202
0303
0220
,
0330
0000
1100
0000
0110
0000
0010
0100
,
0010
0110
0000
0000
,
1001
0000
0000
1001
,
0000
0110
0000
0101
,
1100
0000
0100
1000
0100
0000
0120
0000
,
0000
0100
0000
0000
0130
0000
2000
0000
,
0000
0100
0000
0000
3100
0000
0020
0000
,
0000
0001
0000
0000
0031
0000
0200
0000
,
0000
0010
0000
0000
0310
0000
2000
0000
,
0000
0001
0000
0000
3001
0000
0200
0000
,
0000
0010
0000
0000
0310
0000
2000
0000
,
0000
0100
0000
0000
3100
0000
0020
0000
,
0000
0001
0000
0000
0031
0000
2002
0000
,
0000
0000
0000
0000
,
0000
0000
0000
0000
,
0000
0000
0000
0000
,
3003
0000
1001
0000
0000
0100
0000
0001
,
0000
0100
0000
0010
0000
0100
0000
0002
,
0000
0000
0013
0000
0000
0100
0000
1000
,
0000
0100
0000
0010
0000
0100
0000
2000
,
0000
0000
3001
0000
0000
0100
0000
0010
,
0000
1000
0000
0010
0000
0100
0000
0002
,
0000
0000
1003
0000
0000
0010
0000
1000
,
0000
0100
0000
0010
0000
0001
0000
2000
,
0000
0000
3001
0000
0000
0100
0000
0010
,
0000
0100
0000
0010
0000
1000
0000
0002
,
0000
0000
0013
0000
0000
0100
0000
1000
,
0000
0010
0000
1000
0000
0100
0000
0020
,
0000
0000
0031
0000
0000
1000
0000
0010
,
0000
0100
0000
0001
0000
1000
0000
0200
,
0000
0000
0310
0000
1001
0000
0100
0010
,
0100
0010
0100
0000
0001
0000
0000
0000
1100
0000
0000
0000
0000
0000
0000
0000
,
0110
0000
0001
0011
,
0000
1100
0000
1010
,
0000
1001
0000
1100
,
0000
0110
0000
0000
,
0011
0000
1001
0000
,
1010
0000
0110
0000
,
0101
0000
0000
0000
,
0000
0000
0000
0000
,
0000
0000
0000
0000
,
0000
0000
0000
0000
,
0000
0000
0000
0000
,
0000
0000
0000
0000
,
0000
0000
0000
0000
,
0000
0000
0000
1001
,
1000
0000
0010
1000
0010
0000
1000
0000
,
0001
0100
0001
1000
,
0001
0000
0010
0001
0010
0000
0001
0000
,
1000
0100
0010
0100
,
1000
0000
0001
0010
0001
0000
0010
0000
,
1000
0010
0001
0100
,
0010
0000
0100
0010
0100
0000
0001
0000
,
0100
0001
0000
1000
,
0001
1000
0001
1000
0001
0000
0010
0000
,
0100
1000
0001
0100
,
0010
0100
0010
0100
0010
0000
1000
0000
,
0001
1000
0001
0010
,
0100
0010
0100
0010
0100
0000
1000
0001
,
1000
0001
1000
0001
1000
0000
0010
0000
,
0100
0010
0100
0010
0100
0000
0001
0000
,
0010
0100
1000
0002
,
0000
0100
0000
2003
,
0000
0100
0000
3001
,
0000
1001
0000
0110
,
1010
0000
0010
1000
0010
0000
1010
0000
,
0000
0000
0001
1000
0001
1000
0200
0000
,
0000
0000
0000
0000
,
0000
0000
0000
0000
,
0000
0000
0000
0000
,
0000
0000
0000
0000
,
0000
0000
0000
0000
,
0000
0000
0000
0000
,
0000
0000
0000
0000
,
0000
0000
0000
0000
,
0000
0000
0000
0000
,
0000
0000
0000
0000
,
0000
0000
0000
0000
,
0000
0000
0000
0300
;

//---------------dance-single - ----------------
#NOTES:
     dance-single:
     :
     Easy:
     6:
     0.448,0.771,0.254,0.035,0.000:
0000
0000
0000
0000
,
0000
0000
0000
0000
,
0000
0000
0000
0000
,
0000
0000
0000
0000
,
1001
0000
0010
0000
,
0100
1000
0100
0000
,
1001
0000
0100
0000
,
0010
0001
0010
0000
,
0001
0000
0100
0000
,
0100
0010
0100
0000
,
0010
1000
0010
0000
,
1000
0001
1000
0000
,
0001
0000
0010
0000
,
0010
0100
0010
0000
,
0010
0001
1000
0000
,
1000
0010
0100
0000
,
0001
0000
1000
0000
,
0100
0010
0100
0000
,
0010
0001
0010
0000
,
0001
1000
0001
0000
,
1000
0000
0010
0000
,
0010
0100
0010
0000
,
0010
1000
0001
0000
,
0001
0010
0100
0000
,
1001
0000
0010
0000
,
0001
0000
0100
0000
,
0010
0000
1000
0000
,
0100
0000
1000
0000
,
0001
0000
0010
0000
,
0001
0000
0100
0000
,
0001
0000
1000
0000
,
0100
0000
0010
0000
,
1001
0000
0100
0100
1000
0000
0001
0000
,
0000
0000
1001
0000
0010
0010
0001
0000
,
1000
0000
1001
0100
,
0010
0010
0000
0100
0100
0000
0001
0001
,
0000
1000
0000
0001
0000
1000
1000
0000
,
0000
0100
0000
1000
,
0010
1000
0000
0001
,
0000
0010
0000
0100
,
1000
0001
1000
0100
,
0000
0010
0000
0001
,
0100
0010
0000
1000
,
0000
0001
0000
0001
,
0010
0100
1000
0010
,
0000
0010
0000
1000
,
0001
0100
0000
0010
,
0000
1000
0000
0100
,
0010
0100
1000
0001
,
0000
0100
0000
0010
,
0100
0001
0000
1000
,
0000
0010
0000
0010
,
1000
0001
0000
1001
,
0000
0010
0000
0001
,
1000
0001
1000
1001
,
0000
0010
0000
1000
,
0010
1000
0010
1010
,
0000
0010
0000
0100
,
0001
0100
0001
0101
,
0000
0100
0000
1001
,
0000
1000
0000
0010
,
0000
0100
0000
0001
,
0000
0100
0000
0010
,
0000
1000
0000
0001
,
0000
1000
0000
0010
,
0000
1000
0000
0010
,
0000
0100
0000
0001
,
0000
0100
0000
0001
,
0000
1000
0000
0010
,
1000
0001
0000
0001
,
1000
0010
0000
0010
,
1000
0001
0000
1001
,
0000
0001
0000
0010
,
0001
1000
0000
1000
,
0001
1001
0000
0110
,
0000
1000
0100
0010
,
0001
1001
0100
0000
,
1001
0100
0000
1001
,
0000
0010
0000
0100
,
0000
0001
1000
0001
,
0000
0010
0000
0001
,
0000
0010
0000
1000
,
0000
0100
0000
0001
,
0000
0010
0000
1000
,
0000
0010
0000
0001
,
0000
0100
0000
1000
,
0000
0010
0000
0001
,
0000
0100
0000
2002
,
0000
0000
0000
0000
,
0000
0000
0000
0000
,
0000
0000
0000
3003
,
0000
0100
0000
0000
,
0000
0000
0000
0000
,
0000
0100
0000
0000
,
0000
0000
0000
0000
,
0000
0100
0000
0000
,
0000
0000
0000
0000
,
0000
0100
0000
0000
,
0000
0000
0000
0000
,
0000
0001
0000
0100
,
0000
0001
0000
0001
,
0000
1000
0000
0010
,
0000
1000
0000
1000
,
0000
0001
0000
0010
,
0000
0100
0000
1000
,
0000
1001
0110
1001
,
1000
0001
0100
0000
,
0001
0000
0000
0000
1000
0001
0000
0000
,
0000
1000
0000
0000
0000
0000
0100
0000
,
0000
0010
0000
0100
,
0000
0000
0010
0000
0000
0001
0000
0000
,
1000
0000
1001
0000
,
0000
0110
0000
0000
,
1001
0000
0000
0000
,
0000
0000
0000
0000
,
0000
0000
0000
0000
,
0000
0000
0000
0000
,
0000
0000
0000
0000
,
0000
0000
0000
0000
,
0000
0000
0000
0000
,
0000
0000
0000
1000
,
0100
1000
0100
0010
,
0001
0010
0001
0100
,
0010
0100
0010
1000
,
0001
1000
0001
1000
,
0010
1000
0010
0100
,
0001
0100
0001
0010
,
0100
0010
0100
1000
,
0001
1000
0001
1001
,
0000
0010
0000
1000
,
0010
0100
0000
1001
,
0000
0010
0000
0001
,
0100
0010
0000
0110
,
0000
0001
0000
1000
,
0100
0001
0000
0110
,
0000
1000
0000
0001
,
0100
1000
0000
0100
,
0010
0100
0000
0100
,
0001
0100
0000
0010
,
1000
0010
0100
0001
,
0010
0100
1000
0001
,
0000
0100
0100
2002
,
0000
0000
0000
0000
,
0000
0000
0000
0000
,
0000
0000
0000
0000
,
0000
0000
0000
0000
,
0000
0000
0000
3003
;

//---------------dance-single - ----------------
#NOTES:
     dance-single:
     :
     Beginner:
     3:
     0.225,0.311,0.009,0.000,0.000:
0000
0000
0000
0000
,
0000
0000
0000
0000
,
0000
0000
0000
0000
,
0000
0000
0000
0000
,
0010
0000
0000
0000
,
0100
0000
0000
0000
,
1000
0000
0000
0000
,
0001
0000
0000
0000
,
0100
0000
0100
0000
,
0010
0000
0000
0000
,
1000
0000
1000
0000
,
0100
0000
0000
0000
,
0010
0000
0001
0000
,
0010
0000
0000
0000
,
0001
0000
0100
0000
,
0001
0000
0000
0000
,
0100
0000
0100
0000
,
0010
0000
0000
0000
,
1000
0000
1000
0000
,
0100
0000
0000
0000
,
0010
0000
0010
0000
,
0001
0000
0000
0000
,
1000
0000
0001
0000
,
1000
0000
0000
0000
,
0010
0000
0000
0000
,
1000
0000
0100
0000
,
0010
0000
0000
0000
,
0001
0000
0100
0000
,
0010
0000
0000
0000
,
1000
0000
0001
0000
,
0010
0000
0000
0000
,
0100
0000
1000
0000
,
0001
0000
0000
0000
,
0000
0010
0000
0000
,
0000
0000
0100
0000
,
0000
0000
0000
0000
,
0000
0000
0000
0000
,
0000
0001
0000
0000
,
0000
0100
0000
0000
,
0000
1000
0000
0010
,
0000
1000
0000
0000
,
0000
0010
0000
0000
,
0000
0001
0000
0000
,
0000
1000
0000
0001
,
0000
1000
0000
0000
,
0000
0100
0000
0000
,
0000
0010
0000
0000
,
0000
0001
0000
1000
,
0000
0001
0000
0000
,
0000
0010
0000
0000
,
0000
0100
0000
0000
,
0000
1000
0000
0001
,
0000
1000
0000
0000
,
0000
0000
0000
0010
,
0000
0100
0000
0010
,
0000
0000
0000
1000
,
0000
0001
0000
1000
,
0000
0000
0000
0100
,
0000
0010
0000
0100
,
0000
0000
0000
0010
,
0000
0001
0000
0000
,
0000
1000
0000
0000
,
0000
0100
0000
0000
,
0000
0010
0000
0000
,
0000
0001
0000
0000
,
0000
0100
0000
0000
,
0000
0010
0000
0000
,
0000
1000
0000
0000
,
0000
0100
0000
0000
,
0000
0010
0000
0000
,
0000
0001
0000
0000
,
0000
1000
0000
0000
,
0000
0010
0000
0000
,
0000
0100
0000
0000
,
0000
0010
0000
0000
,
0000
1000
0000
0000
,
0000
0001
0000
0000
,
0010
0000
0000
0100
,
0000
0100
0000
1000
,
0000
0001
0000
1000
,
0000
1000
0000
0010
,
0000
0010
0000
0001
,
0000
0001
0000
0100
,
0000
0100
0000
0001
,
0000
0001
0000
0010
,
0000
0010
0000
1000
,
0000
1000
0000
0100
,
0000
0100
0000
0010
,
0000
0000
0000
0000
,
0000
0000
0000
0000
,
0000
0000
0000
0000
,
0000
0000
0000
0000
,
0000
0100
0000
0000
,
0000
0100
0000
0000
,
0000
0100
0000
0000
,
0000
0100
0000
0000
,
0000
0100
0000
0000
,
0000
0100
0000
0000
,
0000
0100
0000
0000
,
0000
1000
0000
0100
,
0000
0001
0000
0010
,
0000
0001
0000
0100
,
0000
1000
0000
0010
,
0000
1000
0000
0100
,
0000
0001
0000
0010
,
0000
0001
0000
0000
,
0000
0100
0000
0000
,
0000
0000
1000
0000
,
0000
0000
0000
0000
,
0000
0000
0000
0000
,
0000
0000
0000
0000
,
0000
0000
0010
0000
,
0010
0000
0010
0000
,
0010
0000
0000
0000
,
0000
0000
0000
0000
,
0000
0000
0000
0000
,
0000
0000
0000
0000
,
0000
0000
0000
0000
,
0000
0000
0000
0000
,
0000
0000
0000
0000
,
0000
0000
0000
1000
,
0000
1000
0000
1000
,
0000
0100
0000
0001
,
0000
0001
0000
0001
,
0000
0100
0000
0010
,
0000
1000
0000
0100
,
0000
0010
0000
0001
,
0000
1000
0000
0001
,
0000
0010
0000
0100
,
0000
1000
0000
0010
,
0000
0001
0000
0100
,
0000
0001
0000
0010
,
0000
0100
0000
1000
,
0000
0010
0000
0001
,
0000
1000
0000
0100
,
0000
0001
0000
0010
,
0000
0100
0000
1000
,
0000
0000
0000
0001
,
0000
0000
0000
0010
,
0000
0010
0000
0100
,
0000
0100
0000
0010
,
0000
0100
0000
0000
,
1001
0000
0000
0000
;

//---------------dance-double - ----------------
#NOTES:
     dance-double:
     :
     Hard:
     11:
     1.000,1.000,0.490,0.692,0.131:
00000000
00000000
00000000
00000000
,
00000000
00000000
00000000
00000000
,
00000000
00000000
00000000
00000000
,
00000000
00000000
00000000
00000000
,
00200000
00000000
10000000
00300000
01010000
00000000
00100000
00000000
,
00011000
00000000
00101000
00000000
00010000
00000010
00000100
00000001
,
00000020
00000000
00000001
00000030
00001100
00000000
00000010
00000000
,
00011000
00000000
00101000
00000000
00010000
01000000
00100000
10000000
,
01000000
00000000
10000000
00000000
00100000
10000000
00000000
10000000
,
00010000
00000000
00100000
00000000
00001000
00010000
00000000
00010000
,
01000000
00000000
00010000
00000000
00001000
00000100
00000000
00000100
,
00000010
00000000
00000000
00000000
00001000
00000000
00000000
00000000
00000100
00000000
00000000
00000000
00001000
00000100
00001000
00000100
,
00000010
00000000
00000001
00000000
00000100
00000001
00000000
00000001
,
00001000
00000000
00000010
00000000
00010000
00001000
00000000
00001000
,
00000010
00000000
00001000
00000000
00010000
01000000
00000000
01000000
,
00100000
00000000
00000000
00000000
00010000
00000000
00000000
00000000
01000000
00000000
00000000
00000000
00010000
01000000
00010000
01000000
,
00100000
00000000
10000000
00000000
01000000
10000000
01000000
00100000
,
01000000
00000000
00100000
00000000
00010000
00000000
10000000
00010000
,
11000000
00000000
00100000
00000000
00001000
00010000
00000000
00010000
,
01000000
00000000
00000000
00000000
00010000
00000000
00000000
00000000
00001000
00000000
00000000
00000000
00000010
00000001
00000010
00000001
,
00001000
00000000
00000001
00000000
00000010
00000001
00000010
00000100
,
00000010
00000000
00000100
00000000
00001000
00000000
00000001
00001000
,
00000101
00000000
00000010
00000000
00010000
00001000
00000000
00001000
,
00000100
00000000
00000000
00000000
00001000
00000000
00000000
00000000
00010000
00000000
00000000
00000000
00100000
10000000
00100000
10000000
,
00010000
00100000
01000000
10000000
00010000
00100000
01000000
10000000
,
00010000
00100000
01000000
00100000
00001000
00010000
00000100
00000000
,
00001000
00000100
00000010
00000001
00001000
00000100
00000010
00000001
,
00001000
00000100
00000010
00000100
00010000
00001000
00100000
00000000
,
00010000
01000000
00100000
10000000
00010000
01000000
00100000
10000000
,
00010000
01000000
00100000
01000000
00001000
00010000
00000100
00000000
,
00001000
00000010
00000100
00000001
00001000
00000010
00000100
00000001
,
00001000
00000010
00000100
00000010
00010000
00001000
01000000
00000000
,
00100000
00000000
01100000
10010000
00100000
00001000
00010000
00001000
,
00010000
00000010
00000100
00000000
00000110
00001001
00000100
00001000
,
00000100
00010000
00001000
00000000
00011000
00000000
00011000
00000000
,
00011000
00000100
00000010
00000100
01000000
00100000
01000000
00001000
,
00010000
00000010
00010000
00001000
00100000
00001000
00020000
00000000
,
00030020
00000230
00002300
00003002
,
00000023
00000000
00020030
00000000
00130000
00010000
00002000
00000000
,
00003020
00000032
00002003
00003020
,
00020030
00000000
00000000
00000000
02030000
00000000
00000000
00000000
03100000
00010000
00100000
00010000
20000000
00000000
00000000
00000000
,
32000000
03020000
00032000
00003020
,
00000230
00000000
00020300
00000000
00031000
00000010
00000002
00000000
,
00000203
00002300
00003002
00000023
,
00020030
00000000
00000000
00000000
00032000
00000000
00000000
00000000
00003010
00000001
00000010
00000001
00000200
00000000
00000000
00000000
,
00000320
00020030
00032000
02003000
,
03200000
00000000
00320000
00000000
00130000
10000000
00200000
00000000
,
02300000
03002000
00023000
00030020
,
00000230
00000000
00000000
00000000
00002300
00000000
00000000
00000000
00003100
00000001
00000100
00000001
00002000
00000000
00000000
00000000
,
00003020
00020030
00032000
02003000
,
03002000
00000000
00023000
00000000
00130000
10000000
00020000
00000000
,
00230000
00302000
00023000
00030020
,
00020030
00000000
00000000
00000000
00032000
00000000
00000000
00000000
00003010
00000001
00000010
00000001
00000100
00000000
00000000
00000000
,
00000001
00000010
00001000
00000010
00000001
00000000
00000100
00000010
,
00001000
00000010
00010000
00001000
01000000
00010000
01000000
00000000
,
00010000
00100000
10000000
00100000
00010000
00000000
01000000
00100000
,
10000000
00100000
01000000
00010000
00100000
00000000
10010000
00000000
,
10000000
00100000
00010000
00001000
00010000
00000000
00100000
01000000
,
00010000
10000000
01000000
00010000
00001000
00000010
00000001
00000000
,
00000001
00000100
00001000
00010000
00001000
00000000
00000200
00000000
,
00000000
00000300
00001001
00000000
00000000
00000010
00000000
00000010
,
00010000
00000000
00001100
00000000
00000000
00010000
00000000
00010000
,
00100000
00000000
10010000
00000000
00000000
01000000
00000000
01000000
,
00010000
00000000
00101000
00000000
00000000
00010000
00000000
00010000
,
01000000
00000000
10010000
00000000
00000000
01000000
00000000
01000000
,
00001000
00000000
00110000
00000000
00000000
00001000
00000000
00001000
,
00000100
00000000
00001001
00000000
00000000
00000010
00000000
00000010
,
00001000
00000000
00010100
00000000
00000000
00001000
00000000
00001000
,
00000010
00000000
00001001
00000000
00000001
00000100
00000000
00000100
,
00000010
00000000
00010000
00000000
00001000
00000010
00000000
00000010
,
00001000
00000000
00010000
00000000
01000000
00100000
00000000
00100000
,
00010000
00000000
01000000
00000000
10000000
01000000
00000000
01000000
,
00010000
00000000
10010000
00000000
10000000
00100000
00000000
00100000
,
01000000
00000000
00001000
00000000
00010000
00100000
00000000
00100000
,
00010000
00011000
00010000
00010100
,
00000100
00000000
00001100
00000000
00010100
00000000
00010000
00001000
,
01000000
00001000
00010000
00000000
00001000
00010000
00000010
00010000
,
00001000
00000000
00010000
00001000
00010000
00000000
00011000
00000000
,
00001000
00101000
00100000
00110000
,
00101000
00000000
00001000
00010000
00000100
00010000
00002000
00000000
,
00000000
00000010
00003000
00000000
00001000
00000000
00020000
00000000
,
00000000
00100000
00030000
00000000
00010000
00000000
00002000
00000000
,
00000000
00000100
00003000
00000000
00001000
00000000
00020000
00000000
,
00000000
00000000
01000000
00000000
00030000
00000000
00000000
00000000
00010000
00001000
00010000
00001000
00020000
00000000
00000000
00000000
,
00000000
00000001
00030000
00000000
00010000
00000000
00002000
00000000
,
00000000
10000000
00003000
00000000
00010000
00000000
00000020
00000000
,
00000000
00100000
00000030
00000000
00001000
00000000
02000000
00000000
,
00000000
00000100
03000000
00000000
00010000
00000000
00022000
00000000
,
00000000
00000000
00000000
00000000
,
00000000
00000000
00000000
00000000
,
00000000
00000000
00000000
00000000
,
00000000
00033000
00000000
00000000
00000010
00000000
00000200
00000000
00000000
00000000
00000001
00000000
00000000
00000000
00000010
00000000
,
00000000
00000301
00000000
00000010
00000000
00001000
00000000
00010000
,
00100000
01000000
00000000
00200000
00000000
10000000
00000000
01000000
,
00000000
10300000
00000000
00100000
00000000
00010000
00000000
00001000
,
00000010
00000100
00000000
00000020
00000000
00000001
00000000
00000100
,
00000000
00000031
00000000
00000100
00000000
00001000
00000000
00010000
,
01000000
00100000
00000000
02000000
00000000
10000000
00000000
00100000
,
00000000
13000000
00000000
00100000
00000000
00010000
00000000
00001000
,
00000010
00000011
00000000
00001100
,
00000000
00110000
00000000
11000000
,
00000000
10100000
00000000
01010000
,
00000000
00001010
00000000
00000101
,
00000000
00001001
00000000
00011000
,
00000000
10010000
00000000
00011000
,
00000000
00000000
01010000
00000000
00001100
00000000
00010000
00001000
,
00010000
00001000
00000010
00000001
00000000
00000000
00000000
00000000
00000001
00000000
00000100
00000000
00000001
00000000
00000100
00000000
,
00000010
00001000
00000100
00010000
00001000
10000000
00100000
01000000
,
00010000
00100000
01000000
00100000
00000010
00000100
00000001
00001000
,
00000001
00000100
00000010
00001000
00000100
00010000
00001000
01000000
,
00001000
00010000
00000100
01000000
00010000
10000000
00001000
00010000
,
00000100
00001000
00000010
00000100
00000001
00000010
00000100
00001000
,
00000010
00010000
00001000
01000000
00100000
10000000
01000000
00100000
,
00010000
01000000
00100000
00000000
00000000
00000000
00000000
00000000
,
00000000
00000000
00000000
00000000
,
00000000
00000000
00000000
00000000
,
00000000
00000000
00000000
00000000
,
00000000
00000000
00000000
00000000
,
00000000
00000000
00000000
00000000
,
00000000
00000000
00000000
00000000
,
00000000
00000000
00000000
00000000
00000000
00000000
00000001
00000010
,
00000100
00000010
00000001
00000010
00000100
00000010
00000001
00000100
,
00000010
00000100
00000001
00000100
00000010
00000100
00000001
00001000
,
00000010
00001000
00000001
00000100
00000001
00001000
00000100
00010000
,
00000100
00010000
00001000
00100000
00001000
00100000
00010000
01000000
,
00100000
01000000
00010000
01000000
00100000
01000000
00010000
00100000
,
01000000
00100000
00010000
00100000
01000000
00100000
00010000
10000000
,
01000000
10000000
00010000
01000000
00010000
10000000
00100000
01000000
,
00100000
01000000
00001000
00010000
00001000
00010000
00000010
00000000
,
00000100
00000001
00000100
00000001
00000100
00000000
00000010
00000000
00001000
00000000
00000000
00000000
00000001
00000000
00000010
00000000
,
00000100
00010000
00001000
01000000
00100000
10000000
00010000
00000000
,
01000000
00010000
01000000
00010000
01000000
00000000
00100000
00000000
10000000
00000000
00000000
00000000
00010000
00000000
01000000
00000000
,
00100000
01000000
00001000
00010000
00000010
00001000
00000100
00000000
,
00000010
00000100
00000010
00000100
00000010
00000000
00000001
00000000
00001000
00000000
00000000
00000000
00000010
00000000
00000100
00000000
,
00000001
00000010
00000100
00010000
00001000
00100000
00010000
00000000
,
01000000
00100000
01000000
00100000
01000000
00000000
00010000
00000000
10000000
00000000
00000000
00000000
01000000
00000000
00100000
00000000
,
00010000
01000000
00001000
00010000
00000010
00000000
00001001
00000000
,
00000020
00000200
00000330
00001001
,
00000200
00000020
00000330
00001010
,
00000100
00000011
00000100
00001001
,
00000110
00000000
00000000
00000000
00000001
00000000
00000010
00000000
00000100
00000000
00001000
00000000
00000010
00000100
00000010
00000100
,
00000010
00000000
00010000
00001000
01000000
00100000
20020000
00000000
,
00000000
00000000
00000000
00000000
,
00000000
00000000
00000000
00000000
,
00000000
00000000
00000000
00000000
,
00000000
00000000
00000000
00000000
,
00000000
00000000
00000000
00000000
,
00000000
00000000
00000000
00000000
,
00000000
00000000
00000000
00000000
,
00000000
00000000
00000000
30030000
;

//---------------dance-double - Blank----------------
#NOTES:
     dance-double:
     Blank:
     Medium:
     9:
     0.792,1.000,0.928,0.657,0.000:
00000000
00000000
00000000
00000000
,
00000000
00000000
00000000
00000000
,
00000000
00000000
00000000
00000000
,
00000000
00000000
00000000
00000000
,
00000010
00000001
00000010
00000001
,
00010000
00000000
00001000
00000000
20000000
00000000
30100000
01000000
,
00100000
10000000
00100000
10000000
,
00001000
00000000
00010000
00000000
00000002
00000000
00000013
00000100
,
00000010
00000011
00000000
00000101
,
00000000
00001010
00000000
00010010
,
00000000
00000101
00000000
00010010
,
00000000
00011000
00001000
00200000
,
00300000
11000000
00000000
10100000
,
00000000
01010000
00000000
01001000
,
00000000
10100000
00000000
01001000
,
00000000
00011000
00010000
00000200
,
00000300
00000011
00000000
00011000
,
00000000
11000000
00000000
00011000
,
00000000
00000101
00000000
00011000
,
00000000
10100000
10000000
00020000
,
00030000
01100000
00000000
00011000
,
00000000
00000110
00000000
00011000
,
00000000
10010000
00000000
00011000
,
00000000
00001001
00000001
00002000
,
00003010
00000100
00000001
00000100
,
00000010
00001000
00000010
00000100
,
00000001
00001000
00000010
00001000
,
00000001
00010000
00001000
00002000
,
01003000
00100000
10000000
00100000
,
01000000
00010000
01000000
00100000
,
10000000
00010000
01000000
00010000
,
10000000
00001000
00010000
00020000
,
00031000
00000000
00011000
00000010
00000100
00000000
00010000
00000000
,
00010000
00000000
00001000
00000000
00011000
00100000
01000000
00000000
,
00001000
00001000
00011000
00011000
,
00011000
01000000
00000000
01000000
00000100
00000000
00000100
00010000
,
00001000
00100000
00000010
00010000
00001000
01000000
00020000
00000000
,
00230000
00320000
00230000
02300000
,
23000000
32000000
23000000
30020000
,
02030000
03020000
02030000
03200000
,
00320000
00032000
00003200
00000302
,
00000023
00000032
00000023
00000230
,
00002300
00003200
00002300
00003002
,
00000203
00000302
00000203
00000320
,
00002030
00023000
02030000
23000000
,
30020000
20030000
30020000
00032000
,
00003002
00002003
00003002
00000203
,
00000320
00000230
00000320
00002030
,
00003200
00000000
00000320
00000000
00000031
00001000
00000002
00000000
,
00002003
00003002
00002003
00023000
,
20030000
30020000
20030000
30200000
,
02300000
03200000
02300000
03020000
,
00230000
00000000
02300000
00000000
13000000
00010000
10000000
00000000
,
01000000
10000000
01000000
00100000
00010000
00000000
00100000
00000000
,
00001000
00000010
00000010
00000001
,
00000100
00000001
00000100
00000010
00001000
00000000
00000010
00000000
,
00010000
00100000
10000000
00010000
,
00100000
01000000
00100000
00010000
10000000
00000000
01000000
00000000
,
00100000
00001000
00000010
00000100
,
00000100
00000010
00000100
00001000
00000001
00000000
00002000
00000000
,
00000000
00003000
00000101
00000000
00000000
00000000
00000101
00000000
,
00000000
00010100
00000000
00010100
,
00000000
00000101
00000000
00010100
,
00000000
00000101
00000000
00011000
,
00000000
11000000
00000000
11000000
,
00000000
01001000
00000000
01001000
,
00000000
11000000
00000000
01001000
,
00000000
11000000
00000000
00011000
,
00000000
00000011
00000000
00000011
,
00000000
00010010
00000000
00010010
,
00000000
00000011
00000000
00010010
,
00000000
00000011
00000000
00011000
,
00000000
10100000
00000000
10100000
,
00000000
00101000
00000000
00101000
,
00000000
10100000
00000000
00101000
,
00000000
00000000
00011000
00000000
00001000
00000000
00010000
00001000
,
00010000
00001000
01000000
00000000
00001000
00010000
00001000
00010000
,
00000100
00000000
00010000
00001000
00010000
00000000
00011000
00000000
,
00000000
00101000
00000000
00011000
,
00010000
00000000
00000010
00001000
00000010
00001000
00000010
00000000
,
00000000
00000100
00000000
00000000
00000001
00000000
00000010
00000000
,
00000000
00000100
00000000
00000000
00010000
00000000
00011000
00000000
,
00000000
00001100
00000000
00000000
00010100
00000000
00011000
00000000
,
00000000
01010000
00000000
00000000
01001000
00000000
01000000
00000000
,
00000000
00100000
00000000
00000000
10000000
00000000
01000000
00000000
,
00000000
00100000
00000000
00000000
00001000
00000000
00011000
00000000
,
00000000
00110000
00000000
00000000
00101000
00000000
00011000
00000000
,
00000000
00001010
00000000
00000000
00010010
00000000
00000020
00000000
,
00000000
00000000
00000000
00000000
,
00000000
00000000
00000000
00000000
,
00000000
00000000
00000000
00000000
,
00000030
00000000
00001000
00000100
00000000
00010000
00000000
00010000
,
00000000
00001000
00000000
00001000
00000000
00010000
00000000
00010000
,
00000000
00000000
00010000
01000000
00000000
00001000
00000000
00001000
,
00000000
00010000
00000000
00010000
00000000
00001000
00000000
00001000
,
00000000
00000000
00001000
00000010
00000000
00010000
00000000
00010000
,
00000000
00001000
00000000
00001000
00000000
00010000
00000000
00010000
,
00000000
00000000
00010000
00100000
00000000
00001000
00000000
00001000
,
00000000
00010000
00000000
00010000
00000000
00001000
00000000
00001000
,
00000000
00011000
00000000
00001010
,
00000000
00011000
00000000
00110000
,
00000000
00011000
00000000
00001100
,
00000000
00011000
00000000
01010000
,
00000000
00011000
00000000
00001001
,
00000000
00011000
00000000
10010000
,
00000000
00000000
00011000
00000000
00011000
00000000
00100000
00001000
,
00010000
00000010
00000000
00000000
00001000
00000000
00000001
00000000
,
00000100
00000000
00000010
00000000
00001001
00000100
00000000
00000010
,
00000000
00010000
00000000
00001000
00001000
00000000
00010000
00000000
,
00000000
00011000
00000000
00010000
,
10000000
00000000
00100000
00000000
00000000
01100000
00000000
00000000
,
10010000
00000000
01010000
00000000
,
00000000
00001100
00000000
00000000
,
00011000
00000000
00000000
00000000
,
00000000
00000000
00000000
00000000
,
00000000
00000000
00000000
00000000
,
00000000
00000000
00000000
00000000
,
00000000
00000000
00000000
00000000
,
00000000
00000000
00000000
00000000
,
00000000
00000000
00000000
00000000
,
00000000
00000000
00000000
10000000
,
01000000
00010000
01000000
10000000
,
01000000
00010000
01000000
00100000
,
00001000
00010000
00000010
00010000
,
00001000
00000010
00000010
00000001
,
00000100
00001000
00000100
00000001
,
00000100
00001000
00000100
00000010
,
00010000
00001000
00100000
00001000
,
00010000
00100000
00100000
10100000
,
00100000
01000000
00100000
01000000
00100000
00000000
10000000
00000000
,
00001000
00010000
00000001
00000011
,
00000010
00000100
00000010
00000100
00000010
00000000
00000100
00000000
,
00010000
00001000
01000000
00011000
,
00010000
00001000
00010000
00001000
00010000
00000000
00000010
00000000
,
00010000
00001000
00100000
00011000
,
00001000
00010000
00001000
00010000
00001000
00000000
01000000
00000000
,
00001000
00010000
00000100
00002000
,
00000000
00000000
00003000
00000002
,
00000000
00000000
00000003
00001001
,
00000000
00000110
00000000
00000001
,
00001000
00000000
00000001
00000010
00000100
00001000
00000001
00000000
,
00000000
00000000
10000000
00100000
01000000
00010000
20000000
00000000
,
00000000
00000000
00000000
00000000
,
00000000
00000000
00000000
00000000
,
00000000
00000000
00000000
00000000
,
00000000
00000000
00000000
00000000
,
00000000
00000000
00000000
00000000
,
00000000
00000000
00000000
00000000
,
00000000
00000000
00000000
00000000
,
00000000
00000000
00000000
30000000
;

//---------------dance-double - Blank----------------
#NOTES:
     dance-double:
     Blank:
     Easy:
     6:
     0.477,0.721,0.324,0.105,0.000:
00000000
00000000
00000000
00000000
,
00000000
00000000
00000000
00000000
,
00000000
00000000
00000000
00000000
,
00000000
00000000
00000000
00000000
,
01100000
00000000
01100000
00000000
,
01000000
00001000
00010000
00000100
,
00000110
00000000
00000110
00000000
,
00000010
00010000
00001000
00100000
,
01000000
00000000
01000000
00000000
,
00100000
00000000
00100000
00000000
,
00000010
00000000
00000010
00000000
,
00000100
00000000
00000100
00000000
,
00000001
00000000
00000001
00000000
,
00001000
00000000
00001000
00000000
,
00010000
00000000
00010000
00000000
,
10000000
00000000
10000000
00000000
,
00100000
00000000
00100000
00000000
,
01000000
00000000
01000000
00000000
,
00000100
00000000
00000100
00000000
,
00000010
00000000
00000010
00000000
,
00000001
00000000
00000001
00000000
,
00010000
00000000
00010000
00000000
,
00001000
00000000
00001000
00000000
,
10000000
00000000
10000000
00000000
,
00010000
00100000
00010000
00100000
,
00001000
00010000
00001000
00010000
,
00000010
00001000
00000010
00001000
,
00000001
00000010
00000100
00000200
,
00001300
00000010
00001000
00000010
,
00010000
00001000
00010000
00001000
,
00100000
00010000
00100000
00010000
,
10000000
00100000
01000000
02000000
,
03010000
00000000
10000000
10000000
10000000
00000000
01000000
00000000
,
00100000
00000000
00001000
00000000
00010000
00010000
00010000
00000000
,
00001000
00010000
00000010
00000010
,
00000010
00000100
00000000
00000100
00000010
00000000
00000010
00001000
,
00000000
00000001
00000000
00001000
00000000
00000001
00000010
00000000
,
00000002
00000000
00000010
00000000
,
00001000
00000000
00000010
00000000
,
00000100
00000000
00001000
00000000
,
00000103
00000010
00001000
00000100
,
00002000
00000000
00000100
00000000
,
00000001
00000000
00000100
00000000
,
00000010
00000000
00000001
00000000
,
00003010
00010000
00001000
00100000
,
00020000
00000000
00100000
00000000
,
10000000
00000000
00100000
00000000
,
01000000
00000000
10000000
00000000
,
01030000
00100000
01000000
00010000
,
20000000
00000000
01000000
00000000
,
00010000
00000000
01000000
00000000
,
00100000
00000000
00010000
00000000
,
30100000
10000000
00010000
10010000
,
00000000
01000000
00000000
00011000
,
00000000
00110000
00000000
00011000
,
00000000
00000100
00000000
00001001
,
00000000
00000110
00000000
00001001
,
00000000
00000100
00000000
00011000
,
00000000
00001010
00000000
00011000
,
00000000
01000000
00000000
00200000
,
00000000
00300000
10000000
00000000
00000000
00000000
01000000
00000000
,
10000000
00100000
00000000
01000000
,
00010000
00100000
00000000
00100000
,
00001000
00010000
00000000
00000010
,
00000000
00001000
00000000
00000010
,
00001000
00000100
00000000
00000010
,
00000001
00000100
00000000
00000100
,
00000010
00010000
00000000
00001000
,
00000000
01000000
00000000
00100000
,
01000000
00010000
00000000
00100000
,
01000000
10000000
00000000
00100000
,
10000000
00010000
00000000
00001000
,
00000000
00000001
00000000
00000010
,
00000100
00001000
00000000
00000010
,
00000100
00000001
00000000
00000001
,
00000000
00001000
00000010
00000100
,
00000001
00001000
01000000
10000000
,
00010000
00000100
00000001
00001000
,
00000000
00001001
00000000
00000010
,
00001000
00000100
00000100
00000010
,
00000000
00011000
00000000
00000100
,
00000000
00011000
00000000
00100000
,
00000000
00011000
00000000
01000000
,
00000000
00011000
00000000
00000100
,
00000000
00011000
00000000
00000010
,
00000000
00011000
00000000
01000000
,
00000000
00011000
00000000
00100000
,
00000000
00011000
00000000
00002000
,
00000000
00000000
00000000
00000000
,
00000000
00000000
00000000
00000000
,
00000000
00000000
00000000
00000000
,
00003000
00100000
00000000
00000000
,
00000000
00000000
00000000
00000000
,
00000000
00000100
00000000
00000000
,
00000000
00000000
00000000
00000000
,
00000000
01000000
00000000
00000000
,
00000000
00000000
00000000
00000000
,
00000000
00000010
00000000
00000000
,
00000000
00000000
00000000
00000000
,
00000000
00000100
00000000
00000100
,
00000000
00000100
00000000
00000100
,
00000000
00000010
00000000
00000010
,
00000000
00000010
00000000
00000010
,
00000000
00001000
00000000
00000001
,
00000000
00001000
00000000
00000001
,
00000000
00000000
00000110
00000000
00000110
00000000
00000001
00000010
,
00000100
00010000
00000000
00000000
00001000
00000000
00000000
00000000
,
00100000
00000000
00000000
00000000
10010000
01000000
00000000
00000000
,
00000000
10010000
00000000
00000000
00000000
00000000
01100000
00000000
,
00000000
10010000
00000000
01000000
,
00000000
00000000
00001000
00000000
00000000
00011000
00000000
00000000
,
00010000
00000000
01000000
00000000
,
00000000
01000000
00000000
00000000
,
01000000
00000000
00000000
00000000
,
00000000
00000000
00000000
00000000
,
00000000
00000000
00000000
00000000
,
00000000
00000000
00000000
00000000
,
00000000
00000000
00000000
00000000
,
00000000
00000000
00000000
00000000
,
00000000
00000000
00000000
00000000
,
00000000
00000000
00000000
00100000
,
01000000
00100000
01000000
10000000
,
00010000
10000000
00010000
01000000
,
00100000
01000000
00100000
10000000
,
01000000
00100000
00001000
00000010
,
00000100
00000010
00000100
00001000
,
00000001
00001000
00000001
00000100
,
00000010
00000100
00000010
00001000
,
00000001
00000100
00000010
00010000
,
00000000
00010010
00000000
00010000
,
00000100
00010000
00001000
01000000
,
00000000
01001000
00000000
00001000
,
00010000
00100000
01000000
00010000
,
00000000
01010000
00000000
00010000
,
00001000
00000100
00000010
00001000
,
00000000
00001010
00000000
00000100
,
00010000
00001000
01000000
00002000
,
00000000
00000000
00003000
00020000
,
00000000
00000000
00030000
00011000
,
00000000
00011000
00000000
00000100
,
00000010
00000001
00000100
00000010
,
00000000
00000100
00000100
00002002
,
00000000
00000000
00000000
00000000
,
00000000
00000000
00000000
00000000
,
00000000
00000000
00000000
00000000
,
00000000
00000000
00000000
00000000
,
00000000
00000000
00000000
00000000
,
00000000
00000000
00000000
00000000
,
00000000
00000000
00000000
00000000
,
00000000
00000000
00000000
00003003
;
