#TITLE:Destroy Everything You Touch;
#SUBTITLE:[ANOTHER];
#ARTIST:Ladytron;
#TITLETRANSLIT:;
#SUBTITLETRANSLIT:;
#ARTISTTRANSLIT:;
#GENRE:;
#CREDIT:;
#MENUCOLOR:;
#METERTYPE:DDR;
#BANNER:Destroy Everything You Touch [A]-bn.png;
#BACKGROUND:Destroy Everything You Touch [A]-bg.png;
#LYRICSPATH:;
#CDTITLE:currentcdtitle.png;
#MUSIC:Destroy Everything You Touch [A].mp3;
#OFFSET:-0.206;
#SAMPLESTART:84.680;
#SAMPLELENGTH:12.000;
#SELECTABLE:YES;
#LISTSORT:;
#BPMS:0.000=67.518,8.000=135.035;
#STOPS:;
#BGCHANGES:;
#ATTACKS:;

//---------------dance-single - ----------------
#NOTES:
     dance-single:
     :
     Challenge:
     9:
     0.614,0.607,0.136,0.179,0.132:
0000
0000
0000
0000
,
0000
0000
0000
0000
,
0010
1000
0010
0100
0001
0100
0010
1000
,
0100
0010
0001
0010
0100
1000
0001
0100
,
0010
1000
0001
0010
1000
0010
0100
1000
,
0001
0100
0001
0010
0100
1000
0010
0000
,
0001
1000
0010
0001
0010
1000
0100
1000
,
0001
0100
0001
1000
0100
0010
0001
1000
,
0010
1000
0001
0100
0010
1000
0100
0010
,
0001
1000
0001
0010
0100
1000
0010
0000
,
0001
0000
0010
0000
1000
0000
0010
0100
0001
0000
0010
0000
0100
0000
1000
0000
,
0001
0000
0100
0000
0010
0000
1000
0100
0001
0000
0010
0000
0100
0000
0000
0000
,
1000
0000
0010
0000
0001
0000
0010
1000
0100
0000
0001
0000
1000
0000
0100
0000
,
0010
0000
0001
0000
0100
0000
1000
0001
0100
0000
0010
0000
1000
0000
0100
0000
,
1000
0001
0200
0000
0301
0010
1000
0010
,
0100
1000
0200
0000
0301
0100
0010
0001
,
0010
0100
0002
0000
0103
1000
0010
0001
,
0100
0001
0020
0000
0031
1000
0010
0001
,
0100
1000
0002
0000
0013
1000
0100
0001
,
0010
1000
0002
0000
0103
1000
0010
0100
,
1000
0010
0002
0000
0013
0100
0001
0010
,
1000
0001
0200
0001
0301
0010
0100
1000
,
1100
0000
1000
0100
2000
0000
0010
0000
0001
0000
0001
0000
3001
0000
0100
0000
,
0101
0000
0001
0100
0002
0000
0010
0000
1000
0000
1000
0000
1003
0000
0100
0000
,
1000
0000
0010
1000
0200
0000
1000
0000
1000
0000
0010
0000
0310
0000
0100
0000
,
1000
0000
1000
0001
0200
0000
0001
0000
0001
0000
0010
0000
0310
0000
0100
0000
,
0001
1000
0001
0100
0001
1000
0100
0010
,
0001
0010
0100
1000
0001
0010
0100
1000
,
0010
0001
0010
1000
0010
0001
0010
0100
,
0001
0100
1000
0100
0010
1000
0100
0001
,
0100
0000
0101
0000
1000
0001
0100
1000
,
0001
0000
1001
0000
0010
1000
0001
0010
,
0100
0000
0110
0000
0010
1000
0100
0001
,
0010
0000
1001
0000
1000
0001
0010
1000
,
0001
0000
1001
0000
0001
1000
0100
0001
,
1000
0000
1001
0000
1000
0010
0001
1000
,
0010
0000
0011
0000
0001
0010
1000
0001
,
0100
0000
0101
0000
1000
0001
0100
1000
,
0001
0000
1001
0000
0010
1000
0100
0001
,
0010
0000
0101
0000
0010
0001
1000
0010
,
0100
0000
1100
0000
0100
0001
1000
0100
,
0001
0000
0001
0100
0010
0100
1000
0010
,
1000
0001
0200
0000
0301
1000
0001
0010
,
0001
1000
0020
0000
0130
0001
0010
0001
,
0100
0010
2000
0000
3100
0001
0100
0010
,
0001
1000
0020
0000
1030
0001
0100
0010
,
1001
0000
1000
0100
0001
0000
0100
0000
1000
0000
0010
0001
0010
0000
1000
0000
,
0100
0000
0010
0001
1000
0000
0001
0000
0100
0000
0010
1000
0100
0000
0001
0000
,
0100
0000
1000
0010
0001
0000
0010
0000
0100
0000
0001
0100
1000
0000
0100
0000
,
0010
0000
1000
0010
0100
0000
1000
0000
0100
0001
0100
0000
1001
0000
0010
0000
,
1000
0000
0100
0001
0100
0000
0010
0000
0100
0000
1000
0100
1000
0000
0010
0000
,
1000
0000
0010
0100
0001
0000
0010
0000
0001
0000
0010
1000
0010
0000
0001
0000
,
0100
0000
1000
0001
1000
0000
0010
0000
0001
0000
0001
1000
0001
0000
0010
0000
,
1000
0000
0100
0010
0001
0000
0010
0000
0100
0000
0001
0100
1000
0000
0010
0000
,
0100
0000
0001
0100
1000
0000
0100
0000
0010
0000
0100
0001
0010
0000
0001
0000
,
0010
0000
1000
0010
0001
0000
0100
0000
0010
0000
1000
0100
0001
0000
0100
0000
,
0010
0000
0100
1000
0010
0000
0001
0000
0100
0000
0001
0010
1000
0000
0010
0000
,
0100
0000
0001
1000
0010
0000
0100
0000
0001
0000
0010
0000
1000
0000
0100
0000
,
0010
0002
0100
0000
0100
0000
1003
0001
,
1000
0200
0001
0000
0301
0100
0010
0001
,
1000
0020
0100
0000
0130
1000
0100
0002
,
1000
0010
1003
0000
2010
0000
0100
0000
,
3001
0000
0000
0000
;

//---------------dance-double - ----------------
#NOTES:
     dance-double:
     :
     Challenge:
     9:
     0.613,0.581,0.170,0.273,0.123: // measure 1
00000000
00000000
00000000
00000000
,  // measure 2
00000000
00000000
00000000
00000000
,  // measure 3
10000000
01000000
00100000
00010000
00001000
00000100
00000010
00000001
,  // measure 4
00000010
00000100
00001000
00010000
00100000
01000000
10000000
01000000
,  // measure 5
00100000
00010000
00001000
00000100
00000010
00000001
00000010
00000100
,  // measure 6
00001000
00010000
00100000
01000000
10000000
00010000
10000000
01000000
,  // measure 7
00100000
00001000
00010000
00000100
00001000
00000010
00000100
00000001
,  // measure 8
00000010
00000100
00010000
00001000
00100000
00010000
01000000
00100000
,  // measure 9
10000000
01000000
00100000
00001000
00010000
00000100
00001000
00000010
,  // measure 10
00000100
00000001
00000010
00000100
00010000
00001000
01000000
00100000
,  // measure 11
10000000
01000000
11000000
10000000
00010000
01000000
01010000
01000000
,  // measure 12
00100000
10000000
10010000
10000000
00010000
00100000
00110000
00100000
,  // measure 13
00001000
00010000
00001000
00010000
00000100
00001000
00001010
00000010
,  // measure 14
00000100
00000001
00001001
00000001
00000010
00000100
00001001
00001000
,  // measure 15
00000100
00010000
00002000
00000000
01003000
00010000
00100000
01000000
,  // measure 16
10000000
00100000
02000000
00000000
13000000
01000000
00010000
00100000
,  // measure 17
00001000
00010000
00000020
00000000
00000130
00001000
00000100
00000010
,  // measure 18
00001000
00000100
00001000
00000000
00000100
01000000
00000200
00000000
,  // measure 19
00010300
00001000
00200000
00000000
00310000
00100000
10000000
00100000
,  // measure 20
00010000
00001000
00020000
00000000
01030000
10000000
01000000
00100000
,  // measure 21
10000000
00010000
00200000
00000000
00301000
00010000
00000100
00001000
,  // measure 22
00000010
00010000
00001000
00000000
00100000
00010000
00200000
00000000
,  // measure 23
00301000
01000000
00200000
00000000
10300000
01000000
00010000
01000000
,  // measure 24
00100000
00001000
00020000
00000000
00030100
00001000
00000010
00000001
,  // measure 25
00000010
00010000
00002000
00000000
00003100
00000001
00000100
00000010
,  // measure 26
00000100
00010000
00000200
00000000
00001300
00010000
00100000
01000000
,  // measure 27
00010000
10000000
02000000
00000000
03010000
01000000
00100000
00010000
,  // measure 28
01000000
00010000
20000000
00000000
30100000
10000000
01000000
00100000
,  // measure 29
00001000
00010000
00002000
00000000
00013000
00000100
00001000
00000010
,  // measure 30
00000100
00000001
00000020
00000000
00000130
00001000
00000100
00001000
,  // measure 31
00020000
00000000
00000000
00000000
00100000
00100000
00030000
20000000
,  // measure 32
00100000
30100000
10010000
00110000
,  // measure 33
00011000
00000000
00000100
00000000
00001000
00000010
00000001
00000010
,  // measure 34
00001000
00000100
00010000
00001000
02000000
00000000
03020000
00000000
,  // measure 35
00032000
00000000
00000000
00000000
00000010
00003010
00000000
00001000
,  // measure 36
00000100
00010000
00001000
01000000
00010000
00000000
10000000
00000000
,  // measure 37
10010000
00000000
10000000
00000000
00100000
00010000
00100000
10000000
,  // measure 38
02000000
00000000
00000000
00000000
00000000
00000000
00000000
00000000
03100000
00010000
00000000
00000000
00010000
00001000
00000000
00000000
,  // measure 39
00000100
00000000
00001000
00000000
00000010
00001000
00000100
00010000
,  // measure 40
00002000
01003000
01010000
10010000
,  // measure 41
11000000
00000000
10000000
01000000
00010000
01000000
10000000
00100000
,  // measure 42
02000000
00000000
13000000
01000000
00010000
00100000
00010000
10000000
,  // measure 43
00020000
00100000
10030000
00000000
10010000
00100000
00001000
00010000
,  // measure 44
00000100
00001000
00000002
00000000
00000103
00001000
00000100
00000001
,  // measure 45
00001000
00000100
00020000
00000000
00031000
00100000
00010000
10000000
,  // measure 46
01000000
00010000
02000000
00000000
03100000
00010000
01000000
00010000
,  // measure 47
00110000
00000000
00100000
00001000
00010000
00000000
00000100
00000000
00001000
00000000
00000010
00000001
00000010
00000000
00001000
00000000
,  // measure 48
00000100
00000000
00000001
00000100
00001000
00000000
00000010
00000000
00010000
00000000
00001000
01000000
00100000
00000000
10000000
00000000
,  // measure 49
01000000
00000000
00010000
01000000
10000000
00000000
00100000
00000000
01000000
00000000
00010000
00100000
00001000
00000000
00010000
00000000
,  // measure 50
00000100
00000000
00001000
00000010
00000001
00000000
00000010
00000000
00001000
00000010
00000001
00000000
00001010
00000000
00000010
00000000
,  // measure 51
00001000
00000000
00000100
00010000
00001000
00000000
01000000
00000000
00010000
00000000
10000000
00100000
00010000
00000000
00100000
00000000
,  // measure 52
10000000
00000000
01000000
00100000
00001000
00000000
00010000
00000000
00000100
00000000
00001000
00000010
00000001
00000000
00000010
00000000
,  // measure 53
00000100
00000000
00000001
00000100
00001000
00000000
00000100
00000000
00000010
00000000
00001000
00000100
00010000
00000000
00001000
00000000
,  // measure 54
01000000
00000000
10000000
01000000
00010000
00000000
00100000
00000000
01000000
10000000
01000000
00000000
10010000
00000000
10000000
00000000
,  // measure 55
00100000
00000000
10000000
00100000
00010000
00000000
00100000
00000000
01000000
00000000
00010000
00100000
00001000
00000000
00010000
00000000
,  // measure 56
00000100
00000000
00001000
00000010
00000001
00000000
00000010
00000000
00000100
00000000
00000001
00000100
00001000
00000000
00000100
00000000
,  // measure 57
00000010
00000000
00010000
00001000
00100000
00000000
00010000
00000000
01000000
00000000
10000000
01000000
00010000
00000000
00100000
00000000
,  // measure 58
00001000
00000000
00010000
00000100
00000010
00000000
00000001
00000000
00000100
00000000
00001000
00000000
00000100
00000000
00000001
00000000
,  // measure 59
00001000
00000100
00002000
00000000
00000010
00000000
00000100
00000000
00003010
00000000
00000000
00000000
00001010
00000000
00000010
00000000
,  // measure 60
00010000
00000000
00001000
00010000
00002000
00000000
01000000
00000000
01003000
00000000
00010000
00000000
01000000
00000000
10000000
00000000
,  // measure 61
01000000
00000000
00100000
10000000
00200000
00000000
01000000
00000000
01000000
00000000
10300000
00000000
10100000
00000000
10000000
00000000
,  // measure 62
01000000
00000000
00010000
01000000
10000000
00000000
00100000
00000000
20000000
00000000
00000000
00000000
00010000
00000000
00000000
00000000
,  // measure 63
30100000
00000000
00000000
00000000
;
