#TITLE:Cry For You;
#SUBTITLE:(Dave Ramon Extended Mix);
#ARTIST:September;
#TITLETRANSLIT:;
#SUBTITLETRANSLIT:;
#ARTISTTRANSLIT:;
#GENRE:;
#CREDIT:;
#MENUCOLOR:;
#METERTYPE:DDR;
#BANNER:Cry For You (Dave Ramon Extended Mix).png;
#BACKGROUND:Cry For You (Dave Ramon Extended Mix)-bg.png;
#LYRICSPATH:Cry For You (Dave Ramon Extended Mix).lrc;
#CDTITLE:sporktitles4.png;
#MUSIC:Cry For You (Dave Ramon Extended Mix).mp3;
#OFFSET:-0.020;
#SAMPLESTART:64.731;
#SAMPLELENGTH:14.634;
#SELECTABLE:YES;
#LISTSORT:;
#BPMS:0.000=130.000;
#STOPS:;
#BGCHANGES:;
#ATTACKS:;

//---------------dance-single - ----------------
#NOTES:
     dance-single:
     :
     Beginner:
     1:
     0.095,0.133,0.009,0.000,0.000:
0000
0000
0000
0000
,
0000
0000
0000
0000
,
0000
0000
0000
0000
,
0000
0000
0000
0000
,
1000
0000
0000
0000
,
1000
0000
0000
0000
,
1000
0000
0000
0000
,
1000
0000
0000
0000
,
0001
0000
0000
0000
,
0001
0000
0000
0000
,
0001
0000
0000
0000
,
0001
0000
0000
0000
,
0010
0000
0000
0000
,
0100
0000
1000
0000
,
0001
0000
0000
0000
,
0100
0000
0001
0000
,
0010
0000
0000
0000
,
0100
0000
0010
0000
,
0001
0000
0000
0000
,
0100
0000
0010
0000
,
1000
0000
1000
0000
,
0001
0000
0001
0000
,
0010
0000
0001
0000
,
0100
0000
0000
0000
,
0001
0000
0001
0000
,
1000
0000
1000
0000
,
0010
0000
1000
0000
,
0100
0000
0000
0000
,
1000
0000
0000
0000
,
1000
0000
0000
0000
,
0100
0000
0000
0000
,
0100
0000
0000
0000
,
0010
0000
0000
0000
,
0010
0000
0000
0000
,
0001
0000
0000
0000
,
0001
0000
0000
0000
,
1000
0000
0000
0000
,
0100
0000
1000
0000
,
0010
0000
0000
0000
,
0010
0000
0000
0000
,
0100
0000
0000
0000
,
0010
0000
1000
0000
,
0100
0000
0000
0000
,
0010
0000
0000
0000
,
0001
0000
0000
0000
,
0100
0000
0001
0000
,
0010
0000
0000
0000
,
0010
0000
0000
0000
,
0100
0000
0000
0000
,
0010
0000
0001
0000
,
0100
0000
0000
0000
,
0010
0000
0000
0000
,
1000
0000
1000
0000
,
1000
0000
0000
0000
,
0001
0000
0001
0000
,
0001
0000
0000
0000
,
1001
0000
0000
0000
;

//---------------dance-single - ----------------
#NOTES:
     dance-single:
     :
     Easy:
     3:
     0.218,0.241,0.019,0.095,0.000:
0000
0000
0000
0000
,
0000
0000
0000
0000
,
0000
0000
0000
0000
,
0000
0000
0000
0000
,
0001
0010
0100
0000
,
0010
0100
1000
0000
,
0100
1000
0001
0000
,
1000
0001
0100
0010
,
1000
0100
0010
0000
,
0100
0010
0001
0000
,
0010
0001
1000
0000
,
0001
0100
0000
0100
,
0010
0000
0010
0000
,
1000
0000
1000
0100
,
0010
0000
0010
0000
,
0001
0000
0001
0100
,
0010
0000
0010
0000
,
1000
0000
1000
0001
,
0010
0000
0010
0000
,
0001
0000
0001
0100
,
0020
0000
0230
0000
,
0310
1000
0001
0000
,
1000
0100
0010
0001
,
1000
0000
0001
0000
,
0200
0000
0320
0000
,
0130
0001
1000
0000
,
0001
0010
0100
1000
,
0001
0100
0000
0100
,
0001
0000
0001
0000
,
1000
0000
1000
0000
,
0001
0000
0001
0000
,
1000
0000
1000
0000
,
0001
0010
0001
0001
,
1000
0100
1000
1000
,
0010
0100
0001
1000
,
2002
0000
3003
0000
,
0001
0100
0010
0000
,
0010
0000
1000
0100
,
0010
0001
1000
0000
,
0010
0000
0010
1000
,
0001
0001
1000
1000
,
0100
0000
0010
0000
,
0001
0100
0001
0000
,
1000
0100
1000
0001
,
0100
0000
0010
0000
,
1000
0000
0001
0100
,
0010
0000
1000
0000
,
0010
0100
0001
1000
,
0100
0100
0010
0010
,
0001
0000
1000
0000
,
1000
0010
1000
0000
,
0001
0010
0001
0000
,
0200
0000
0320
0000
,
1030
0001
0100
0000
,
0001
0010
0100
1000
,
0001
0000
0100
0000
,
2002
0000
3003
0000
;

//---------------dance-single - ----------------
#NOTES:
     dance-single:
     :
     Medium:
     5:
     0.327,0.349,0.066,0.095,0.000:
0000
0000
0000
0000
,
0000
0000
0000
0000
,
0000
0000
0000
0000
,
0000
0000
0000
0000
,
1000
0000
0010
0000
1000
0100
0000
0100
,
0010
0000
0001
0000
0010
0001
0000
0001
,
0000
0000
0010
0000
0001
0100
0000
0100
,
0000
0000
0010
0000
1000
0100
0000
0010
,
0001
0000
0100
0000
0001
0010
0000
0010
,
0100
0000
1000
0000
0100
1000
0000
1000
,
0000
0000
0100
0000
1000
0010
0000
0010
,
0000
0101
0000
1001
,
0001
0010
0001
0100
,
0010
0000
0010
0100
0000
0001
0000
0001
,
1000
0010
1000
0100
,
0010
0001
0000
0100
0000
0000
0010
0100
,
0001
1000
0100
0010
,
0100
0000
0100
1000
0000
0010
0000
0100
,
0000
0000
0001
0000
1000
0100
1000
0000
,
0010
0100
0000
0001
0000
0000
1000
0000
,
0200
0000
0320
0000
,
0130
1000
0001
0000
,
0100
0001
0100
0001
1000
0000
1000
0010
,
0000
0100
0000
0100
,
0020
0000
0230
0000
,
0310
1000
0001
0000
,
0010
0001
0100
0010
,
1000
0000
0110
0000
0100
0001
1000
0000
,
0001
0010
0001
0010
,
0100
1000
0100
1000
,
0001
0100
0001
0100
,
0010
1000
0010
1000
,
0001
0100
0001
0000
0100
0010
0100
0000
,
0010
1000
0010
0000
1000
0001
1000
0000
,
0001
0010
0100
1000
0001
0010
0100
2000
,
0002
0000
3003
0000
,
0001
0100
0010
1000
,
0100
0000
0010
0000
0001
1000
0001
1000
,
0100
0000
1000
0000
0010
0100
0000
0100
,
0000
0000
0001
0000
0010
0001
0010
0100
,
1000
0001
0001
0001
,
0100
0000
1001
0000
0001
0100
0010
0000
,
1000
0000
0100
0000
0010
0001
0000
0010
,
0001
0000
1000
0000
0010
1000
0001
0000
,
0100
0001
0010
0100
,
1000
0000
0010
0000
1000
0001
1000
0001
,
0100
0000
0010
0000
1000
0100
0000
0100
,
0000
0000
0010
0000
0001
0100
0010
0000
,
1000
0100
0100
0100
,
0010
0000
1001
0000
1000
0100
0010
0001
,
0100
0010
1000
0000
0001
0000
0100
0000
,
0010
0000
0010
0000
,
2000
0000
3002
0000
,
0013
0001
0100
0000
,
0010
1000
0100
0010
,
0100
0000
0110
0000
0010
0001
0100
0000
,
2002
0000
3003
0000
;

//---------------dance-single - ----------------
#NOTES:
     dance-single:
     :
     Hard:
     7:
     0.429,0.456,0.123,0.095,0.014: // measure 1
0000
0000
0000
0000
,  // measure 2
0000
0000
0000
0000
,  // measure 3
0000
0000
0000
0000
,  // measure 4
0000
0000
0000
0000
,  // measure 5
0100
0000
0001
0000
0010
0100
0000
1000
,  // measure 6
0000
0010
0100
0000
0001
1000
0000
0100
,  // measure 7
1000
0010
1000
0000
0100
0010
0000
0001
,  // measure 8
0000
0100
0010
0000
1000
0001
0000
0110
,  // measure 9
0000
1000
0010
0000
0100
0001
0000
0010
,  // measure 10
0001
0100
0010
0000
1000
0001
0000
0100
,  // measure 11
0000
0001
0010
0000
0100
1000
0000
0010
,  // measure 12
0000
0100
0001
0000
1000
0010
0000
1001
,  // measure 13
0100
0000
0001
0000
0010
0001
0010
0100
,  // measure 14
1000
0000
0010
0100
0000
0001
0000
2000
,  // measure 15
0000
0000
3010
0000
0100
0001
0010
0100
,  // measure 16
1000
0010
0000
0200
0000
0000
0310
1000
,  // measure 17
0001
0000
0010
0000
0100
0010
0001
0100
,  // measure 18
0010
0000
1000
0001
0000
0010
0000
0200
,  // measure 19
0000
0000
1300
0000
0001
0010
0100
0010
,  // measure 20
0001
0100
0000
0020
0000
0000
1030
0001
,  // measure 21
0010
1000
0000
1000
0010
0001
0000
0100
,  // measure 22
0000
0010
1000
0000
0001
0010
0000
0100
,  // measure 23
0010
0001
0100
0010
1000
0000
1000
0001
,  // measure 24
0100
0000
0010
0000
0110
0000
0001
1000
,  // measure 25
0010
0001
0000
0001
0010
1000
0000
0100
,  // measure 26
0000
0010
0001
0100
0010
1000
0000
0100
,  // measure 27
1000
0010
0100
0001
1000
0000
0001
0100
,  // measure 28
0000
0000
0000
0000
0110
0000
0000
0000
1000
0000
0001
0100
0001
0000
1000
0000
,  // measure 29
0100
0100
0010
0010
,  // measure 30
0100
0100
0010
0010
,  // measure 31
0001
0001
1000
1000
,  // measure 32
0001
0001
1000
1000
,  // measure 33
0010
1000
0100
0010
0001
0010
0100
1000
,  // measure 34
0001
1000
0010
0100
0001
0100
0010
1000
,  // measure 35
0001
0010
1000
0010
0001
0100
1000
0100
,  // measure 36
0001
0000
0000
0000
0110
0000
0000
0000
0001
0000
1000
0100
1000
0000
0001
0000
,  // measure 37
0100
1010
0100
0011
,  // measure 38
0100
0010
1000
0000
0001
0010
0001
0100
,  // measure 39
0010
0000
1000
0002
0000
0000
0013
0000
,  // measure 40
0100
0010
0001
0100
0010
1000
0001
1000
,  // measure 41
0010
0010
0100
0100
,  // measure 42
0001
0000
0110
0000
1000
0010
1000
0100
,  // measure 43
0010
0002
0000
0000
1003
0000
0010
0000
,  // measure 44
1000
0010
0100
0000
0010
0100
0001
1000
,  // measure 45
0010
0101
0010
1100
,  // measure 46
0010
0100
0001
0000
1000
0010
1000
0100
,  // measure 47
0010
0000
0001
2000
0000
0000
3010
0000
,  // measure 48
0100
0010
1000
0100
0010
0001
1000
0001
,  // measure 49
0100
0100
0010
0010
,  // measure 50
1000
0000
0110
0000
0001
0010
0001
0100
,  // measure 51
0010
2000
0001
0000
3100
1000
0000
0010
,  // measure 52
0000
0100
0001
0000
1000
0100
0000
0010
,  // measure 53
0100
1000
0000
0010
1000
0100
0000
0010
,  // measure 54
0000
0100
1000
0010
0100
0001
0000
1000
,  // measure 55
0100
0010
0001
0100
0010
0000
0010
1000
,  // measure 56
0000
0000
0000
0000
1001
0000
0000
0000
0100
0000
0010
0001
0010
0000
0100
0000
,  // measure 57
2002
0000
3003
0000
;

//---------------dance-double - ----------------
#NOTES:
     dance-double:
     :
     Easy:
     2:
     0.176,0.215,0.019,0.123,0.000:
00000000
00000000
00000000
00000000
,
00000000
00000000
00000000
00000000
,
00000000
00000000
00000000
00000000
,
00000000
00000000
00000000
00000000
,
00010000
00000000
20000000
00000000
,
30010000
00000000
02000000
00000000
,
03010000
00000000
00200000
00000000
,
00310000
00000000
00011000
00000000
,
00001000
00000000
00000002
00000000
,
00001003
00000000
00000020
00000000
,
00001030
00000000
00000200
00000000
,
00001300
00000000
00011000
00000000
,
00010000
00000000
00100000
00000000
,
01000000
00000000
10000000
10000000
,
00010000
00000000
01000000
00000000
,
00001000
00000000
00010000
00010000
,
00000010
00000000
00000100
00000000
,
00000001
00000000
00000010
00000010
,
00000100
00000000
00001000
00000000
,
00000001
00000000
00000100
00000100
,
00000001
00000000
00000001
00000000
,
00001000
00001000
00000100
00000000
,
00010000
00000000
00001000
00000000
,
02000000
00000000
03200000
00000000
,
10300000
00000000
10000000
00000000
,
00010000
00010000
01000000
00000000
,
00001000
00000000
00010000
00000000
,
00000010
00000000
00000000
00000000
,
00001000
00000000
00001000
00000000
,
00000001
00000000
00000001
00000000
,
00001000
00000000
00001000
00000000
,
00000001
00000000
00000001
00000000
,
00001000
00000000
00000010
00000000
,
00010000
00000000
00001000
00000000
,
01000000
00000000
00010000
00000000
,
10000000
00000000
00000000
00000000
,
00010000
00010000
01000000
00000000
,
00100000
00000000
10000000
00000000
,
01000000
00000000
01000000
00000000
,
00100000
00000000
00001000
00000000
,
00010000
00010000
00001000
00001000
,
00010000
00000000
00000010
00000000
,
00000200
00000000
00000320
00000000
,
00001030
00000000
00000001
00000001
,
00000100
00000000
00000010
00000000
,
00001000
00000000
00000100
00000000
,
00000010
00000000
00000100
00000000
,
00010000
00000000
00001000
00000000
,
01000000
01000000
00100000
00100000
,
10000000
00000000
01000000
00000000
,
00200000
00000000
02300000
00000000
,
13000000
00000000
00010000
00000000
,
01000000
00000000
01000000
00000000
,
00001000
00000000
00001000
00000000
,
00010000
00000000
00010000
00000000
,
00000100
00000000
00000100
00000000
,
00000020
00000000
00000030
00000000
;

//---------------dance-double - ----------------
#NOTES:
     dance-double:
     :
     Medium:
     5:
     0.305,0.322,0.038,0.057,0.000:
00000000
00000000
00000000
00000000
,
00000000
00000000
00000000
00000000
,
00000000
00000000
00000000
00000000
,
00000000
00000000
00000000
00000000
,
01000000
00000000
00010000
00000000
10000000
01000000
00000000
01000000
,
00000000
00000000
10000000
00000000
00010000
00100000
00000000
00100000
,
00000000
00000000
00010000
00000000
01000000
00001000
00000000
00001000
,
00000000
00000000
00010000
00000000
00000010
00000100
00000000
00000100
,
00000001
00000000
00001000
00000000
00000100
00000010
00000000
00000010
,
00000000
00000000
00000001
00000000
00001000
00000100
00000000
00000100
,
00000000
00000000
00010000
00000000
00001000
01000000
00000000
01000000
,
00000000
00000000
00010000
00000000
10000000
00100000
00000000
00100000
,
01000000
00000000
00010000
00000000
10000000
00010000
01000000
00000000
,
00100000
10000000
01000000
00100000
,
00001000
00000000
00010000
00000000
00000010
00001000
00000100
00000000
,
00000010
00000001
00001000
00000010
,
00010000
00000000
00001000
00000000
01000000
00010000
00100000
00000000
,
01000000
00100000
00001000
00010000
,
00000010
00000000
00000100
00000000
00000001
00001000
00000100
00000000
,
00000010
00000001
00001000
00000010
,
00000100
00000001
00000000
00000000
00000010
00000100
00000000
00000000
,
00001000
00000010
00000100
00000000
,
00000010
00001000
00000010
00000000
00010000
00000000
00001000
00000000
,
01000000
00000000
10010000
00000000
,
01000000
10000000
00000000
00000000
00100000
01000000
00000000
00000000
,
00010000
00100000
01000000
00000000
,
00100000
00010000
00100000
00000000
00001000
00000000
00010000
00000000
,
00000100
00000000
00011000
00000000
00010000
00001000
00010000
00000000
,
00000100
00000010
00000001
00000010
,
00000100
00001000
00000010
00010000
,
00001000
01000000
00010000
01000000
,
00100000
10000000
01000000
00100000
,
00010000
01000000
10000000
01000000
,
00010000
00100000
00001000
00010000
,
00001000
00000010
00000001
00000010
,
00000100
00000000
00000110
00000000
00000001
00001000
00000001
00000000
,
00000200
00000000
00000010
00000000
00000310
00000000
00000000
00001000
,
00000000
00000000
00000100
00000000
00000010
00000100
00001000
00000000
,
00000100
00000000
00010000
00000000
00001000
01000000
00000000
01000000
,
00000000
00000000
00010000
00000000
10000000
01000000
00100000
00000000
,
00010000
10000000
10000000
20000000
,
00000000
00000000
00000000
00000000
30100000
10000000
00100000
01000000
,
00010000
02000000
00000000
00000000
00000000
00000000
03000000
00000000
,
00010000
00000000
00100000
00000000
00001000
00010000
00001000
00000000
,
00010000
00000000
00000010
00000000
00001000
00000001
00000000
00000001
,
00000000
00000000
00000100
00000000
00000010
00001000
00000001
00000000
,
00000010
00000000
00000001
00000000
00000100
00000010
00000000
00000010
,
00000000
00000000
00001000
00000000
00000001
00000010
00000100
00000000
,
00001000
00000001
00000001
00000002
,
00000000
00000000
00000000
00000000
00000103
00000001
00000100
00000010
,
00001000
00000020
00000000
00000000
00000000
00000000
00000030
00000000
,
00001000
00000100
00010000
00001000
,
01000000
00010000
00000000
00000000
01000000
00100000
00000000
00000000
,
10000000
01000000
00100000
00000000
,
00001000
00010000
00000010
00000100
,
00000001
00000000
00001001
00000000
00000001
00001000
00000001
00000000
,
00000020
00000000
00000030
00000000
;

//---------------dance-double - ----------------
#NOTES:
     dance-double:
     :
     Hard:
     7:
     0.417,0.456,0.047,0.076,0.014:
00000000
00000000
00000000
00000000
,
00000000
00000000
00000000
00000000
,
00000000
00000000
00000000
00000000
,
00000000
00000000
00000000
00000000
,
00000001
00000000
00000010
00000000
00000001
00000100
00000000
00000001
,
00000000
00001000
00000100
00000000
00000010
00000100
00000000
00010000
,
00000000
00001000
01000000
00000000
00010000
00100000
00000000
01000000
,
00000000
00100000
00010000
00000000
10000000
00010000
01000000
00010000
,
10000000
00000000
00100000
00000000
10000000
01000000
00000000
10000000
,
00000000
00010000
00100000
00000000
01000000
00100000
00000000
00001000
,
00000000
00010000
00000010
00000000
00001000
00000100
00000000
00000010
,
00000000
00000100
00001000
00000000
00000001
00000100
00000000
00000010
,
00001000
00000000
00000010
00000000
00010000
00000100
00001000
00000100
,
00010000
00000000
00001000
01000000
00000000
00100000
00000000
20000000
,
00000000
00000000
31000000
00000000
00100000
00010000
00100000
01000000
,
00100000
00001000
00000000
00020000
00000000
00000000
00030100
00001000
,
00000010
00000000
00000100
00000000
00000001
00001000
00000010
00001000
,
00000001
00000000
00000010
00000100
00000000
00001000
00000000
00000020
,
00000000
00000000
00001030
00000000
00000100
00010000
00001000
00010000
,
00000100
00000010
00000000
00000200
00000000
00000000
00010300
00001000
,
01000000
00100000
00000000
10000000
01000000
00010000
00000000
01000000
,
00000000
00100000
00010000
00100000
01000000
10000000
00000000
01000000
,
10000000
00010000
01000000
00001000
00010000
00000010
00001000
00000001
,
00000000
00000010
00000100
00000000
00001001
00000000
00000001
00001000
,
00000010
00000100
00000000
00000001
00000010
00001000
00000000
00000010
,
00000000
00000100
00001000
00000100
00000010
00000001
00000000
00000010
,
00000001
00001000
00000100
00010000
00001000
01000000
00010000
10000000
,
00000000
00000000
00000000
00000000
01100000
00000000
00000000
00000000
10000000
00000000
00010000
01000000
00010000
00000000
00100000
00000000
,
01000000
10000000
01000000
00010000
,
00001000
00000010
00000100
00000010
,
00000001
00000100
00001000
00010000
,
00100000
01000000
00100000
10000000
,
00100000
10000000
00100000
10000000
00010000
01000000
00010000
01000000
,
00001000
00010000
00001000
00010000
00000010
00001000
00000010
00001000
,
00000001
00000100
00000010
00010000
00001000
01000000
00100000
10000000
,
00010000
00000000
00000000
00000000
01100000
00000000
00000000
00000000
00010000
00000000
10000000
01000000
10000000
00000000
00100000
00000000
,
02000000
00010000
10000000
00100000
,
03010000
00000000
10000000
00000000
01000000
00100000
00010000
00100000
,
00001000
00000000
00010000
00000000
00000100
00001000
00000000
00000010
,
00000000
00000100
00000001
00000001
00001000
00000010
00000100
00000001
,
00000010
00000100
00000100
00000100
,
00001000
00000000
00000001
00000100
00000010
00001000
00000010
00010000
,
00001000
01000000
00010000
00000000
10000000
00100000
00000000
01000000
,
00000000
00010000
00100000
01000000
00100000
00010000
10000000
01000000
,
00200000
00010000
01000000
00010000
,
00301000
00000000
00010000
00000000
00000010
00001000
00000100
00000000
,
00000110
00000000
00000010
00000002
00000000
00000000
00001003
00000000
,
00000100
00001000
00000010
00000010
00010000
00001000
01000000
00100000
,
10000000
01000000
01000000
01000000
,
00100000
00010000
01000000
00000000
00100000
10000000
00010000
01000000
,
00001000
00010000
00000100
00000000
00001000
00000010
00000000
00000100
,
00000000
00000001
00000010
00000000
00000100
00001000
00000000
00000001
,
00000100
00000010
00000000
00001000
00000100
00000001
00000000
00000100
,
00000000
00000010
00000100
00000010
00000001
00001000
00000000
00000100
,
00000000
00010000
00001000
00000000
01000000
00010000
00000000
00100000
,
00000000
00000000
00000000
00000000
00011000
00000000
00000000
00000000
00000100
00000000
00010000
00001000
00010000
00000000
00001000
00000000
,
00020000
00000000
00030000
00000000
;
