#TITLE:Cowboy Joe;
#SUBTITLE:;
#ARTIST:Toy Box;
#TITLETRANSLIT:;
#SUBTITLETRANSLIT:;
#ARTISTTRANSLIT:;
#GENRE:;
#CREDIT:;
#MENUCOLOR:;
#BANNER:Cowboy Joe-bn.png;
#BACKGROUND:Cowboy Joe-bg.png;
#LYRICSPATH:;
#CDTITLE:ddrencorecdtitle.png;
#MUSIC:Cowboy Joe.mp3;
#OFFSET:-0.010;
#SAMPLESTART:43.794;
#SAMPLELENGTH:14.014;
#SELECTABLE:YES;
#LISTSORT:1;
#BPMS:0.000=137.005,148.000=68.503,166.000=137.005;
#STOPS:;
#TICKCOUNT:0.000=2;
#BGCHANGES:;
#KEYSOUNDS:;
#ATTACKS:;

//---------------dance-single - ----------------
#NOTES:
     dance-single:
     :
     Beginner:
     1:
     0.127,0.205,0.152,0.000,0.000:
0000
0000
0000
0000
,
0000
0000
0000
0000
,
0000
0000
0000
0000
,
0000
0000
0000
0000
,
0000
0000
0000
0000
,
0000
0000
0000
0000
,
0000
0000
0000
0000
,
0000
0000
0000
0000
,
1001
0000
0000
0000
,
1000
0000
0100
0000
,
1000
0000
0000
0000
,
0010
0000
0010
0000
,
0100
0000
0100
0000
,
0001
0000
0010
0000
,
0001
0000
0000
0000
,
0100
0000
0010
0000
,
1001
0000
0000
0000
,
1000
0000
0000
0000
,
0001
0000
0000
0000
,
0010
0000
0100
0000
,
1000
0000
0000
0000
,
0001
0000
0000
0000
,
1000
0000
0000
0000
,
0010
0000
0100
0000
,
1001
0000
0000
0000
,
0000
0000
0000
1000
,
1000
0000
0001
0000
,
0010
0000
0001
0000
,
0100
0000
0010
0000
,
1000
0000
0000
0001
,
0001
0000
1000
0000
,
0010
0000
1000
0000
,
0100
0000
0010
0000
,
1001
0000
1001
0000
,
0000
0000
0000
0000
,
0110
0000
0110
0000
,
1000
0000
0000
0000
,
0010
0000
0100
0000
,
0010
0000
1000
1000
,
1000
0000
0100
0000
,
0010
0000
0010
0000
,
1001
0000
0100
0000
,
0000
0001
0001
0000
,
1000
0000
0100
0000
,
1000
0000
0010
0000
,
0100
0000
0001
0000
,
0000
1000
1000
0000
,
0001
0000
0010
0000
,
0001
0000
0100
0000
,
1000
0000
1001
0000
,
1001
0000
0010
0000
,
0100
0000
1001
0000
,
1001
0000
0000
0000
,
0000
0000
0110
0000
,
0110
0000
1000
0000
,
0001
0000
0110
0000
,
0110
0000
0000
0000
,
0000
0000
1001
0000
;

//---------------dance-single - ----------------
#NOTES:
     dance-single:
     :
     Easy:
     2:
     0.181,0.237,0.152,0.143,0.000:
0000
0000
0000
0000
,
0000
0000
0000
0000
,
0000
0000
0000
0000
,
0000
0000
0000
0000
,
0000
0000
0000
0000
,
0000
0000
0000
0000
,
0000
0000
0000
0000
,
0000
0000
0000
0000
,
2002
0000
0000
3003
,
0001
0010
0001
0000
,
1000
0010
1000
0000
,
0010
0000
0010
0000
,
0100
0000
0100
0000
,
0001
0100
0001
0000
,
1000
0100
1000
0000
,
0010
0000
0100
0000
,
2002
0000
0000
3003
,
0001
0000
1000
0000
,
0001
0000
0100
0000
,
0001
0000
0010
0000
,
0100
0000
1001
0000
,
1000
0000
0001
0000
,
1000
0000
0010
0000
,
1000
0000
0100
0000
,
0010
0000
0000
0000
,
0002
0000
0003
0000
,
0001
0100
0010
0000
,
0100
0010
1000
0000
,
0010
1000
0001
0000
,
2000
0000
3000
0000
,
1000
0010
0100
0000
,
0010
0100
0001
0000
,
0100
0001
1000
0000
,
0101
0000
0101
0000
,
1000
0000
0001
0000
,
1100
0000
1100
0000
,
0010
0000
0000
0000
,
2000
0000
3002
0000
,
0203
0000
0310
1000
,
0002
0000
2003
0000
,
3200
0000
0310
0000
,
1001
0000
2000
0000
,
3000
0000
0010
1000
,
0001
0000
1000
0001
,
0100
0000
0001
0100
,
0001
0000
0002
0000
,
0003
0000
0100
0001
,
1000
0000
0001
1000
,
0100
0000
1000
0100
,
1000
0000
1010
0000
,
1010
0000
0100
0000
,
0001
0000
0011
0000
,
0011
0000
0100
0000
,
1000
0000
0101
0000
,
0101
0000
0001
0000
,
0010
0000
1100
0000
,
1100
0000
0010
0000
,
0100
0000
2002
0000
,
0000
0000
0000
0000
,
3003
0000
0000
0000
;

//---------------dance-single - ----------------
#NOTES:
     dance-single:
     :
     Medium:
     5:
     0.298,0.316,0.107,0.267,0.022:
0000
0000
0000
0000
,
0000
0000
0000
0000
,
0000
0000
0000
0000
,
0000
0000
0000
0000
,
0001
0000
0000
0000
,
1000
0000
0000
0000
,
0010
0000
0000
0000
,
0100
0000
0000
0000
,
2002
0000
0000
3003
,
0001
0100
1000
0100
,
0001
0000
0000
0010
0000
0000
0100
0000
1000
0000
0000
0000
0000
0000
0000
0000
,
0001
0000
0100
0010
0100
0000
0001
0000
,
1000
0000
0010
0100
0010
0000
0000
0000
,
1000
0100
0001
0100
,
1000
0000
0000
0010
0000
0000
0100
0000
0001
0000
0000
0000
0000
0000
0000
0000
,
0001
0000
0000
0010
0000
0000
0100
0000
1000
0000
0000
0000
0001
0000
0000
0000
,
1001
0000
0100
0000
,
0010
0000
0000
0010
1000
0000
0000
1000
,
0100
0000
0000
0100
0010
0000
0000
0000
,
0001
0000
0000
0000
0000
0000
0001
0000
0100
0000
0000
0010
0000
0000
1000
0000
,
0001
0000
0100
1001
,
0010
0000
0000
0010
0001
0000
0000
0001
,
0100
0000
0000
0100
0010
0000
0000
0000
,
1000
0000
0000
0001
0000
0000
1000
0000
0001
0000
0000
0000
0100
0000
0000
0000
,
0010
0010
0100
0000
,
2002
0000
3003
1000
,
0010
0000
0100
0000
0001
0100
0001
0000
,
0010
0000
0100
0000
1000
0010
1000
0000
,
0001
0100
0110
0000
,
2002
0000
3003
0001
,
0100
0000
0010
0000
1000
0100
1000
0000
,
0010
0000
0100
0000
0001
0010
0001
0000
,
0100
0000
0010
0000
0110
0000
0000
0001
,
0002
0000
0000
1003
2000
0000
0000
3000
,
0010
0000
0100
0000
0001
0000
0001
1000
,
2000
0000
0000
3001
0002
0000
0000
0003
,
0100
0010
1000
0001
,
1002
0000
0203
0000
,
0320
0000
0000
0000
1030
0001
1000
0001
,
2000
0000
3020
0000
,
0230
0000
0301
0000
,
1000
0000
2002
0000
,
3003
1000
0010
0100
,
0001
0010
0001
0010
0100
0000
1000
0000
,
0001
0100
0001
0100
0010
0000
1000
0000
,
0001
0000
2002
0000
,
3003
0001
0100
0010
,
1000
0100
1000
0100
0010
0000
0001
0000
,
1000
0010
1000
0010
0100
0000
0001
0000
,
1000
0000
0000
0001
0200
0000
0000
0301
,
2000
0000
0100
3000
0100
0000
1000
0000
,
0001
0000
0000
1000
0020
0000
0000
1030
,
0002
0000
0000
0003
0100
0000
0010
0000
,
1001
0000
0100
0001
0020
0000
0000
0031
,
2000
0000
0010
3000
0010
0000
1000
0000
,
0001
0000
0000
1000
0020
0000
0000
1030
,
0002
0000
0000
0003
0100
0000
0010
0000
,
1000
0100
2002
0000
,
0000
0000
0000
0000
,
3003
0000
0000
0000
;

//---------------dance-single - ----------------
#NOTES:
     dance-single:
     :
     Hard:
     7:
     0.400,0.394,0.080,0.160,0.156: // measure 1
0000
0000
0000
0000
,  // measure 2
0000
0000
0000
0000
,  // measure 3
0000
0000
0000
0000
,  // measure 4
0000
0000
0000
0000
,  // measure 5
0010
0000
0100
0000
0000
1000
0000
0000
0010
0000
0000
0100
0000
0000
0001
0000
,  // measure 6
0000
0000
0010
0000
0000
0001
0000
0000
0100
0000
0000
0010
0000
0000
1000
0000
,  // measure 7
0000
0000
0010
0000
0000
0100
0000
0000
0001
0000
0000
1000
0000
0000
0100
0000
,  // measure 8
0000
0000
0010
0000
0000
0100
0000
0000
1000
0000
0000
0001
0000
0000
0100
0000
,  // measure 9
2002
0000
0000
3003
,  // measure 10
1000
0100
1000
0010
0100
0001
1000
0100
,  // measure 11
0010
0000
0000
0001
0000
0000
1000
0000
0001
0000
0000
0000
0100
0000
0000
0000
,  // measure 12
0010
0000
0000
0010
0000
0000
0010
0000
0010
0000
0000
0000
1000
0000
0000
0000
,  // measure 13
0100
0000
0000
0100
0000
0000
0100
0000
0100
0000
0000
0000
0010
0000
0000
0000
,  // measure 14
0001
0100
0001
0010
0100
1000
0001
0100
,  // measure 15
0010
0000
0000
1000
0000
0000
0001
0000
1000
0000
0000
0000
0010
0000
0000
0000
,  // measure 16
0100
0000
0000
0001
0000
0000
1000
0000
0001
0000
0000
0000
0010
0000
0000
0000
,  // measure 17
0200
0000
0310
1001
,  // measure 18
0010
0000
0010
0001
1000
0000
0010
0100
,  // measure 19
0001
0000
0100
0001
1000
0000
0001
0000
,  // measure 20
0110
0000
0000
0000
0010
0000
0100
0000
1000
0000
0000
0010
0000
0000
0100
0000
,  // measure 21
0001
1000
0010
1001
,  // measure 22
0100
0000
0100
1000
0001
0000
0100
0010
,  // measure 23
1000
0000
0010
1000
0001
0000
1000
0000
,  // measure 24
0100
0000
0000
0010
0000
0000
0001
0000
1000
0000
0000
0000
0010
0000
0000
0000
,  // measure 25
0100
0000
0000
0010
0100
0000
0000
0010
0100
0000
0000
0001
0000
0000
1000
0000
,  // measure 26
0020
0000
0000
0000
0000
0000
1030
0100
,  // measure 27
0010
0000
0010
0000
0100
1000
0010
0100
,  // measure 28
0001
0000
0001
0000
0010
0001
1000
0010
,  // measure 29
0100
0000
0000
0010
0100
0000
0001
0000
0101
0000
0000
0000
1010
0000
0000
0000
,  // measure 30
0200
0000
0000
0000
0000
0000
0301
1000
,  // measure 31
0100
0000
0010
0000
0100
1000
0010
0100
,  // measure 32
0001
0000
1000
0000
0001
0010
0001
0100
,  // measure 33
0010
0000
0000
0100
0010
0000
1000
0000
0001
0000
0000
0000
0001
0000
1000
0000
,  // measure 34
0100
0001
0000
0001
0100
1000
0000
0000
,  // measure 35
0001
0000
1000
0000
0010
0000
1000
0001
,  // measure 36
0100
1000
0000
1000
0100
0001
0000
0000
,  // measure 37
0100
0000
0001
0000
0000
1000
0000
0000
0100
0000
0000
0010
0000
0000
0100
0000
,  // measure 38
2001
0000
3020
0000
,  // measure 39
0230
0000
0000
0000
0301
0010
0100
1000
,  // measure 40
0002
0000
0203
0000
,  // measure 41
0320
0000
0000
0000
0130
0100
0000
0000
,  // measure 42
2002
3003
0200
0000
,  // measure 43
0000
0000
0000
0000
0310
0000
1000
0000
0100
0000
0000
1000
0100
0000
0010
0000
,  // measure 44
0001
0000
0000
0000
0100
0000
0010
0000
1000
0000
0000
0010
1000
0000
0100
0000
,  // measure 45
0010
0000
0000
0000
0001
0000
0010
0000
0100
0000
0000
0010
0100
0000
1000
0000
,  // measure 46
0001
0000
0000
0100
0000
0000
0001
0000
0020
0000
0000
0000
0000
0000
0000
0000
,  // measure 47
0000
0000
0000
0000
0130
0000
1000
0000
0001
0000
0000
1000
0001
0000
0100
0000
,  // measure 48
0010
0000
0000
0000
1000
0000
0100
0000
0010
0000
0000
0100
0010
0000
0001
0000
,  // measure 49
0100
0000
0000
0000
0001
0000
1000
0000
0010
0000
0000
1000
0010
0000
0100
0000
,  // measure 50
0001
0000
0100
0010
1000
0100
0000
0010
,  // measure 51
1000
0000
0100
0000
0010
0000
0001
0000
0100
0000
0000
0001
0100
0000
0010
0000
,  // measure 52
1000
0100
0000
0010
0001
0100
0000
0010
,  // measure 53
0001
0000
0100
0000
0000
0000
0000
0000
0000
0000
0100
0000
0000
0001
0000
0000
,  // measure 54
0100
0000
0000
0010
0000
0000
1000
0000
0010
0000
0001
0000
0000
0000
0001
0000
,  // measure 55
0010
0000
1000
0000
0100
0000
0010
0000
0001
0000
0000
0010
0001
0000
0100
0000
,  // measure 56
0010
1000
0000
0001
0010
1000
0000
1000
,  // measure 57
0010
0000
0001
0000
0000
0000
0100
0000
0000
0000
0001
0000
0000
1000
0000
0000
,  // measure 58
0010
0000
0000
0100
0000
0000
0010
0000
1002
0000
0000
0000
0000
0000
0000
0000
,  // measure 59
2003
0200
0000
0000
,  // measure 60
3300
0000
0000
0000
;

//---------------dance-double - ----------------
#NOTES:
     dance-double:
     :
     Easy:
     3:
     0.209,0.237,0.134,0.125,0.000:
00000000
00000000
00000000
00000000
,
00000000
00000000
00000000
00000000
,
00000000
00000000
00000000
00000000
,
00000000
00000000
00000000
00000000
,
01000000
00000000
00000000
00000000
,
00001000
00000000
00000000
00000000
,
00010000
00000000
00000000
00000000
,
00000010
00000000
00000000
00000000
,
00002002
00000000
00000000
00003003
,
00000001
00000100
00000010
00000010
,
00001000
00000100
00000010
00000000
,
00000100
00010000
00001000
00000000
,
00010000
00001000
01000000
00000000
,
00010000
00100000
01000000
01000000
,
10000000
00100000
01000000
00000000
,
00100000
10000000
00010000
00100000
,
00002000
00000000
00023000
00000000
,
00030100
00001000
00000100
00000000
,
00001000
00000010
00001000
00000000
,
00000010
00000100
00000010
00001000
,
00000100
00000000
00010000
00000000
,
00001000
01000000
00001000
00000000
,
01000000
00010000
01000000
00000000
,
00010000
00100000
00010000
10000000
,
01000000
01000000
10010000
00000000
,
10000000
00000000
00010000
00000000
,
01000000
00100000
10000000
00000000
,
00100000
10000000
00010000
00000000
,
10000000
00010000
00100000
00000000
,
00001000
00000000
00010000
00000000
,
00000100
00001000
00000010
00000000
,
00001000
00000010
00000100
00000000
,
00000010
00000100
00000001
00000000
,
00001001
00000000
00001001
00000000
,
00000010
00000000
00000100
00000000
,
00001001
00000000
00001001
00000000
,
00000010
00000000
00010000
00000000
,
00002000
00000000
00023000
00000000
,
00032000
00000000
00203000
00000000
,
02300000
00000000
23000000
00000000
,
30020000
00000000
20000000
00000000
,
30030000
00000000
10000000
00000000
,
00010000
00000000
00100000
01000000
,
10000000
00000000
01000000
10000000
,
00010000
00000000
10000000
00010000
,
01000000
00000000
00001000
00000000
,
00010000
00000000
00000010
00001000
,
00000001
00000000
00001000
00000001
,
00000100
00000000
00000001
00000100
,
00000010
00000000
00001001
00000000
,
00001001
00000000
00000010
00010000
,
00001000
00000000
00011000
00000000
,
00011000
00000000
00100000
00000000
,
01000000
00000000
10010000
00000000
,
10010000
00000000
01000000
00001000
,
00010000
00000000
00011000
00000000
,
00011000
00000000
00000100
00000000
,
00000010
00000000
00002002
00000000
,
00000000
00000000
00000000
00000000
,
00003003
00000000
00000000
00000000
;

//---------------dance-double - ----------------
#NOTES:
     dance-double:
     :
     Medium:
     5:
     0.271,0.316,0.196,0.116,0.000:
00000000
00000000
00000000
00000000
,
00000000
00000000
00000000
00000000
,
00000000
00000000
00000000
00000000
,
00000000
00000000
00000000
00000000
,
10000000
00000000
00000000
00000000
,
00010000
00000000
00000000
00000000
,
00001000
00000000
00000000
00000000
,
00000001
00000000
00000000
00000000
,
00002002
00000000
00000000
00003003
,
00000001
00000000
00000100
00000000
00000010
00001000
00000010
00000000
,
00001000
00000100
00010100
00000000
,
00010000
00000000
00001000
01000000
00001000
00000000
00100000
00000000
,
00010000
00000000
10000000
00010000
10000000
00000000
00000000
00000000
,
00010000
00000000
00100000
00000000
01000000
10000000
01000000
00000000
,
00100000
00001000
00011000
00000000
,
00010000
00000100
00000010
00000001
,
00002000
00000000
00003002
00000000
,
00000103
00000000
00000000
00000001
00000100
00000000
00000000
00000100
,
00001000
00000000
00000000
00001000
00010000
00000000
00000000
00000000
,
00010000
00000000
00000000
00010000
00100000
00000000
10000000
00000000
,
00010000
00000000
10000000
00000000
,
01000000
00000000
00000000
10000000
01000000
00000000
00000000
01000000
,
00010000
00000000
00000000
00010000
00001000
00000000
00000000
00000000
,
00001000
00000010
00000001
00000100
,
00000010
00001000
00001001
00000000
,
00000001
00000000
00000100
00000000
00000001
00000000
00000010
00000100
,
00001000
00000000
00000100
00000000
00000100
00000000
00010000
00001000
,
00010000
00000000
00001000
00000000
00001000
00000000
00100000
00010000
,
01000000
01000000
10010000
10010000
,
10000000
00000000
01000000
00000000
10000000
00000000
00100000
01000000
,
00010000
00000000
01000000
00000000
01000000
00000000
00001000
00010000
,
00001000
00000000
00010000
00000000
00010000
00000000
00000010
00001000
,
00000100
00000100
00001001
00000000
,
00000011
00000000
00001100
00000000
,
00010000
00000000
00001000
00000000
,
01010000
00000000
10100000
00000000
,
00010000
00000000
10000000
00000000
,
02000000
00000000
03200000
00000000
,
00302000
00000000
00000000
00000000
00013000
00001000
00010000
00001000
,
00020000
00000000
00030200
00000000
,
00002300
00000000
00000002
00000000
,
00003003
00000000
00000001
00000010
,
00000100
00000000
00001000
00000010
00000100
00000000
00000001
00000000
,
00000100
00000001
00000100
00000001
00001000
00000000
00000010
00000000
,
00010000
00001000
00010000
00001000
01000000
00000000
00100000
00000000
,
10010000
00000000
10000000
01000000
,
00100000
00000000
00010000
01000000
00100000
00000000
10000000
00000000
,
01000000
10000000
01000000
10000000
00010000
00000000
01000000
00000000
,
00001000
00010000
00001000
00010000
00000100
00000000
00000010
00000000
,
00001001
00000000
00001010
00000000
,
00000011
00000000
00000010
00000100
,
00001000
00000000
00001100
00000000
,
00010100
00000000
00010000
00000000
,
00001000
00000000
01010000
00000000
,
11000000
00000000
10000000
00100000
,
01000000
00000000
01010000
00000000
,
01001000
00000000
00010000
00000000
,
00001000
00000000
00022000
00000000
,
00000000
00000000
00000000
00000000
,
00033000
00000000
00000000
00000000
;

//---------------dance-double - ----------------
#NOTES:
     dance-double:
     :
     Hard:
     7:
     0.413,0.421,0.071,0.125,0.152:
00000000
00000000
00000000
00000000
,
00000000
00000000
00000000
00000000
,
00000000
00000000
00000000
00000000
,
00000000
00000000
00000000
00000000
,
00000000
00000000
00010000
00000000
00000000
01000000
00000000
00000000
10000000
00000000
00000000
01000000
00000000
00000000
00010000
00000000
,
00000000
00000000
00100000
00000000
00000000
00001000
00000000
00000000
00001000
00000000
00000000
00010000
00000000
00000000
00000010
00000000
,
00000000
00000000
00001000
00000000
00000000
00000100
00000000
00000000
00000001
00000000
00000000
00000100
00000000
00000000
00001000
00000000
,
00000000
00000000
00000010
00000000
00000000
00010000
00000000
00000000
00010000
00000000
00000000
00001000
00000000
00000000
01000000
00000000
,
00200000
00000000
00000000
00300000
,
10000000
00010000
10000000
01000000
00100000
00001000
00010000
00000010
,
00001000
00000000
00000000
00000100
00000000
00000000
00000010
00000000
00000001
00000000
00000000
00000000
00000100
00000000
00000000
00000000
,
00000010
00000000
00000000
00010000
00000000
00000000
00001000
00000000
01000000
00000000
00000000
00000000
00011000
00000000
00000000
00000000
,
00100000
00000000
00000000
00001000
00000000
00000000
00010000
00000000
00000010
00000000
00000000
00000000
00000100
00000000
00000000
00000000
,
00000001
00001000
00000001
00000100
00000010
00010000
00001000
01000000
,
00010000
00000000
00000000
00100000
00000000
00000000
01000000
00000000
10000000
00000000
00000000
00000000
00100000
00000000
00000000
00000000
,
01000000
00000000
00000000
00001000
00000000
00000000
00010000
00000000
00000100
00000000
00000000
00000000
00000010
00000000
00000000
00000000
,
00002001
00000000
00003002
00000000
,
00000103
00000000
00000001
00000100
00000010
00000000
00000010
00001000
,
00000100
00000000
00001000
00000100
00010000
00000000
00011000
00000000
,
00001000
00000000
00000000
00000000
00010000
00000000
00001000
00000000
01000000
00000000
00000000
00100000
00000000
00000000
10000000
00000000
,
00010000
00100000
01000000
10010000
,
01000000
00000000
10000000
01000000
00100000
00000000
00100000
00010000
,
01000000
00000000
00010000
01000000
00001000
00000000
00010000
00000000
,
00000010
00000000
00000000
00001000
00000000
00000000
00000100
00000000
00000010
00000000
00000000
00000000
00000001
00000000
00000000
00000000
,
00001000
00000000
00000000
00000100
00010000
00000000
00000000
00000100
00010000
00000000
00000000
00001000
00000000
00000000
01000000
00000000
,
00010000
00000000
10000000
00000000
01000000
00000000
00100000
01000000
,
10000000
00000000
00010000
01000000
00010000
00100000
00001000
00010000
,
00000010
00000000
00001000
00000100
00001000
00000010
00000100
00000001
,
00001000
00000000
00000000
00000001
00001000
00000000
00000100
00000000
00001100
00000000
00000000
00000000
00010100
00000000
00000000
00000000
,
00001000
00000000
00000001
00000000
00000100
00000000
00000010
00000100
,
00000001
00000000
00001000
00000010
00001000
00000100
00010000
00001000
,
00100000
00000000
00010000
01000000
00010000
00100000
01000000
10000000
,
00010000
00000000
00000000
10000000
00010000
00000000
01000000
00000000
00100000
00000000
00000000
00000000
00000000
00000000
01000000
00000000
,
01000000
01000000
00000000
00001000
00001000
00001000
00000000
00000000
,
00010000
00000000
00001000
00000000
00010000
00000000
00000010
00001000
,
00001000
00001000
00000000
00000001
00000001
00000001
00000000
00000000
,
00000010
00000000
00000100
00000000
00000000
00001000
00000000
00000000
00000001
00000000
00000000
00000100
00000000
00000000
00000010
00000000
,
00020000
00000000
00032000
00000000
,
02003000
00000000
00000000
00000000
03100000
10000000
00010000
00100000
,
00002000
00000000
00023000
00000000
,
00030200
00000000
00000310
00000000
,
00002002
00000000
00000000
00003003
00000001
00000000
00000100
00000000
,
00000010
00000000
00000000
00000000
00001000
00000000
00000100
00000000
00000010
00000000
00000000
00000100
00000010
00000000
00000001
00000000
,
00001000
00000000
00000100
00000000
00010000
00000000
00001000
00000000
01000000
00000000
00000000
00001000
01000000
00000000
00010000
00000000
,
00100000
00000000
01000000
00000000
10000000
00000000
00010000
00000000
10000000
00000000
00000000
00010000
10000000
00000000
01000000
00000000
,
00100000
01000000
10000000
00100000
,
01000000
00000000
00000000
00000000
00010000
00000000
00100000
00000000
01000000
00000000
00000000
00100000
01000000
00000000
10000000
00000000
,
00010000
00000000
01000000
00000000
00001000
00000000
00010000
00000000
00000100
00000000
00000000
00010000
00000100
00000000
00001000
00000000
,
00000010
00000000
00000100
00000000
00000001
00000000
00001000
00000000
00000001
00000000
00000000
00001000
00000001
00000000
00000100
00000000
,
00000010
00000000
00001000
00000100
00000100
00000100
00000000
00010000
,
00010000
00000000
00010000
00000000
00001000
00000000
01000000
00000000
00010000
00000000
00000000
10000000
00010000
00000000
00100000
00000000
,
01000000
10000000
00010000
00100000
00100000
00100000
00000000
00001000
,
00001000
00000000
00001000
00000000
00000000
00000000
00010000
00000000
00000010
00000000
00000100
00000000
00000000
00000001
00000000
00000000
,
00001000
00000000
00000000
00000100
00000000
00000000
00010000
00000000
00010000
00000000
00010000
00000000
00000000
00000000
00000010
00000000
,
00000010
00000000
00000010
00000000
00000100
00000000
00000001
00000000
00001000
00000000
00000000
00000001
00001000
00000000
00000010
00000000
,
00010000
00001000
01000000
00001000
00001000
00001000
00000000
00100000
,
00100000
00000000
00100000
00000000
00000000
00000000
01000000
00000000
00000000
00000000
10000000
00000000
00000000
00010000
00000000
00000000
,
00100000
00000000
00000000
00001000
00000000
00000000
01000000
00000000
00012000
00000000
00000000
00000000
00000000
00000000
00000000
00000000
,
00023000
00000200
00000000
00000000
,
00030300
00000000
00000000
00000000
;
