#TITLE:Collider;
#SUBTITLE:;
#ARTIST:Cyber Snake;
#TITLETRANSLIT:;
#SUBTITLETRANSLIT:;
#ARTISTTRANSLIT:;
#GENRE:;
#CREDIT:;
#MENUCOLOR:;
#METERTYPE:DDR;
#BANNER:Collider-bn.png;
#BACKGROUND:Collider-bg.png;
#LYRICSPATH:Collider.lrc;
#CDTITLE:DDR Encore 2.png;
#MUSIC:Collider.mp3;
#OFFSET:-0.008;
#SAMPLESTART:65.080;
#SAMPLELENGTH:6.800;
#SELECTABLE:YES;
#LISTSORT:;
#BPMS:0.000=140.000,16.000=280.000,48.000=560.000,112.000=140.000,120.000=280.000,152.000=140.000,184.000=280.000,216.000=70.000,224.000=105.000,236.000=140.000,252.000=280.000,436.000=140.000,439.000=280.000;
#STOPS:;
#BGCHANGES:;
#ATTACKS:;

//---------------dance-single - Spork!----------------
#NOTES:
     dance-single:
     Spork!:
     Beginner:
     3:
     0.202,0.381,0.035,0.000,0.000:
0000
0000
0000
0000
,
0000
0000
0000
0000
,
0000
0000
0000
0000
,
0000
0000
0000
0000
,
0001
0000
0000
0000
,
0100
0000
0001
0000
,
0010
0000
0000
0000
,
0100
0000
1000
0000
,
0010
0000
0000
0000
,
0100
0000
0001
0000
,
1000
0000
0000
0000
,
0100
0000
1000
0000
,
0001
0000
0000
0000
,
0100
0000
0000
0000
,
1000
0000
0000
0000
,
0000
0000
0000
0000
,
1000
0000
0000
0000
,
0100
0000
0000
0000
,
0001
0000
0000
0000
,
0000
0000
0000
0000
,
1000
0000
0000
0000
,
0100
0000
0000
0000
,
0001
0000
0000
0000
,
0000
0000
0000
0000
,
0001
0000
0000
0000
,
0100
0000
0000
0000
,
1000
0000
0000
0000
,
0000
0000
0000
0000
,
0001
0000
0000
0001
,
1000
0000
0001
0000
,
1000
0000
0010
0000
,
1000
0000
0010
0000
,
1000
0000
0010
0000
,
1000
0000
0010
0000
,
0100
0000
0001
0000
,
0100
0000
0001
0000
,
0100
0000
0001
0000
,
0100
0000
0001
0000
,
1000
1000
0000
0100
,
0000
0010
0000
0001
,
0001
0001
0000
0100
,
0000
0010
0000
1000
,
1000
1000
0000
0010
,
0000
0100
0000
0001
,
0001
0001
0000
0010
,
0000
0100
0000
1000
,
1000
0000
0100
0000
,
0010
0000
0000
0000
,
0010
0000
0001
0000
,
0100
0000
0000
0000
,
0100
0000
0010
0000
,
1000
0000
0000
0000
,
0001
0000
1000
0000
,
0001
0000
0000
0000
,
1000
0000
1000
0000
,
0001
0000
0001
0000
,
0100
0000
0000
0100
,
0000
0000
0010
0000
,
0000
0010
0000
0000
,
1000
0000
1000
0000
,
1000
0000
1000
0000
,
0001
0000
0001
0000
,
0001
0000
0001
0000
,
1000
0000
0000
0000
,
0100
0000
0000
0000
,
0010
0000
0100
0000
,
0010
0000
0010
0000
,
0001
0000
0000
0000
,
0100
0000
0000
0000
,
0010
0000
0100
0000
,
0010
0000
0000
0000
,
1000
0000
0000
0000
,
0001
0000
0000
0000
,
0010
0000
0001
0000
,
0100
0000
0100
0000
,
0001
0000
0000
0000
,
1000
0000
0000
0000
,
0100
0000
1000
0000
,
0010
0000
0000
0000
,
1000
0000
0000
0000
,
0100
0000
0000
0000
,
0010
0000
0000
0000
,
0001
0000
0000
0000
,
0100
0000
0000
0010
,
0000
0010
0010
0000
,
0010
0000
0000
0100
,
0000
0100
0100
0000
,
0001
0000
0000
0000
,
0010
0000
0000
0000
,
0100
0000
0000
0000
,
1000
0000
0000
0000
,
0010
0000
0000
0100
,
0000
0100
0100
0000
,
0000
0000
0010
0000
,
0000
0000
1000
0000
,
0001
0000
0000
0000
,
0000
0000
0001
0000
,
1000
0000
0000
0000
,
0100
0000
0000
0000
,
1000
0000
0010
0000
,
1000
0000
0010
0000
,
0100
0000
0001
0000
,
0100
0000
0001
0000
,
1000
0000
0000
0000
,
0000
0000
1000
0000
,
0001
0000
0000
0000
,
0010
0000
0000
0000
,
0010
0000
0000
0100
,
0000
0100
0100
0000
,
1001
0000
0000
1001
,
1001
1001
0000
0000
;

//---------------dance-single - Spork!----------------
#NOTES:
     dance-single:
     Spork!:
     Easy:
     5:
     0.348,0.524,0.086,0.181,0.004:
0000
0000
0000
0000
,
0000
0000
0000
0000
,
0000
0000
0000
0000
,
0000
0000
0000
0000
,
0001
0000
0100
0000
,
0001
0000
0001
0000
,
1000
0000
0100
0000
,
1000
0000
1000
0000
,
0010
0000
1000
0000
,
0010
0000
0010
0000
,
0100
0000
0001
0000
,
0100
0000
0100
0000
,
0001
0000
0000
0000
,
0010
0000
0000
0000
,
0100
0000
0000
0000
,
0100
0000
0000
0000
,
1000
0000
0000
0000
,
0010
0000
0000
0000
,
0100
0000
0000
0000
,
0100
0000
0000
0000
,
0001
0000
0000
0000
,
0100
0000
0000
0000
,
0010
0000
0000
0000
,
0010
0000
0000
0000
,
1000
0000
0000
0000
,
0010
0000
0000
0000
,
0100
0000
0000
0000
,
0100
0000
0000
0000
,
0002
0000
0000
0023
,
0200
0030
2300
0000
,
3001
0000
0101
0000
,
0001
0000
1001
0000
,
0001
0000
0011
0000
,
0001
0000
1000
0001
,
1000
0000
1100
0000
,
1000
0000
1001
0000
,
1000
0000
1010
0000
,
1000
0000
0001
1000
,
0001
0000
0100
0000
0000
0010
0000
1000
,
0000
1000
0010
0000
0100
0000
0001
0000
,
1000
0000
0100
0000
0000
0010
0000
0001
,
0000
0001
0010
0000
0100
0000
1000
0000
,
0001
0010
0100
0010
,
0001
0100
0010
0100
,
0001
1000
0010
1000
,
0100
0010
0100
1000
,
0001
0000
0100
0000
,
1000
0000
1000
0000
,
0100
0000
0001
0000
,
1000
0000
1000
0000
,
0100
0000
0001
0000
,
0100
0000
0100
0000
,
1000
0000
0001
0000
,
1000
0000
0001
0000
,
2000
3000
0200
0300
,
0020
0030
0002
0003
,
1000
0000
1000
0010
0000
0000
1000
0000
,
0010
0000
0100
0000
0000
0001
0000
0000
1000
0000
0000
0000
0000
0000
0001
0000
,
0000
0000
0010
0000
0000
0100
0000
0000
,
1000
0100
0010
0001
,
0100
0000
0010
0000
1000
0000
0001
0100
,
0001
0000
1000
0100
1000
0000
0100
0000
,
1000
0001
1000
0001
2000
0000
0000
0000
,
3001
0000
0100
0000
,
0010
0000
0010
0000
,
1000
0000
0100
0000
,
0100
0000
1000
0001
,
1000
0000
0001
1000
,
0001
0000
0010
0000
,
0100
0000
1000
0001
,
1000
0000
0000
0000
,
1000
0000
0010
0000
,
0100
0000
0100
0000
,
0001
0000
0010
0000
,
0010
0000
0001
1000
,
0001
0000
1000
0001
,
1000
0000
0010
0000
,
0100
0000
0001
1000
,
0001
0000
0000
0000
,
2000
0000
3000
0010
,
0100
0000
0000
0100
0000
0000
0100
0000
,
0001
0010
0100
1000
,
0100
0010
0001
1000
,
0002
0000
0003
0100
,
0000
0100
0010
0000
,
2000
0000
3000
0100
,
0000
0100
0010
0000
,
0001
0000
0100
0000
,
0010
0000
1000
0000
,
0001
0000
0010
0000
,
0100
0000
1000
0000
,
0002
0000
0003
0001
,
0000
0001
1000
0000
,
0000
1000
0010
0100
,
0001
1000
0100
0020
,
0000
0000
0000
0030
,
0001
0000
0001
0000
,
2000
0000
3000
0020
,
0000
0030
0100
0000
,
0001
1000
0001
1000
,
0010
0100
0010
0100
,
0001
0010
0100
1000
,
0001
0010
0100
1000
,
0002
0000
0003
1000
,
0001
0100
0010
0010
,
2000
0000
3000
0001
,
1000
0000
0000
0001
,
2000
0000
3000
1000
,
0000
1000
0001
0000
,
2002
0000
3003
1001
,
1001
1001
0000
0000
;

//---------------dance-single - Spork!----------------
#NOTES:
     dance-single:
     Spork!:
     Medium:
     7:
     0.476,0.809,0.104,0.345,0.078:
0000
0000
0000
0000
,
0000
0000
0000
0000
,
0000
0000
0000
0000
,
0000
0000
0000
0000
,
0010
1000
0010
0000
,
0100
0000
0000
0001
0000
0000
1000
0000
,
0010
0100
0010
0000
,
1000
0000
0000
0100
0000
0000
0010
0000
,
0001
1000
0001
0000
,
0010
0000
0000
0010
0000
0000
0100
0000
,
1000
0001
1000
0000
,
0010
0000
0000
0010
0000
0000
1000
0000
,
0001
0000
0000
0000
,
0010
0000
0000
0000
,
0100
0000
0000
0000
,
1100
0000
0000
0000
,
0010
0000
0000
0000
,
0100
0000
0000
0000
,
1000
0000
0000
0000
,
1001
0000
0000
0000
,
1000
0000
0000
0000
,
0010
0000
0000
0000
,
0100
0000
0000
0000
,
0101
0000
0000
0000
,
0010
0000
0000
0000
,
0100
0000
0000
0000
,
0001
0000
0000
0000
,
1001
0000
0000
0000
,
0002
0000
0000
0023
,
0200
0030
2300
0000
,
3001
0010
0100
0000
,
0010
0001
0100
0000
,
1000
0100
0010
0000
,
0100
1000
0010
0000
,
0001
0100
0010
0000
,
0001
0010
0100
0000
,
1000
0010
0100
0000
,
1000
0100
0010
0000
,
0001
0000
1000
0000
0100
1000
0010
0000
,
0010
1000
0100
0000
0110
0000
0000
0000
,
1000
0000
0001
0000
0010
0001
0100
0000
,
0100
0001
0010
0000
0110
0000
0000
0000
,
1000
0100
0010
0001
,
0010
0100
1000
0000
,
1001
0000
0100
0001
0100
0010
1000
0000
,
0100
1000
0100
0010
0001
0000
0001
0000
,
1000
0010
1000
0010
,
1000
0000
1001
0000
,
0001
0010
0001
0010
,
0001
0010
0100
1000
,
0001
0100
0001
0100
,
0001
0000
1001
0000
,
1000
0100
1000
0100
,
1000
0100
0010
0001
,
2000
3010
0020
0130
,
0200
0000
0000
0000
0301
0000
0000
0000
0002
0000
0000
0000
1003
0000
0000
1000
,
0001
0000
0000
0000
0000
0000
0100
0000
0000
0001
0000
0000
0100
0000
0000
0001
0000
0000
1000
0000
0000
0100
0000
0000
0010
0000
0000
0000
0000
0000
0001
0000
,
0000
0100
0000
0000
0010
0000
0000
0000
0000
0000
0100
0000
0000
0001
0000
0000
0100
0000
0000
0000
0000
0000
0010
0000
0000
1000
0000
0000
0010
0000
0000
0000
,
0000
0000
1000
0000
0000
1000
0000
0000
0001
0000
0000
1000
0000
0000
0001
0000
0000
1000
0000
0000
0010
0000
0000
0000
0000
0000
0010
0000
0000
0000
0000
0000
,
2000
0000
3100
1000
0100
1000
0001
0100
,
0020
0000
1030
0100
0020
0000
0130
1000
,
0200
0000
0310
0001
0020
0000
0031
0001
,
1000
0001
1000
0001
0200
0000
0000
0000
,
0301
0000
0100
0000
,
0010
0000
1000
0001
,
0100
0000
0100
0001
,
1000
0000
0001
0010
,
1000
0000
0001
0100
,
1000
0000
0010
0100
,
0001
1000
0100
0010
,
0100
0000
0000
0100
,
1000
0000
0010
0100
,
0001
0100
0001
1000
,
0010
0000
0010
1000
,
0001
0000
1000
0100
,
0001
0000
1000
0010
,
0001
0000
0100
0010
,
1000
0001
0010
0100
,
0010
0000
0000
0000
,
0002
0000
0003
1000
,
0010
0000
0000
0100
0000
0000
0001
0000
,
1000
1000
0001
1000
,
0001
0000
0001
1000
0001
1000
0001
0000
,
2000
0000
0000
3020
,
0000
0230
0002
0300
,
1003
0010
0100
0002
,
0000
2003
0200
3000
,
0310
0100
0010
0001
,
1000
0010
0100
0010
,
1000
0010
0100
0001
,
1000
0100
0010
0001
,
0002
0000
0000
0203
,
0000
0320
2000
0030
,
3000
0001
1000
0100
,
1000
0001
0010
0200
,
0000
0000
0310
0000
,
0002
0000
2003
0000
,
3200
0000
0300
2000
,
0000
0000
3002
0000
,
1003
0010
0100
1000
,
0010
0100
0010
0010
,
0001
0010
0100
0001
,
0010
0100
0010
0010
,
0002
0000
0000
1003
,
0100
0000
0010
0000
0001
1000
0001
1000
,
0002
0000
0000
0000
0003
0000
1000
0001
,
2000
0000
3000
0010
,
0200
0000
0000
0302
,
0000
2003
0020
3000
,
0230
0000
0301
1001
,
0110
1001
0000
0000
;

//---------------dance-single - Spork!----------------
#NOTES:
     dance-single:
     Spork!:
     Hard:
     9:
     0.574,0.857,0.276,0.302,0.086:
0000
0000
0000
0000
,
0000
0000
0000
0000
,
0000
0000
0000
0000
,
0000
0000
0000
0000
,
1000
0100
0010
0001
,
1000
0000
0000
1000
0000
0010
1000
0000
,
0001
0010
0100
1000
,
0001
0000
0000
0001
0000
0100
0001
0000
,
1000
0010
0100
0001
,
1000
0000
0000
1000
0000
0100
1000
0000
,
0001
0100
0010
1000
,
0001
0000
0000
0001
0000
0010
0001
0000
,
1000
0000
1000
0000
,
1000
0000
1000
0000
,
1000
0000
0000
0010
,
0000
0000
0100
0000
,
0001
0000
0001
0000
,
0001
0000
0001
0000
,
0001
0000
0000
0010
,
0000
0010
0001
0000
,
0100
0000
0100
0000
,
0100
0000
0100
0000
,
0100
0000
0000
0001
,
0000
0000
1000
0000
,
0100
0000
0100
0000
,
0100
0000
0100
0000
,
0100
0000
0000
1000
,
0000
1000
0001
0000
,
2000
0000
0000
3020
,
0200
0030
0302
0000
,
1003
0000
0000
1000
0100
0000
0000
0100
,
0010
0000
0000
0010
0001
0000
0000
0001
,
0010
0000
0000
0010
0100
0000
0000
0100
,
0010
0000
0000
0010
0001
0000
0001
1000
,
0001
0000
0000
0001
0100
0000
0000
0100
,
0010
0000
0000
0010
1000
0000
0000
1000
,
0010
0000
0000
0010
0100
0000
0000
0100
,
0010
0000
0000
0010
1000
0000
1000
0001
,
1000
0000
0010
1000
0100
0010
0001
0010
,
0100
1000
0010
0100
0001
0000
1001
0100
,
0001
0000
0010
0001
0100
0010
1000
0010
,
0100
0001
0010
0100
1000
0000
1001
0100
,
1000
0010
0000
0100
0001
0010
0000
0100
,
1000
0010
0000
0010
0100
0000
0110
0000
,
1001
0000
1000
0100
0001
0100
1000
0000
,
0001
0100
1000
0100
0001
0000
1001
0000
,
1000
0100
1000
0100
,
0010
0000
0000
0010
0000
0000
0010
0000
,
0001
0100
0001
0100
,
0010
0000
0000
0010
0000
0010
0100
0000
,
0001
0010
0001
0010
,
0100
0000
0000
0100
0000
0000
0100
0000
,
1000
0010
1000
0010
,
0100
0000
0000
0100
0000
0100
0010
0000
,
2010
3100
0012
0103
,
0210
0000
0000
0000
0301
0000
0000
0000
0120
0000
0000
0000
1030
0000
0000
0001
,
0010
0000
0000
0000
0000
0000
0010
0000
0000
0100
0000
0000
0010
0000
0000
0100
0000
0000
1000
0000
0000
0010
0000
0000
0100
0000
0000
0000
0000
0000
0100
0000
,
0000
0001
0000
0000
0010
0000
0000
0000
0000
0000
0010
0000
0000
0001
0000
0000
0010
0000
0000
0000
0000
0000
0100
0000
0000
1000
0000
0000
0100
0000
0000
0000
,
0000
0000
0010
0000
0000
0100
0000
0000
1000
0000
0000
0010
0000
0000
0100
0000
0000
0001
0000
0000
0010
0000
0000
0000
0000
0000
0010
0000
0000
0000
0000
0000
,
0011
0000
0000
0000
0100
0000
0010
0100
0010
0000
0100
0000
1000
0000
0010
0000
,
0100
0000
0000
0000
0100
0000
0001
0000
1000
0000
0000
0000
0010
0000
0100
0010
,
0100
0000
0010
1000
0100
0000
0100
0010
,
0001
0100
0010
1000
0002
0000
0000
1000
,
1003
0000
0010
1000
,
0010
0100
0001
0010
,
0200
0000
1300
0010
,
0200
0000
0301
0010
,
0011
0010
0100
1000
,
1020
0000
1030
0100
,
1100
0100
0010
0001
,
0201
0000
0300
0001
,
0002
0000
0013
0001
,
0010
0100
1000
0010
,
0200
0000
0301
0010
,
0200
0000
1300
0010
,
0101
1000
0001
0010
,
2100
0000
3001
0100
,
1010
0001
1000
0100
,
0012
0000
0003
0000
,
2000
0000
0000
3010
,
0100
0000
0000
0001
0000
0000
0010
0000
,
0001
0001
1000
1000
,
0001
1000
0001
1000
0001
1000
0001
0000
,
2001
0000
0000
3020
,
0000
0230
0002
0300
,
1003
0100
0001
0200
,
0000
2300
0002
3000
,
1003
0010
0100
0001
,
0010
1000
0010
0001
,
0100
0010
1000
0100
,
0001
0100
1000
0001
,
1002
0000
0000
0203
,
0000
0320
2000
0030
,
3000
0001
0100
0010
,
0100
0001
1000
0100
,
0010
0000
1001
0000
,
0100
0000
1001
0000
,
0010
0000
0101
0000
,
0010
0000
1100
0000
,
0001
0100
0001
0100
0001
0000
0100
0010
,
0100
0010
0100
0000
0001
1000
0001
0000
,
1000
0100
1000
0100
1000
0000
0100
0010
,
0100
0010
0100
0000
1000
0001
1000
0000
,
0100
0000
1001
0000
,
0010
0001
1001
0000
,
0100
0000
0011
0000
,
0100
0000
1010
0000
,
2000
0000
0000
3002
,
0000
0203
0010
0300
,
2002
0000
0000
3003
0100
0000
0011
0000
,
1100
1001
0000
0000
;

//---------------dance-single - Spork!----------------
#NOTES:
     dance-single:
     Spork!:
     Challenge:
     11:
     0.795,1.000,0.138,0.380,0.199: // measure 1
0000
0000
0000
0000
,  // measure 2
0000
0000
0000
0000
,  // measure 3
0000
0000
0000
0000
,  // measure 4
0000
0000
0000
0000
,  // measure 5
1000
0100
1000
0001
,  // measure 6
0100
0000
0001
0010
0000
0010
0100
0010
,  // measure 7
0001
0100
0001
1000
,  // measure 8
0100
0000
1000
0010
0000
0010
0100
0010
,  // measure 9
1000
0001
0010
0001
,  // measure 10
1000
0000
0010
0100
0000
0100
0010
0100
,  // measure 11
0001
1000
0010
1000
,  // measure 12
0001
0000
0010
0100
0000
0100
0010
0100
,  // measure 13
1000
0001
1000
0001
,  // measure 14
0100
0001
0100
0001
,  // measure 15
1000
0100
0010
0001
,  // measure 16
0000
1000
0100
0010
,  // measure 17
0001
1000
0001
1000
,  // measure 18
0100
1000
0100
1000
,  // measure 19
0001
0010
0100
1000
,  // measure 20
0000
0001
0010
0100
,  // measure 21
1000
0010
1000
0010
,  // measure 22
0100
0001
0100
0001
,  // measure 23
0010
0100
0010
0100
,  // measure 24
0000
1000
0100
0010
,  // measure 25
0001
0010
0001
0010
,  // measure 26
0100
1000
0100
1000
,  // measure 27
0010
0100
0010
0100
,  // measure 28
0000
0001
0100
0010
,  // measure 29
2000
0000
0010
0010
0010
0010
3020
0100
,  // measure 30
0230
0000
0001
0001
0302
0000
1000
0000
,  // measure 31
1003
0100
1000
0100
1000
0100
1000
0100
,  // measure 32
1000
0100
1000
0100
1000
0100
1000
0100
,  // measure 33
0010
0001
0010
0001
0010
0001
0010
0001
,  // measure 34
0010
0000
0000
0001
0000
0000
0010
0000
0000
0001
0000
0000
0010
0000
0000
0001
0000
0000
0010
0000
0001
0000
1000
0000
,  // measure 35
0010
1000
0010
1000
0010
1000
0010
1000
,  // measure 36
0010
1000
0010
1000
0010
1000
0010
1000
,  // measure 37
0001
0100
0001
0100
0001
0100
0001
0100
,  // measure 38
0001
0000
0000
0100
0000
0000
0001
0000
0000
0100
0000
0000
0001
0000
0000
0100
0000
0000
0001
0000
0100
0000
0010
0000
,  // measure 39
1000
0000
0100
1000
0010
0100
0001
0010
,  // measure 40
0100
0000
0010
0000
0001
0000
0100
0000
0010
0000
1000
0000
0001
1000
0001
1000
,  // measure 41
0001
0000
0010
0001
0100
0010
1000
0100
,  // measure 42
0010
0000
0100
0000
1000
0000
0010
0000
0100
0000
0001
0000
1000
0001
1000
0001
,  // measure 43
1000
0010
1000
0100
0000
0100
1000
0010
,  // measure 44
0100
0000
0000
0001
0000
0000
1000
0000
0000
0100
0000
0000
0010
0000
0000
0000
0000
0000
0000
0000
0000
0000
0000
0000
0100
0000
0000
0010
0000
0000
0100
0000
0000
0010
0000
0000
0100
0000
0000
0000
0000
0000
0010
0000
0001
0000
1000
0000
,  // measure 45
0010
1000
0001
0010
0100
0000
0010
0000
0001
0000
1000
0000
0010
0000
0100
0001
,  // measure 46
0100
0001
1000
0010
0100
0000
0010
0000
0100
0000
0010
1000
0010
1000
0001
1000
,  // measure 47
0001
0010
0100
0010
,  // measure 48
0001
0000
1000
0010
0000
0010
1000
0010
,  // measure 49
1000
0100
0010
0100
,  // measure 50
1000
0000
0001
0010
0000
0010
0001
0010
,  // measure 51
0001
0100
1000
0100
,  // measure 52
0001
0000
0010
0001
0000
0001
0010
0100
,  // measure 53
1000
0010
0001
0010
,  // measure 54
1000
0000
0100
1000
0000
1000
0100
0010
,  // measure 55
0210
0301
0120
1030
,  // measure 56
0012
0000
0000
0000
0103
0000
0000
0000
2010
0000
0000
0000
3100
0000
0000
0010
,  // measure 57
0200
0000
0000
0000
0000
0000
1300
0000
0000
0010
0000
0000
0001
0000
0000
0010
0000
0000
1000
0000
0000
0100
0000
0000
0020
0000
0000
0000
0000
0000
0130
0000
,  // measure 58
0000
0010
0000
0000
0002
0000
0000
0000
0000
0000
1003
0000
0000
0001
0000
0000
0020
0000
0000
0000
0000
0000
0031
0000
0000
0100
0000
0000
2000
0000
0000
0000
,  // measure 59
0000
0000
3100
0000
0000
0001
0000
0000
0010
0000
0000
0100
0000
0000
0010
0000
0000
0100
0000
0000
2000
0000
0000
0000
0000
0000
3010
0000
0000
0000
0000
0000
,  // measure 60
0020
0000
0000
0000
0031
0000
0001
0100
1000
0000
0100
0000
0001
0000
0010
0000
,  // measure 61
0200
0000
0000
0000
0310
0000
0100
0000
2000
0000
0000
0000
3001
0000
0001
1000
,  // measure 62
0200
0000
1300
0010
0002
0000
0013
1000
,  // measure 63
0100
0000
0010
0000
0100
0000
0010
0000
0001
0100
0001
0100
0010
1000
0010
1000
,  // measure 64
0001
0000
0001
0010
0100
0000
0100
1000
,  // measure 65
0100
0000
0100
0010
0001
0000
1000
0000
,  // measure 66
0010
0000
0010
1000
0100
0000
0100
0000
,  // measure 67
0010
0000
0100
1000
,  // measure 68
1020
1000
0130
0001
,  // measure 69
0021
0001
0130
1000
,  // measure 70
0010
0100
0001
1000
,  // measure 71
0120
0000
0130
0001
,  // measure 72
1000
0000
1000
0100
0010
0000
0010
0001
,  // measure 73
0010
0100
0010
0001
,  // measure 74
0100
0000
0100
0001
0010
0000
0010
0000
,  // measure 75
0100
0000
0010
0001
,  // measure 76
0201
0001
0310
1000
,  // measure 77
1200
1000
0310
0001
,  // measure 78
0100
0010
1000
0001
,  // measure 79
0120
0000
0130
0000
,  // measure 80
1000
0000
0001
0100
0001
0000
0100
0010
,  // measure 81
0100
0000
0010
1000
0010
0000
0100
0001
,  // measure 82
1000
0000
1000
0100
1000
0000
0100
0010
,  // measure 83
0100
0000
0010
0001
0010
0000
0100
1000
,  // measure 84
0002
0000
0000
0023
,  // measure 85
0000
0230
2000
0300
,  // measure 86
3001
0100
0001
1000
0100
0000
0020
0000
,  // measure 87
0000
0230
2000
0300
,  // measure 88
3001
0010
0001
0010
0100
1000
0100
1000
,  // measure 89
0010
0100
0010
0100
0001
1000
0001
0001
,  // measure 90
1000
0010
1000
0010
0100
0001
0100
0001
,  // measure 91
0010
0100
0010
0100
1000
0001
1000
1000
,  // measure 92
0002
0000
0000
0203
,  // measure 93
0000
0320
2000
0030
,  // measure 94
3000
1000
0100
0010
,  // measure 95
0100
1000
0010
0100
,  // measure 96
0001
0000
0000
0000
0101
0000
0001
1000
,  // measure 97
0010
0000
0010
1000
0001
0000
0001
0010
,  // measure 98
0100
0000
0000
0000
1100
0000
1000
0001
,  // measure 99
0010
0000
0010
0001
1000
0000
1000
0010
,  // measure 100
0100
0001
1000
0100
0010
0100
0010
0100
,  // measure 101
0010
0001
0010
0001
1000
0001
1000
0001
,  // measure 102
0100
0010
0100
0010
1000
0010
1000
0010
,  // measure 103
1000
0001
1000
0001
0010
0001
0010
0100
,  // measure 104
2000
0000
3010
0100
,  // measure 105
0001
0000
0010
0000
0100
0010
0100
0010
,  // measure 106
0002
0000
0000
0000
0103
0000
0010
1000
,  // measure 107
0020
0000
0030
1000
,  // measure 108
0002
0000
0000
0023
,  // measure 109
0000
0230
1000
0300
,  // measure 110
2002
0000
0000
3003
0100
0000
1010
0000
,  // measure 111
0101
1001
0000
0000
;

//---------------dance-double - Spork!----------------
#NOTES:
     dance-double:
     Spork!:
     Challenge:
     13:
     0.870,1.000,0.484,0.242,0.246:
00000000
MM000000
00000000
00000M0M
,
00000000
M0M00000
00000000
000000MM
,
000M0000
0000M000
000M0000
0000M000
MM0M0000
00000000
0000M000
000M0000
M000000M
000M0000
0000M000
00000000
0000MM0M
000M0000
0000M000
00000000
,
M000M00M
000M0000
0000M000
000M0000
M0M0M000
00000000
000M0000
0000M000
M000000M
0000M000
000M0000
00000000
M00MM0MM
00000000
000MM000
00000000
,
00100000
01000000
00001000
00010000
,
00100000
00000000
0010M000
10000000
00000000
00100000
00010000
00000000
,
00000010
000M1000
00000100
00010000
,
1M010M00
00000000
00100000
10000000
00000000
01000000
00010000
00001000
,
00000100
00000010
00010000
00001000
,
00000100
00000000
000M0100
00000001
00000000
00000100
00001000
00000000
,
01000000
0001M000
00100000
00001000
,
00M010M1
00000000
00000100
00000001
00000000
00000010
00001000
00000000
,
00011000
00000000
00001100
00000000
,
01010000
00000000
00011000
00000000
,
M00M1001
00000000
00000010
00000001
,
00000000
00000001
00001000
00000100
,
00011000
00000000
00110000
00000000
,
00001010
00000000
00011000
00000000
,
1001M00M
00000000
00100000
10000000
,
00010000
00100000
00001000
01000000
,
00011000
00000000
00010100
00000000
,
00101000
00000000
00011000
00000000
,
11000M0M
00000000
00100000
10000000
,
00000000
10000000
00010000
00100000
,
00011000
00000000
01001000
00000000
,
00010010
00000000
00011000
00000000
,
MM000101
00000000
00000010
00000001
,
00001000
00000010
00010000
00000100
,
000M2000
000M0000
00MM0010
00MM0010
00MM0010
00MM0010
00MM3020
0MM00100
,
0MM00230
0M000000
MM000001
MM000001
MM000302
M0000000
M00M1003
00000000
,
00M0M001
00000010
00000100
00010000
00M01000
00000100
00000010
00010000
,
M0001000
00000010
000M0M01
00000010
M0001000
00010000
00001000
00001000
,
10000M00
01000000
00100000
00001000
00010M00
00100000
01000000
00001000
,
0001000M
00000000
00000000
01000000
00000000
00000000
10M0M000
00000000
00000000
01000000
00000000
00000000
0001000M
00000000
00000000
00010000
00000000
00000000
00001000
00000000
00010000
00000000
00001000
00000000
,
10000M00
00100000
01000000
00001000
00010M00
01000000
00100000
00001000
,
0001000M
00100000
1M00M000
00100000
0001000M
00001000
00010000
00010000
,
00M00001
00000100
00000010
00010000
00M01000
00000010
00000100
00010000
,
M0001000
00000000
00000000
00000100
00000000
00000000
000M00M1
00000000
00000000
00000100
00000000
00000000
M0001000
00000000
00000000
00001000
00000000
00000000
00010000
00000000
00001000
00000000
00010000
00000000
,
M0000001
00000000
00000010
00000100
00001000
00000010
00010000
00100000
,
00010000
00000000
00001000
00000000
00100000
00000000
01000000
00000000
00010000
00000000
00001000
00000000
00M10000
000010M0
00M10000
000010M0
,
00M10000
00010000
00100000
01000000
00010000
00100000
00001000
00000010
,
00001000
00000000
00010000
00000000
00000010
00000000
00000100
00000000
00001000
00000000
00010000
00000000
00001M00
0M010000
00001M00
0M010000
,
00001M00
00100000
01000000
10000000
00000000
01010000
00000000
10000000
,
00010000
00000000
00000000
00100000
00000000
00000000
00001000
00000000
00000000
00010000
00000000
00000000
M0000010
00000000
00000000
00000000
00000000
00000000
00000000
00000000
00000000
00000000
00000000
00000000
00001000
00000000
00000000
00000100
00000000
00000000
00010000
00000000
00000000
00001000
00000000
00000000
0100000M
00000000
00000000
00000000
00000000
00000000
00001000
00000000
00010000
00000000
00001000
00000000
,
00010000
00000100
00000010
00000001
00001000
00000000
00000010
00000000
00010000
00000000
00001000
00000000
00001000
00000000
00000100
00000001
,
00000100
00000001
00000100
00000000
00000010
00001000
00000001
00000000
00000010
00000000
00001000
00010000
00001000
00010000
00001000
00010000
,
00200000
1030000M
000M1000
0001M000
,
M0000001
00000000
0M000010
00M00100
M0000001
00M00100
000M1000
0M000010
,
00M00200
00M00000
M0000301
00000000
0001M000
00000000
000M1000
00000000
,
1000M00M
00000000
00100M00
010000M0
1000000M
010000M0
0001M000
00100M00
,
020000M0
000000M0
1300000M
00000000
000M1000
00000000
0001M000
00000000
,
M00M0001
00000000
00M00100
0M000010
M0000001
0M000010
000M1000
00M00100
,
0M000020
0M000000
M0000031
00000000
0001M000
00000000
000M1000
00000000
,
1000M00M
00000000
010000M0
00100M00
1000000M
00100M00
0001M000
010000M0
,
00200M00
00310000
00002000
00003010
,
00000200
00000000
00000000
00000000
00001300
00000000
00000000
00000000
00020000
00000000
00000000
00000000
01030000
00000000
00000000
00100000
,
10000000
00000000
00000000
00000000
00000000
00000000
00010000
00000000
00000000
00100000
00000000
00000000
00001000
00000000
00000000
00010000
00000000
00000000
01000000
00000000
00000000
00100000
00000000
00000000
00001000
00000000
00000000
00000000
00000000
00000000
00000100
00000000
,
00000000
00000010
00000000
00000000
00010000
00000000
00000000
00000000
00000000
00000000
01000000
00000000
00000000
00010000
00000000
00000000
00001000
00000000
00000000
00000000
00000000
00000000
00000100
00000000
00000000
00001000
00000000
00000000
00010000
00000000
00000000
00000000
,
00000000
00000000
00100000
00000000
00000000
10000000
00000000
00000000
01000000
00000000
00000000
00010000
00000000
00000000
00001000
00000000
00000000
00000100
00000000
00000000
00000001
00000000
00000000
00000000
00000000
00000000
00000001
00000000
00000000
00000000
00000000
00000000
,
M0M00021
00000000
00000000
00000000
00000130
00000000
00000010
00000001
00000100
00000000
00000001
00000000
00010000
00000000
00001000
00000000
,
0M000020
00000000
0M000000
00000000
0M000130
00000000
00010000
00000000
00002000
00000000
00000000
00000000
01003000
00000000
00010000
00100000
,
020000M0
000000M0
031000M0
00001000
00020000
00000000
00130000
01000000
,
00001000
00000000
10000000
00000000
00010000
00000000
00100000
00000000
00001000
00010000
00001000
00001000
00010000
00001000
00010000
00010000
,
00001000
00000000
MM010000
00001000
M0M00010
00000000
MM001000
00000010
,
00000001
00000000
MM000010
00000001
M0M01000
00000000
MM000001
00000000
,
00000100
00000010
MM010000
00001000
M0M00010
00000100
MM001000
00000010
,
00010000
00000000
MM001000
00010000
000010MM
01000000
00010MM0
00100000
,
01000000
00000000
10000M0M
00010000
001000MM
00001000
01000M0M
00010000
,
10000000
00000000
00100M0M
00010000
00001MM0
01000000
000010MM
00010000
,
00000100
00000010
M0M00001
00000010
MM001000
00010000
00001M0M
01000000
,
00200000
02300MM0
030020MM
M0M23000
,
00031000
00000000
000010MM
00010000
01000M0M
00000000
000100MM
01000000
,
10000000
00000000
010000MM
10000000
00010M0M
00000000
100000MM
00000000
,
00100000
01000000
000010MM
00010000
01000M0M
00100000
000100MM
01000000
,
00001000
00000000
000100MM
00001000
MM010000
00000010
0MM01000
00000100
,
00000010
00000000
M0M00001
00001000
MM000010
00010000
M0M00100
00001000
,
00000001
00000000
M0M00010
00001000
0MM10000
00000100
MM010000
00001000
,
00100000
01000000
10000M0M
01000000
00010MM0
00001000
M0M10000
00000010
,
00000200
0MM00300
MM001001
00MM0000
,
00000020
00000000
00000030
00002000
,
00003002
00000000
00000000
00000023
00000000
00000000
00000130
00000000
,
00001100
00010100
00011000
01001000
,
00010000
00100000
01000000
10000000
01000000
00100000
00010000
10000000
,
01000000
10000000
00100000
11000000
,
00010000
01010000
00011000
00000100
,
00001000
00000010
00000100
00000001
00000100
00000010
00001000
00000000
,
00000100
00011000
00001100
00000000
,
0001M000
0M000010
00M00100
000M1000
00M00100
M0000001
0M000010
000M1000
,
0M000010
00M00100
000M1000
M0000001
00M00100
M0001000
0001000M
M0010000
,
0000100M
00100M00
010000M0
0001M000
010000M0
1000000M
00100M00
0001M000
,
00100M00
010000M0
0001M000
1000000M
010000M0
0001000M
M0001000
0000100M
,
M0010000
00000010
00001000
00000101
,
00000001
00001100
00011000
01000000
,
001000M0
1010M0M0
1001M00M
001M1M00
,
M001100M
00M1M010
M00M1001
M0M00011
,
0M000100
00000000
00000001
00000100
00000010
00000000
00000001
00000100
,
0MM01000
00000000
00000100
00000010
00010000
00000000
00000100
00010000
,
00001000
00000000
00010000
00100000
10000000
00000000
01000000
10000000
,
00100MM0
00000000
10000000
01000000
00010000
00000000
00001000
00010000
,
M0001000
0M100000
M0001000
0M100000
0000001M
00010M00
0000001M
00010M00
,
M0001000
01M00000
M0001000
01M00000
0000010M
000010M0
0000010M
000010M0
,
M0000001
000M0010
M0000100
M0001000
M001000M
0010000M
0100000M
0100M000
,
1000000M
0010M000
0100000M
0001000M
M000100M
M0000010
M0000100
000M0100
,
M0000001
00000000
00000010
00000001
00001000
00000000
00000011
00000000
,
00001100
00000000
00010100
00000000
00001000
00010000
01000000
10000000
,
00010000
00000000
01000000
00100000
01000000
00000000
00100000
00010000
,
00001000
00000000
00100000
01000000
00100000
00000000
11000000
00000000
,
0011M0M0
0001M000
01000M00
M001100M
,
00M00010
0MM00110
MM000101
00000000
,
M002200M
0M0000M0
00M00M00
00000000
00030000
00000000
00M00M00
0M0000M0
M001300M
00000000
00000000
00000000
110000MM
00000000
00000000
00000000
,
0011MM00
1001M00M
00000000
00000000
;

//---------------dance-double - Spork!----------------
#NOTES:
     dance-double:
     Spork!:
     Hard:
     8:
     0.492,0.809,0.311,0.406,0.086:
00000000
00000000
00000000
00000000
,
00000000
00000000
00000000
00000000
,
00000000
00000000
00000000
00000000
,
00000000
00000000
00000000
00000000
,
00001000
00000010
00000100
00000000
,
00001001
00000000
00000000
00001001
00000000
00000000
00001001
00000000
,
00000010
00001000
00000100
00000000
,
00010000
00001000
01000000
01000000
,
00010000
00100000
01000000
00000000
,
10010000
00000000
00000000
10010000
00000000
00000000
10010000
00000000
,
01000000
00010000
00100000
00000000
,
00001000
00010000
00000100
00000100
,
00002200
00000000
00000000
00000000
,
00000000
00000000
00000000
00000000
,
00000000
00000000
00000000
00000000
,
00003300
00000000
00000000
00000000
,
00020200
00000000
00000000
00000000
,
00000000
00000000
00000000
00000000
,
00000000
00000000
00000000
00000000
,
00030300
00000000
00000000
00000000
,
02002000
00000000
00000000
00000000
,
00000000
00000000
00000000
00000000
,
00000000
00000000
00000000
00000000
,
03003000
00000000
00000000
00000000
,
02020000
00000000
00000000
00000000
,
00000000
00000000
00000000
00000000
,
00000000
00000000
00000000
00000000
,
03030000
00000000
00000000
00000000
,
00002000
00000000
00013000
00010000
00000100
00001000
00000010
00010000
,
00002000
00000000
00103000
00001000
00020000
00000000
00031000
00000000
,
01000000
00000000
01010000
00000000
,
00100000
00000000
10010000
00000000
,
10000000
01000000
00100000
00000000
,
00001000
00000000
00001000
00000000
00010000
00000000
00000010
00001000
,
00000010
00000000
00001010
00000000
,
00000100
00000000
00001001
00000000
,
00000001
00000100
00000010
00000000
,
00010000
00001000
00100000
00000000
,
00110000
00000000
10000000
01000000
00100000
00010000
00100000
01000000
,
10000000
00100000
01000000
00010000
00100000
00000000
00100000
00001000
,
00010000
00000000
00000001
00000010
00000100
00001000
00000100
00000010
,
00000001
00000100
00000010
00001000
00000100
00000000
00000100
00010000
,
00001000
00000000
00010100
00000000
00000000
01001000
00000000
00000000
,
00011000
00000000
00000000
00001001
00000000
00000000
00000110
00000000
,
00001000
00000000
00000001
00000100
00000010
00010000
00001000
00000000
,
00010000
00001000
01000000
00010000
00000000
00010000
00100000
00000000
,
21000000
00000000
00000000
00000000
,
30010000
00000000
00000000
00000000
,
00201000
00000000
00000000
00000000
,
00300010
00000000
00000000
00000000
,
00000102
00000000
00000000
00000000
,
00001003
00000000
00000000
00000000
,
00010020
00000000
00000000
00000000
,
00100030
00000000
00000000
00000000
,
00002000
00003000
00200000
00300000
,
00020000
00000000
00000000
00000000
00030000
00000000
00000000
00000000
02000000
00000000
00000000
00000000
03000000
00000000
00000000
00010000
,
10000000
00000000
00000000
00000000
00000000
00000000
10000000
00000000
00000000
10000000
00000000
00000000
00100000
00000000
00000000
01000000
00000000
00000000
00010000
00000000
00000000
00100000
00000000
00000000
00001000
00000000
00000000
00000000
00000000
00000000
00010000
00000000
,
00000000
00000010
00000000
00000000
00001000
00000000
00000000
00000000
00000000
00000000
00000100
00000000
00000000
00000100
00000000
00000000
00000010
00000000
00000000
00000000
00000000
00000000
00000001
00000000
00000000
00000001
00000000
00000000
00001000
00000000
00000000
00000000
,
00000000
00000000
00000010
00000000
00000000
00000010
00000000
00000000
00010000
00000000
00000000
00001000
00000000
00000000
00100000
00000000
00000000
00100000
00000000
00000000
00001000
00000000
00000000
00000000
00000000
00000000
00010000
00000000
00000000
00000000
00000000
00000000
,
00021000
00000000
00000000
00000000
00030000
00000000
00001000
01000000
00001000
00000000
00000000
00000000
00100000
00000000
00000000
00000000
,
00010000
00000000
00000000
00000000
10000000
00000000
01000000
00000000
00010000
00000000
00000000
00000000
00001000
00000000
00010000
00000100
,
00020000
00000000
00030000
00000010
00001000
00000000
00000001
00000100
,
00001000
00010000
00022000
00033000
,
00000000
00001000
00010000
00100000
,
00000000
00100000
00010000
00001000
,
00000000
00010000
00001000
00000010
,
00000000
00000010
00001000
00010000
,
00011000
00001000
00010000
01000000
,
00000000
01000000
00010000
00001000
,
00000000
00010000
00001000
00000100
,
00000000
00000100
00001000
00010000
,
00011000
00001000
10000000
01000000
,
00000000
10000000
00010000
01000000
,
00000000
00001000
00010000
00000001
,
00000000
00000001
00001000
00000100
,
00011000
00010000
00000001
00000010
,
00000000
00000001
00001000
00000010
,
00000000
00010000
00001000
10000000
,
00000000
10000000
00010000
00100000
,
00002000
00000000
00000000
00023000
,
00002000
00030000
00000000
02003000
00000000
00000000
03200000
00000000
,
10000000
00300000
10000000
00000000
00010000
00000000
00010000
00000000
,
00100000
00000000
00001000
00000000
00010000
00001000
00010000
00000000
,
00000020
00000000
00000000
00002030
,
00000000
00003002
00000020
00000003
,
00000130
00000010
00000100
00000010
00000100
00000010
00000200
00000000
,
00000000
00020300
00002000
00030000
,
00013000
00001000
01000000
00010000
,
00100000
01000000
10000000
10000000
,
00010000
00100000
00001000
00010000
,
00000010
00001000
00000001
00000001
,
00000020
00000000
00000000
00000032
,
00000000
00002003
00000020
00003000
,
00000000
00010030
00010000
00010000
,
00000100
00001000
00000001
00000010
,
00000000
00000000
00001001
00000000
,
00000100
00000000
00000011
00000000
,
00000110
00000000
00000000
00011000
,
00000000
00000000
01100000
00000000
,
01000000
00010000
00100000
00100000
,
00010000
10000000
01000000
01000000
,
00100000
00001000
00100000
00001000
,
00010000
00000010
00010000
00000010
,
00002000
00000000
00000000
00003001
,
00000010
00000000
00000100
00000000
00010000
00001000
00010000
00001000
,
00020000
00000000
00000000
00000000
00000000
00000000
00031000
00100000
,
00002000
00000000
00000000
01003000
,
00200000
00000000
00000000
20300000
,
00000000
30020000
00100000
00030000
,
22000000
00000000
03000000
30100000
,
00010000
00011000
00000000
00000000
;

//---------------dance-double - Spork!----------------
#NOTES:
     dance-double:
     Spork!:
     Medium:
     6:
     0.373,0.571,0.294,0.397,0.009:
00000000
00000000
00000000
00000000
,
00000000
00000000
00000000
00000000
,
00000000
00000000
00000000
00000000
,
00000000
00000000
00000000
00000000
,
00010000
10000000
01000000
00000000
,
10010000
00000000
10010000
00000000
,
01000000
00000000
00001000
00000000
,
00010000
00000000
00011000
00000000
,
00001000
00000001
00000100
00000000
,
00001001
00000000
00001001
00000000
,
00000100
00000000
00010000
00000000
,
00001000
00000000
00011000
00000000
,
00220000
00000000
00000000
00000000
,
00000000
00000000
00000000
00000000
,
00000000
00000000
00000000
00000000
,
00330000
00000000
00000000
00000000
,
00202000
00000000
00000000
00000000
,
00000000
00000000
00000000
00000000
,
00000000
00000000
00000000
00000000
,
00303000
00000000
00000000
00000000
,
00020020
00000000
00000000
00000000
,
00000000
00000000
00000000
00000000
,
00000000
00000000
00000000
00000000
,
00030030
00000000
00000000
00000000
,
00002020
00000000
00000000
00000000
,
00000000
00000000
00000000
00000000
,
00000000
00000000
00000000
00000000
,
00003030
00000000
00000000
00000000
,
00000002
00000000
00000000
00000023
,
00000200
00000030
00002000
00000300
,
00003001
00000000
00000010
00000000
,
00001000
00000000
00010000
00000000
,
00001000
00000000
01000000
00000000
,
00100000
00000000
01001000
00000000
,
10000000
00000000
00100000
00000000
,
00010000
00000000
00001000
00000000
,
00010000
00000000
00000100
00000000
,
00000010
00000000
00010100
00000000
,
00000001
00000010
00000100
00000010
,
00000100
00000000
00010000
00000000
00001000
00000000
00010000
00100000
,
10000000
01000000
00100000
01000000
,
00100000
00000000
00001000
00000000
00010000
00000000
00001000
00000100
,
00000001
00000010
00000001
00001000
,
00000010
00010000
00001000
00000000
,
00011000
00100000
00010000
10000000
,
00100000
00010000
00001000
00011000
,
00010200
00000000
00000000
00000000
,
00000300
00000000
00000000
00000000
,
00201000
00000000
00000000
00000000
,
00300000
00000000
00000000
00000000
,
00010020
00000000
00000000
00000000
,
00000030
00000000
00000000
00000000
,
02001000
00000000
00000000
00000000
,
03000000
00000000
00000000
00000000
,
00021000
00001000
00000000
00000010
,
00000000
00000100
00000000
00031000
,
00011000
00000000
00000000
01001000
00000000
00000000
00010000
00000000
,
00000000
00001000
00000000
00000000
00010100
00000000
00000000
00000000
00000000
00000000
00001000
00000000
00000000
00000000
00000000
00000000
00110000
00000000
00000000
00000000
00000000
00000000
00000000
00000000
00000000
00000000
00000000
00000000
00010000
00000000
00000000
00000000
,
00000000
00000000
11000000
00000000
00000000
01010000
00000000
00000000
,
00100000
00001000
00010000
00100000
,
10000000
00000000
01000000
00000000
00100000
00000000
00001000
00010000
,
00001000
00000000
00000000
00001000
00010000
00000000
00000000
00010000
,
00001000
00000010
00000002
00000003
,
00001000
00000000
00001000
00000000
,
00000001
00000000
00000001
00000000
,
00000100
00000000
00000010
00000000
,
00010000
00000000
00001000
00000000
,
00110000
00000000
00001000
00000000
,
01010000
00000000
00001000
00000000
,
00100000
00000000
00010000
00000000
,
10010000
00000000
00000000
01000000
,
00010000
00000000
00010000
00000000
,
10000000
00000000
10000000
00000000
,
01000000
00000000
00100000
00000000
,
00001000
00000000
00010000
00000000
,
00001010
00000000
00010000
00000000
,
00001100
00000000
00010000
00000000
,
00000010
00000000
00001000
00000000
,
00001001
00000000
00000000
00000000
,
00002000
00000000
00000000
00003020
,
00000200
00000030
00000000
00000302
00000000
00000000
00002003
00000000
,
00003001
00000010
00000100
00010000
,
00001000
00100000
01000000
10000000
,
00020000
00000000
00000000
02030000
,
00000000
03200000
20000000
00300000
,
30010000
10000000
00000000
10000000
,
00000000
10000000
00020000
00000000
,
00130000
00000000
00001000
00000000
,
00010000
00000000
00000010
00000000
,
00010000
00000000
00001000
00000000
,
01000000
00000000
00001000
00000000
,
00021000
00000000
00000000
00030200
,
00000000
00002300
00000002
00003000
,
00000003
00000010
00000100
00000100
,
00001000
00001000
00000001
00000200
,
00000000
00000000
00000310
00000000
,
00020000
00000000
00032000
00000000
,
00023000
00000000
00000000
02030000
,
00000000
00000000
23000000
00000000
,
30010000
01000000
00010000
10000000
,
01000000
10000000
00010000
00100000
,
00001000
00010000
00001000
00000100
,
00000010
00000100
00000001
00000010
,
00000200
00000000
00000000
00001300
,
00000001
00001000
00000010
00010000
,
00002000
00000000
00000000
01003000
,
00200000
00000000
00000000
10300000
,
00020000
00000000
00000000
00230000
,
00000000
02300000
10000000
03000000
,
20020000
00000000
30030000
01000000
,
01000000
10010000
00000000
00000000
;

//---------------dance-double - Spork!----------------
#NOTES:
     dance-double:
     Spork!:
     Easy:
     5:
     0.352,0.476,0.242,0.440,0.000:
00000000
00000000
00000000
00000000
,
00000000
00000000
00000000
00000000
,
00000000
00000000
00000000
00000000
,
00000000
00000000
00000000
00000000
,
00000100
00000000
00000001
00000000
,
00002000
00000000
00003000
00000000
,
01000000
00000000
10000000
00000000
,
00020000
00000000
10030000
00000000
,
00100000
00000000
10000000
00000000
,
00020000
00000000
00030000
00000000
,
00000100
00000000
00000001
00000000
,
00002000
00000000
00003001
00000000
,
00000202
00000000
00000000
00000000
,
00000000
00000000
00000000
00000000
,
00000000
00000000
00000000
00000000
,
00000303
00000000
00000000
00000000
,
00002200
00000000
00000000
00000000
,
00000000
00000000
00000000
00000000
,
00000000
00000000
00000000
00000000
,
00003300
00000000
00000000
00000000
,
02020000
00000000
00000000
00000000
,
00000000
00000000
00000000
00000000
,
00000000
00000000
00000000
00000000
,
03030000
00000000
00000000
00000000
,
22000000
00000000
00000000
00000000
,
00000000
00000000
00000000
00000000
,
00000000
00000000
00000000
00000000
,
33000000
00000000
00000000
00000000
,
00020000
00000000
00000000
00230000
,
02000000
00300000
23000000
00000000
,
30010000
00000000
00010000
00000000
,
10000000
00000000
10000000
00000000
,
01000000
00000000
00100000
00000000
,
00001000
00000000
00011000
00000000
,
00001000
00000000
00001000
00000000
,
00000001
00000000
00000001
00000000
,
00000010
00000000
00000100
00000000
,
00010000
00000000
00011000
00000000
,
00001000
00000000
00000010
00000000
00000000
00000100
00000000
00000010
,
00000000
00001000
00000001
00000000
,
00000010
00000000
00000001
00000000
00000000
00000100
00000000
00000010
,
00000000
00010000
00001000
00000000
,
00001000
00000000
00010000
00000000
00000000
00100000
00000000
00000000
,
10000000
00000000
00000000
00010000
00000000
00000000
00100000
00000000
,
00000000
00001000
00000000
00000000
00000010
00000000
00000000
00000001
,
00000000
00000000
00001000
00000000
00000000
00000010
00000000
00000000
,
00002002
00000000
00000000
00000000
,
00003003
00000000
00000000
00000000
,
00020020
00000000
00000000
00000000
,
00030030
00000000
00000000
00000000
,
00202000
00000000
00000000
00000000
,
00303000
00000000
00000000
00000000
,
20020000
00000000
00000000
00000000
,
30030000
00000000
00000000
00000000
,
02000000
03000000
00002000
00003000
,
00020000
00030000
00000200
00000300
,
00001001
00000000
00000000
00000110
00000000
00000000
00000010
00000000
,
00000000
00010010
00000000
00000000
00011000
00000000
00000000
00001000
,
00000000
00000000
01010000
00000000
00000000
01100000
00000000
00000000
,
10010000
01000000
00100000
10000000
,
10000000
00010000
00010000
00100000
,
00001000
00010000
00000010
00000100
,
00000010
00001000
00000002
00000000
,
00000103
00000000
00000001
00000000
,
00000010
00000000
00001000
00000000
,
00011000
00000000
00010000
00000000
,
00011000
00000000
00010000
00000000
,
00100000
00000000
10000000
00000000
,
00010000
00000000
00001000
00000000
,
00010000
00000000
10000000
00000000
,
01000000
00000000
00000000
00000000
,
00100000
00000000
10000000
00000000
,
01000000
00000000
00010000
00000000
,
00011000
00000000
00001000
00000000
,
00011000
00000000
00001000
00000000
,
00000100
00000000
00000001
00000000
,
00001000
00000000
00010000
00000000
,
00001000
00000000
00000001
00000000
,
00000010
00000000
00000000
00000000
,
00000002
00000000
00000000
00000103
,
00000010
00000000
00000000
00000010
00000000
00000000
00000010
00000000
,
00001000
00000100
00000010
00000100
,
00010000
00001000
01000000
00010000
,
00200000
00000000
00000000
02000000
,
00300000
23000000
30020000
00000000
,
02030000
00000000
03010000
00200000
,
00000000
01300000
20000000
00000000
,
30010000
01000000
00100000
10000000
,
00010000
00100000
00010000
00100000
,
00001000
01000000
00001000
00010000
,
00000010
00001000
00000010
00001000
,
00000200
00000000
00000000
00000320
,
00000000
00000032
00002003
00000000
,
00003001
00000100
00000100
00000010
,
00001000
00000100
00010000
00002000
,
00000000
00000000
00000000
00003000
,
00011000
00000000
00010010
00000000
,
00011000
00000000
00000000
01001000
,
00000000
00000000
01010000
00000000
,
00010000
00100000
00000000
01000000
,
00000000
01000000
10000000
00010000
,
00100000
00001000
00000000
00010000
,
00000000
00010000
00000010
00001000
,
00000200
00000000
00000000
00001300
,
00000001
00000000
00000001
00000100
,
00000020
00000000
00000000
00020030
,
00002000
00030000
00000000
00203000
,
02000000
00300000
00000000
23000000
,
00000000
30010000
01000000
00000000
,
00022000
00000000
00033000
00010000
,
00001000
00011000
00000000
00000000
;
