#TITLE:Chrome;
#SUBTITLE:;
#ARTIST:VNV Nation;
#TITLETRANSLIT:;
#SUBTITLETRANSLIT:;
#ARTISTTRANSLIT:;
#CREDIT:;
#BANNER:Chrome-bn.png;
#BACKGROUND:Chrome-bg.png;
#LYRICSPATH:Chrome.lrc;
#CDTITLE:ddrencorecdtitle.png;
#MUSIC:Chrome.mp3;
#OFFSET:-0.001;
#SAMPLESTART:59.080;
#SAMPLELENGTH:11.920;
#SELECTABLE:YES;
#BPMS:0.000=129.995;
#STOPS:;
#BGCHANGES:;

//---------------dance-single - ----------------
#NOTES:
     dance-single:
     :
     Hard:
     8:
     0.501,0.457,0.274,0.132,0.038:
0000
0000
0000
0000
,
0000
0000
0000
0000
,
0000
0000
0000
0000
,
0000
0000
0000
0000
0000
0000
1100
1100
,
0002
0000
0013
0000
1000
0010
0100
0100
,
2000
0000
3010
0000
0001
0010
1000
1000
,
0200
0000
1300
0000
1000
0100
0001
0001
,
0100
0010
0100
0010
0001
0100
0010
0010
,
2000
0000
3100
0000
0001
0100
0010
0010
,
0002
0000
0103
0000
1000
0100
0001
0001
,
0020
0000
0031
0000
0001
0100
1000
1000
,
0100
0010
0100
0010
1000
0000
0100
0100
,
1000
1010
0001
0011
,
0100
0000
0110
0000
1000
0100
0110
0000
,
0001
0101
1000
1100
,
0010
0110
1001
0000
,
0001
0100
1000
0100
0001
0010
1000
0000
,
1000
0100
0001
0100
1000
0010
0001
0000
,
0010
1000
0100
0000
0010
0001
0100
0000
,
0001
0000
0010
0001
0000
0000
0001
0000
1000
0000
0010
1000
0000
0000
1000
0000
,
0001
0000
0100
0001
0010
0000
0011
0100
,
1000
0000
0110
0000
1000
0001
0000
0001
,
1000
0100
1000
0010
0100
0000
0100
0001
,
0010
0100
0000
0110
0000
1001
0000
0100
,
0010
0000
1000
0010
0100
0001
0010
0001
,
0100
0000
1001
0000
0010
0100
0000
0100
,
0010
1000
0100
1000
0010
0100
0000
0100
,
0001
0010
0100
1000
0010
0000
0100
0000
,
0001
0000
0010
0001
0000
0000
0001
0000
1000
0000
0010
1000
0000
0000
0000
0000
,
1000
0000
0100
1000
0000
0000
1000
0000
0001
0000
0100
0001
0000
0000
0000
0000
,
0010
0000
0001
0100
0000
0000
0100
0000
0010
0000
1000
0100
0000
0000
0000
0000
,
1000
0010
0001
0010
1000
0000
0101
0101
,
1000
0100
0010
1000
0001
0010
0100
0001
,
0010
0000
1100
0000
0010
0001
0100
0010
,
2000
0000
0010
0000
3001
0100
0010
1000
,
0002
0000
0010
0000
1003
0010
0100
0000
,
0001
0010
0100
0001
1000
0100
0010
1000
,
0100
0000
0011
0000
0100
1000
0010
0100
,
0002
0000
0100
0000
1003
0001
0100
0010
,
2000
0000
0100
0000
3001
1000
0100
0000
,
1000
0010
0010
0100
0001
0001
0010
0000
,
1001
0000
0100
1000
0010
0100
0001
1000
,
0100
0000
0110
1000
0001
0100
0010
1000
,
0001
0100
1000
0100
0001
0010
0100
0000
,
0010
0001
0100
0000
0010
1000
0100
0000
,
1000
0010
0100
0001
0010
0000
0110
0000
,
0001
0100
0100
0010
1000
1000
0100
0000
,
1000
0000
0001
0000
1000
0001
0100
0100
,
0001
0001
1000
1000
,
2010
0010
0010
3010
,
0012
0010
0010
0013
,
0210
0010
0310
1010
,
0012
0010
0010
0013
,
1000
0100
1000
0010
1000
0001
1000
0010
,
0100
0001
0100
0010
0100
1000
0100
0001
,
0010
0100
0010
1000
0010
0001
0010
0100
,
1000
0010
0100
0001
0010
0001
0101
1100
;

//---------------dance-single - ----------------
#NOTES:
     dance-single:
     :
     Medium:
     6:
     0.342,0.403,0.227,0.199,0.000:
0000
0000
0000
0000
,
0000
0000
0000
0000
,
0000
0000
0000
0000
,
0000
0000
0000
0000
,
2000
0000
0000
0000
3000
0000
0010
1000
,
0002
0000
0000
0000
0003
0000
0010
0001
,
2000
0000
0000
0000
3000
0000
0010
1000
,
0002
0000
0100
0000
0103
0001
1000
0001
,
2000
0000
0000
0000
3000
0000
0100
1000
,
0002
0000
0000
0000
0003
0000
0100
0001
,
2000
0000
0000
0000
3000
0000
0100
1000
,
0002
0000
0010
0000
0013
0001
1000
0001
,
1000
0101
0000
1100
,
0000
0110
0000
1001
,
1000
1010
0000
0011
,
0000
0110
1001
0000
,
0001
0000
0010
0000
0001
0100
0000
0010
,
1000
0000
0100
0000
1000
0010
0000
0000
,
1000
0100
1000
0000
0001
0100
0001
0000
,
1000
0001
1001
0000
,
0010
0000
0001
0000
0010
0000
0100
1000
,
0010
0100
0001
0000
,
1000
0000
0100
1000
0100
0000
0010
0000
,
0001
0100
0000
0100
0000
0001
0000
1000
,
0000
0000
0100
0000
0010
0001
0100
0000
,
0010
0000
1000
0000
0001
1000
0000
0000
,
1000
0100
0001
0100
,
1000
0010
0000
0100
0000
0100
0000
0001
,
0020
0000
0000
0000
0030
0000
0001
1000
,
0200
0000
0000
0000
0300
0000
1000
0001
,
0020
0000
0000
0000
0030
0000
0001
1000
,
0000
0000
0000
0000
0000
0000
1000
1000
,
0001
0010
0100
1000
,
0011
0000
0001
0000
0100
0001
0010
0000
,
0001
0101
1000
1100
,
1000
0001
0110
1001
,
1000
0100
0010
0001
,
1100
0000
1000
0000
0010
1000
0100
0000
,
1000
1100
0001
0101
,
0110
0000
0000
1000
0001
0000
0010
0000
,
0002
0000
0000
0203
0000
0000
0320
0000
,
0030
0000
1000
0010
0000
1000
0000
0001
,
0000
0000
0000
0100
0001
0010
0000
0001
,
0000
1000
0000
0100
0000
1001
0000
0000
,
1000
0000
0100
1000
0100
0000
0010
0000
,
0001
0000
0100
0001
0100
0000
0010
0000
,
2000
0000
0000
3200
0000
0000
0320
0000
,
0030
0000
0000
0000
0000
0000
0001
1000
,
0000
0000
0000
0000
,
0102
0100
0100
0103
,
2100
0100
0100
3100
,
0120
0100
0130
0101
,
2100
0100
0100
3100
,
0001
0100
0001
0100
0010
0000
0010
0000
,
1000
0100
1000
0100
0010
0000
0010
0000
,
0001
0100
0010
0000
1000
0010
0100
0000
,
0001
0010
0100
1000
0001
0000
0100
0100
;

//---------------dance-single - ----------------
#NOTES:
     dance-single:
     :
     Beginner:
     2:
     0.204,0.241,0.142,0.199,0.000:
0000
0000
0000
0000
,
0000
0000
0000
0000
,
0000
0000
0000
0000
,
0000
0000
0000
0000
,
2000
0000
3000
0001
,
0002
0000
0003
1000
,
2000
0000
3000
0010
,
0010
0000
0100
0000
,
0002
0000
0003
1000
,
2000
0000
3000
0001
,
0002
0000
0003
0010
,
0010
0000
0100
0000
,
1000
1000
0000
1000
,
0000
0001
0000
0001
,
0000
0100
0000
0010
,
0000
1000
0000
0000
,
0100
0100
0100
0000
,
0010
0010
0010
0000
,
0001
0000
0100
0000
,
0110
0110
0110
0000
,
1000
0000
0100
0000
,
1000
1000
1000
0000
,
0001
0000
0100
0000
,
0010
0000
0010
0000
,
1000
0000
0001
0000
,
0010
0010
0010
0000
,
0001
0000
0100
0000
,
0010
0000
1000
0000
,
2000
0000
3000
0001
,
0002
0000
0003
1000
,
2000
0000
3000
0010
,
0000
0000
0000
0000
,
1001
0000
0010
0000
,
1001
0000
0100
0000
,
0110
0000
0001
0000
,
0220
0000
0330
0000
,
0110
0000
1000
0000
,
0110
0000
0001
0000
,
1001
0000
0100
0000
,
2002
0000
3003
0000
,
1000
0000
0100
0000
,
0010
0000
0001
0001
,
0001
0000
0100
0000
,
0010
0010
0010
0000
,
0220
0000
0330
0000
,
2002
0000
3003
0000
,
0100
0000
0010
0000
,
2002
0000
3003
0000
,
0000
0000
0000
0000
,
0100
0100
0100
0100
,
0100
0100
0100
0100
,
0100
0100
0100
0100
,
0200
0000
0300
0000
,
0010
0010
0010
0010
,
0010
0010
0010
0010
,
0010
0010
0010
0010
,
0020
0000
0030
1001
;

//---------------dance-double - ----------------
#NOTES:
     dance-double:
     :
     Easy:
     4:
     0.258,0.296,0.057,0.142,0.000:
00000000
00000000
00000000
00000000
,
00000000
00000000
00000000
00000000
,
00000000
00000000
00000000
00000000
,
00000000
00000000
00000000
00000000
,
00020000
00000000
00030000
00001000
,
00020000
00000000
00030000
00000100
,
00020000
00000000
00030000
00000010
,
00001000
00000100
00010000
00010000
,
00002000
00000000
00003000
00010000
,
00002000
00000000
00003000
00100000
,
00002000
00000000
00003000
01000000
,
00010000
00100000
00001000
00001000
,
00010000
01000000
00000000
10000000
,
00000000
00100000
00000000
00010000
,
00001000
00000100
00000000
00000010
,
00000000
00001000
00000001
00000000
,
00001000
00000010
00000101
00000000
,
00000001
00000010
00001100
00000000
,
00000001
00000100
00000010
00010000
,
00001000
01000000
00100000
00000000
,
10000000
01000000
00100000
01000000
,
10000000
00010000
01000000
00000000
,
00100000
10000000
01000000
00000000
,
00100000
00010000
10000000
00000000
,
01000000
10000000
00010000
00100000
,
00001000
00010000
00000100
00000000
,
00001000
00000001
00000100
00000000
,
00000010
00001000
00000100
00000000
,
00020000
00000000
00030000
00001000
,
00000020
00000000
00000030
00000100
,
00020000
00000000
00030000
00100000
,
10000000
00000000
00000000
00000000
00000000
00000000
10000000
10000000
,
00010000
01000000
00100000
10000000
,
01000000
00100000
00001000
00010000
,
00000100
00000010
00000001
00000100
,
00000010
00001000
00000001
00000001
,
00001000
00000010
00000100
00000001
,
00000010
00000100
00010000
00001000
,
00100000
01000000
10000000
00100000
,
01000000
00010000
10000000
01000000
,
00200000
00000000
00000000
00302000
00000000
00000000
00003020
00000000
,
00000030
00000001
00000100
00000001
,
00000010
00000100
00001000
00000010
,
00010000
00001000
00000010
00000001
,
00001000
00000010
00010000
00000100
,
00001000
00000010
00001000
00000001
,
00000200
00000000
00000000
00020300
00000000
00000000
02030000
00000000
,
03000000
00000000
00000000
00000000
00000000
00000000
00010000
10000000
,
00000000
00000000
00000000
00000000
,
10000000
10000000
10000000
10000000
,
00010000
00010000
00010000
00010000
,
00001000
00001000
00001000
00000010
,
00000001
00000001
00000001
00001000
,
00000001
00000101
00001000
00000010
,
00010000
00011000
00001000
01000000
,
00010000
00110000
01000000
10000000
,
00010000
00000000
10010000
00000000
00100000
00000000
01000000
01000000
;

//---------------dance-double - ----------------
#NOTES:
     dance-double:
     :
     Medium:
     5:
     0.336,0.403,0.284,0.217,0.000:
00000000
00000000
00000000
00000000
,
00000000
00000000
00000000
00000000
,
00000000
00000000
00000000
00000000
,
00000000
00000000
00000000
00000000
,
00002000
00000100
00003100
00001100
,
00000002
00000010
00000013
00000011
,
00000200
00000010
00000310
00000110
,
00000001
00000100
00001000
00000000
00010000
00100000
10000000
00000000
,
00020000
01000000
01030000
01010000
,
20000000
00100000
30100000
10100000
,
02000000
00100000
03100000
01100000
,
10000000
01000000
00010000
00000000
00001000
00000010
00000001
00000000
,
00000100
00000001
00000010
00000001
,
00000100
00001000
00010000
00010000
,
00100000
10000000
01000000
10000000
,
00100000
00010000
00001000
00000000
,
00000100
00000010
00000110
00000000
,
00001000
00000001
00001001
00000000
,
00000010
00000001
00000100
00000010
,
00001000
00010000
01000000
00000000
,
10000000
00000000
11000000
00000000
10000000
01000000
00100000
00000000
,
00001000
00000000
00011000
00000000
00010000
00000010
00000100
00000000
,
00000001
00000100
00000001
00001000
,
00000010
00010000
00000100
00001000
,
00000001
00000000
00000101
00000000
00000001
00000100
00000010
00000000
,
00010000
00000000
00011000
00000000
00001000
01000000
00100000
00000000
,
10000000
01000000
10000000
00000000
00010000
01000000
00010000
00000000
,
10000000
01000000
00010000
00001000
,
00000020
00000100
00000130
00000110
,
00000002
00001000
00001003
00001001
,
00000200
00000010
00000310
00000110
,
00000000
00000000
00000000
00000000
00000000
00000000
00001000
00001000
,
00000002
00000000
00001003
00000000
,
00002000
00000000
00013000
00000000
,
00020000
00000000
10030000
02000000
,
00200000
00000000
03300000
00000000
,
20000000
00000000
30010000
00000000
,
00020000
00000000
00031000
00000000
,
00002000
00000000
00003001
00000200
,
00000020
00000000
00000330
00000000
,
00000101
00000000
00000000
00000110
00000000
00000000
00001001
00000000
,
00000100
00000000
00000001
00001000
00000000
00000100
00000000
00000100
,
00000010
00000000
00000000
00000001
00000100
00000001
00000000
00000010
,
00000000
00001000
00000000
00010000
00000000
01000000
00000000
01000000
,
10000000
00100000
01000000
01000000
,
00001000
00010000
00000010
00000010
,
00001001
00000000
00000000
00000101
00000000
00000000
00001010
00000000
,
00001001
00000000
00000000
00000000
00000000
00000000
00000010
00000010
,
00000000
00000000
00000000
00000000
,
01020000
01000000
01000000
01030000
,
21000000
01000000
01000000
31000000
,
01200000
01000000
01300000
01010000
,
21000000
01000000
01000000
31000000
,
10000000
01000000
00010000
00011000
,
00000010
00000001
00000100
00001001
,
00000001
00000100
00001000
00011000
,
00100000
00000000
10000000
00000000
01000000
00000000
00100000
00100000
;

//---------------dance-double - ----------------
#NOTES:
     dance-double:
     :
     Hard:
     8:
     0.459,0.457,0.284,0.189,0.028:
00000000
00000000
00000000
00000000
,
00000000
00000000
00000000
00000000
,
00000000
00000000
00000000
00000000
,
00000000
00000000
00000000
00000000
,
00020000
00000000
00100000
00000000
10030000
00000000
00100000
00010000
,
20000000
00000000
00100000
00000000
30010000
00000000
01000000
10000000
,
00200000
00000000
10000000
00000000
01300000
00000000
10000000
00010000
,
01000000
00100000
00010000
00010000
00001000
00000100
00000010
00000010
,
00002000
00000000
00000100
00000000
00003001
00000000
00000100
00001000
,
00000002
00000000
00000100
00000000
00001003
00000000
00000100
00000001
,
00000020
00000000
00000001
00000000
00000130
00000000
00000001
00001000
,
00000010
00000100
00001000
00001000
00010000
00100000
01000000
01000000
,
00010000
11000000
00100000
10010000
,
00100000
00000000
00011000
00000000
00001000
00010000
00010100
00000000
,
00001000
00000101
00000010
00001001
,
00000100
00011000
00010000
00101000
,
00010000
01000000
10000000
00000000
10000000
01000000
00010000
00000000
,
00001000
00000010
00000001
00000000
00000001
00000010
00001000
00000000
,
00000100
00010000
00001000
01000000
00010000
00100000
00001000
00010000
,
00011000
01001000
01100000
00010000
,
10000000
00000000
01000000
10000000
00100000
00000000
10000000
00010000
,
00100000
00000000
01000000
00000000
00010000
00001000
00000000
00000010
,
00000001
00000100
00000010
00001000
00000100
00000000
00000010
00000100
,
00001000
00000010
00000000
00000100
00000000
00000001
00000000
00001000
,
00000001
00000000
00000010
00000001
00000100
00000010
00000000
00000010
,
00001000
00000000
00010000
00000000
01000000
00100000
10000000
00000000
,
00010000
00100000
01000000
00100000
00001000
01000000
00010000
00000000
,
00100000
00001000
00010000
00000010
00000100
00000000
00001001
00000000
,
00000001
00000000
00000001
00000010
00000000
00000000
00000100
00000000
00000010
00000000
00000010
00000002
00000000
00000000
00000000
00000000
,
00001003
00000000
00001000
00000010
00000000
00000000
00000100
00000000
00000010
00000000
00000010
00002000
00000000
00000000
00000000
00000000
,
00003100
00000000
00000100
00010000
00000000
00000000
00001000
00000000
00010000
00000000
00010000
00000200
00000000
00000000
00000000
00000000
,
00010300
00001000
01000000
00001000
00010000
00000000
00001000
00001000
,
02000000
00100000
10000000
03010000
,
00200000
10000000
00010000
01300000
,
00002000
00000000
00010000
00000000
00103000
00000000
00001000
00010000
,
00000000
00000010
00000000
00001001
00000000
00000110
00000000
00001000
,
00000020
00000100
00000001
00001030
,
00000200
00000001
00001000
00000310
,
00020000
00001000
00030100
00011000
,
02001000
00000000
00000000
03100000
10000000
00000000
01100000
00000000
,
01000000
00010000
00010000
00100000
00001000
00001000
00010000
00000000
,
11000000
00000000
10000000
00100000
00010000
00001000
00000100
00001000
,
00010000
00000000
00100000
10000000
01000000
00100000
00001000
01000000
,
00000000
00100000
00000000
10010000
00000000
01100000
00000000
10000000
,
00010000
00000000
00100000
00001000
00010000
00000010
00000100
00000001
,
00001000
00000000
00001000
00000001
00000010
00000100
00001000
00000000
,
00000010
00001000
00001000
00000100
00010000
00010000
00001000
00000000
,
00000011
00000000
00001001
00000000
00001100
00000000
00000001
00000001
,
00000000
00000000
00000000
00000000
,
00021000
00001000
00001000
00031000
,
00001020
00001000
00001000
00001030
,
00012000
00010000
00013000
00110000
,
00021000
00001000
00001000
00031000
,
01000000
00010000
01000000
00010000
00100000
01000000
00000000
10000000
,
01000000
10000000
00010000
00100000
01000000
00100000
00000000
00001000
,
00010000
00000010
00000100
00000010
00001000
00000001
00000000
00000100
,
00000001
00000010
00000100
00001000
00000001
00000001
00000101
00001100
;

//---------------dance-single - ----------------
#NOTES:
     dance-single:
     :
     Easy:
     5:
     0.289,0.296,0.208,0.180,0.000:
0000
0000
0000
0000
,
0000
0000
0000
0000
,
0000
0000
0000
0000
,
0000
0000
0000
0000
,
0002
0000
0003
0101
,
2000
0000
3000
1100
,
0002
0000
0003
0101
,
0100
0010
1000
0100
,
2000
0000
3000
1010
,
0002
0000
0003
0011
,
2000
0000
3000
1010
,
0010
0100
0001
0010
,
0001
0100
0001
0100
,
0010
1000
0100
0000
,
1000
0001
1000
0001
,
0100
0010
1000
0000
,
0001
0010
1100
0000
,
1000
0010
0101
0000
,
1000
0100
0010
0001
,
1001
0110
1001
0000
,
0001
0100
0010
1000
,
0100
0010
0001
0000
,
0001
0010
0001
0100
,
0010
1000
0001
0010
,
0001
0100
0010
0100
,
0001
1000
0100
0000
,
1000
0010
0100
0010
,
1000
0100
0010
0001
,
2000
0000
3000
0101
,
0002
0000
0003
1100
,
2000
0000
3000
0110
,
0000
0000
0000
0000
0000
0000
0001
0001
,
1000
0100
0001
0100
,
1000
1000
0001
0100
,
0010
1001
0100
1001
,
0010
0001
0100
0000
,
0001
0010
1000
0010
,
0001
0001
1000
0010
,
0100
0101
0001
1000
,
0100
0000
1000
0001
,
0200
0000
0000
0302
0000
0000
0023
0000
,
0030
0001
0100
0010
,
1010
0000
0010
0100
,
0001
1000
1100
0101
,
0001
0010
0001
0100
,
0010
1000
0100
0010
,
0200
0000
0000
2300
0000
0000
3020
0000
,
0030
0000
0000
1001
,
0000
0000
0000
0000
,
0002
0100
0100
0103
,
2000
0100
0100
3100
,
0020
0100
0130
0001
,
2000
0100
0100
3100
,
0001
0100
1000
0100
,
0001
0010
1000
0010
,
0001
0100
0010
1000
,
0001
0000
0010
0000
1001
0000
0100
0100
;
