#TITLE:Children;
#SUBTITLE:(Dream ver.);
#ARTIST:Robert Miles;
#TITLETRANSLIT:;
#SUBTITLETRANSLIT:;
#ARTISTTRANSLIT:;
#GENRE:;
#CREDIT:;
#MENUCOLOR:;
#METERTYPE:DDR;
#BANNER:Children (Dream ver.)-bn.png;
#BACKGROUND:Children (Dream ver.)-bg.png;
#LYRICSPATH:;
#CDTITLE:ddrencorecdtitle.png;
#MUSIC:Children (Dream ver.).mp3;
#OFFSET:-0.036;
#SAMPLESTART:35.071;
#SAMPLELENGTH:14.028;
#SELECTABLE:YES;
#LISTSORT:;
#BPMS:0.000=68.433,40.000=136.866;
#STOPS:;
#BGCHANGES:;
#ATTACKS:;

//---------------dance-single - Spork!----------------
#NOTES:
     dance-single:
     Spork!:
     Beginner:
     1:
     0.073,0.114,0.017,0.000,0.000:
0000
0000
0000
0000
,
0000
0000
0000
0000
,
0000
0000
0000
0000
,
0000
0000
0000
0000
,
1000
0000
0001
0000
,
0100
0000
0000
0000
,
0001
0000
1000
0000
,
0010
0000
0000
0000
,
1000
0000
1000
0000
,
0001
0000
0001
0000
,
0100
0000
0000
0000
,
0000
0000
0001
0000
,
1000
0000
0000
0000
,
0000
0000
0010
0000
,
0100
0000
0000
0000
,
0000
0000
0001
0000
,
0010
0000
0000
0000
,
0100
0000
0000
0000
,
0010
0000
0000
0000
,
0000
0000
0001
0000
,
0100
0000
0000
0000
,
0010
0000
0000
0000
,
1000
0000
0000
0000
,
0001
0000
0000
0000
,
0100
0000
0000
0000
,
1001
0000
0000
0000
,
0100
0000
0000
0000
,
0100
0000
0000
0000
,
0100
0000
0000
0000
,
0100
0000
0000
0000
,
0010
0000
0000
0000
,
1000
0000
0001
0000
,
0100
0000
0000
0000
,
0010
0000
0000
0000
,
1000
0000
0000
0000
,
0001
0000
1000
0000
,
0100
0000
0000
0000
,
0010
0000
0000
0000
,
0001
0000
0000
0000
,
1000
0000
0001
0000
,
0100
0000
0000
0000
,
0001
0000
0000
0000
,
1000
0000
0000
0000
,
0010
0000
0100
0000
,
0001
0000
0000
0000
,
1000
0000
0000
0000
,
0001
0000
0000
0000
,
0000
0000
0100
0000
,
0010
0000
0000
0000
,
0000
0000
0000
0000
,
1000
0000
0000
0000
,
0001
0000
0000
0000
,
0100
0000
0000
0000
,
1001
0000
0000
0000
;

//---------------dance-single - Spork!----------------
#NOTES:
     dance-single:
     Spork!:
     Easy:
     1:
     0.102,0.163,0.017,0.017,0.000:
0000
0000
0000
0000
,
0000
0000
0000
0000
,
0000
0000
0000
0000
,
0000
0000
0000
0000
,
1000
0000
0001
0100
,
0010
0000
0000
0010
,
1000
0000
0001
1000
,
0100
0000
0000
0000
,
1000
0000
0001
0000
,
0100
0000
0001
1000
,
0010
0000
0000
0000
,
0010
0000
1000
0000
,
0001
0000
0000
0000
,
0010
0000
0001
0000
,
1000
0000
0000
0000
,
0010
0000
0100
0000
,
0001
0000
0000
0000
,
1000
0000
0000
0000
,
0001
0000
0000
0000
,
0010
0000
0001
0000
,
0100
0000
0000
0000
,
0010
0000
0000
0000
,
1000
0000
0100
0000
,
1000
0000
0001
0000
,
0100
0000
0000
0000
,
1001
0000
0000
0000
,
0001
0000
1000
0000
,
0001
0000
1000
0000
,
0010
0000
0100
0000
,
0010
0000
0100
0000
,
0001
0000
0000
0000
,
1000
0000
0100
0000
,
0100
0000
0000
0000
,
1000
0000
0000
0000
,
0001
0000
0000
0000
,
1000
0000
0010
0000
,
0010
0000
0000
0000
,
1000
0000
0000
0000
,
0001
0000
0000
0000
,
1000
0000
0001
0000
,
1000
0000
0000
0000
,
0010
0000
0000
0000
,
0100
0000
0000
0000
,
0001
0000
1000
0000
,
0001
0000
0001
0000
,
1000
0001
1000
0001
,
0100
0000
0000
0000
,
0010
0000
1000
0000
,
0001
0000
0000
0000
,
0010
0000
0000
0000
,
0100
0000
0010
0000
,
0001
0000
1000
0000
,
0010
0000
0000
0000
,
2002
0000
0000
0000
,
3003
0000
0000
0000
;

//---------------dance-single - Spork!----------------
#NOTES:
     dance-single:
     Spork!:
     Medium:
     3:
     0.175,0.256,0.017,0.017,0.000:
0000
0000
0000
0000
,
0000
0000
0000
0000
,
0000
0000
0000
0000
,
0000
0000
0000
0000
,
0001
0000
0000
0000
0100
0000
0001
1000
,
0100
0000
0000
0000
0000
0000
1000
0001
,
0100
0000
0000
0000
0010
0000
1000
0100
,
0010
0000
0000
0000
,
0001
0001
1000
1000
,
0001
0000
1000
0000
0001
0100
0010
1000
,
0001
0000
0100
0000
,
0001
0000
0010
0001
,
0010
0000
0001
0000
,
1000
0000
0010
1000
,
0010
0000
1000
0000
,
0001
0000
0100
0001
,
0100
0000
0010
0000
,
1000
0001
1000
0001
,
0100
0000
0010
0000
,
1000
0000
0010
0100
,
0010
0000
1000
0000
,
0001
0000
0100
0000
,
0010
1000
0001
0000
,
0100
0000
0001
1000
,
0100
0000
0010
0000
,
1001
0000
0000
0000
,
0001
0000
0100
0000
,
0001
0000
0001
0000
,
1000
0000
0100
0000
,
1000
0000
1000
0001
,
0100
0000
0010
0000
,
0100
0001
0100
0010
,
1000
0000
0010
0000
,
0100
0000
0001
1000
,
0100
0000
0010
0000
,
0100
1000
0100
0010
,
0001
0000
1000
0000
,
0001
0000
0100
0001
,
0010
0010
0100
0100
,
1000
0100
0010
0001
,
1000
0000
0001
0000
,
0100
0000
0010
1000
,
0001
0001
1000
1000
,
0010
1000
0010
0100
,
0001
0000
1000
0000
,
0001
0010
0100
1000
,
0001
0000
1000
0000
,
0001
0000
1000
0010
,
1000
0000
0001
0000
,
0100
0000
0010
1000
,
0001
0010
0100
0000
,
0010
0000
0001
1000
,
0100
0000
0010
0000
,
2002
0000
0000
0000
,
3003
0000
0000
0000
;

//---------------dance-single - Spork!----------------
#NOTES:
     dance-single:
     Spork!:
     Hard:
     7:
     0.369,0.466,0.173,0.112,0.099:
0000
0000
0000
0000
,
0000
0000
0000
0000
,
0000
0000
0000
0000
,
0000
0000
0000
0000
,
0002
0000
0000
0000
0003
0000
0000
0000
2000
0000
0000
0000
3001
0000
0100
0001
,
0020
0000
0000
0000
0030
0000
0000
0000
0100
0000
0000
0000
1000
0000
0010
1000
,
0200
0000
0000
0000
0300
0000
0000
0000
0020
0000
0000
0000
0031
0000
1000
0001
,
0200
0000
0000
0000
0300
0000
0000
0000
0010
0000
0000
0010
1000
0000
0001
0000
,
0100
0100
0100
0100
0010
0010
0010
0010
,
1000
0000
0000
0000
1000
0000
0000
0000
0001
0000
0000
0000
0001
0000
0000
0000
0010
0000
0000
0000
0100
0000
0000
0000
1000
0000
0000
0000
0001
1000
0001
1000
,
0001
0000
0100
0000
0010
0000
1000
0100
,
0010
0000
0010
0000
0011
0000
0010
0100
,
0000
0000
1000
0000
0100
0000
1000
0010
,
0100
0000
0100
0000
0101
0000
0100
0010
,
0000
0000
1000
0000
0001
0000
0100
0001
,
0010
0000
0010
0000
0110
0000
0010
0001
,
0000
1000
0000
1001
0000
0000
0010
0000
,
0100
0000
0000
0000
0001
0000
0000
0000
1000
0000
0000
0000
0001
0100
0001
0100
,
0001
0000
1000
0000
0001
0000
0010
0001
,
0100
0000
0100
0000
0110
0000
0100
0001
,
0000
0000
1000
0000
0001
0000
0010
0100
,
1000
0000
0000
0000
0010
0000
0000
0000
1001
0000
0000
0000
0001
0000
1000
0010
,
1000
0000
0010
0100
0000
0001
0000
0010
,
0000
1100
0000
1000
0001
0000
0001
0010
,
0000
0000
0001
0000
0100
0010
1000
0001
,
2002
0000
0000
3003
,
0001
0010
0000
0100
0000
1000
0000
0010
,
0000
0100
0000
0001
0000
1000
0000
0001
,
0100
0010
0000
1000
0000
0010
0000
0100
,
0000
0000
0001
0000
0000
0000
1000
0000
0000
0000
0100
0000
1000
0001
1000
0001
,
1000
0010
0100
0001
,
1000
0100
0000
0110
0000
0011
0000
0001
,
0100
0010
1000
0100
0010
0100
1000
0001
,
0100
0000
0000
0000
0010
0000
0000
0000
1000
0000
0000
0000
0001
1000
0001
1000
,
0001
0010
0100
1000
,
0001
0100
0000
0110
0000
1010
0000
1000
,
0001
0010
0001
1000
,
0010
0000
0000
0000
0100
0000
0000
0000
0001
0000
0000
0000
0100
0010
0100
0010
,
0100
0010
1000
0001
0100
0000
0001
0000
,
0010
0001
0000
0011
0000
0110
0000
0100
,
1000
0010
0100
0001
1000
0001
0010
0100
,
1000
0000
0000
0000
0010
0000
0000
0000
0100
0000
0000
0000
0001
0100
0001
0100
,
0001
0100
0010
1000
0001
0000
0010
0000
,
0100
0010
0000
0110
0000
1001
0000
1000
,
0010
0000
0000
0000
1000
0000
0001
0100
0001
0000
0000
0000
0001
0000
1000
0100
,
2000
0000
0000
0000
3002
0000
0000
0000
0203
0000
0000
0000
0301
1000
0001
1000
,
0001
0000
0100
0000
0010
0000
1000
0001
,
0100
0000
0100
0000
0110
0000
0100
0001
,
0000
0000
0010
0000
0001
0000
0100
0010
,
1000
0000
0000
0000
0001
0000
0000
0000
1001
0000
0000
0000
1000
0000
0001
0100
,
0001
0000
0010
0100
0000
1000
0000
0001
,
0000
1010
0000
1000
0001
0000
0001
0100
,
0000
0000
0010
0000
1000
0100
0010
0001
,
2002
0000
0000
0000
,
3003
0000
0000
0000
;

//---------------dance-double - Spork!----------------
#NOTES:
     dance-double:
     Spork!:
     Easy:
     1:
     0.092,0.163,0.017,0.017,0.000:
00000000
00000000
00000000
00000000
,
00000000
00000000
00000000
00000000
,
00000000
00000000
00000000
00000000
,
00000000
00000000
00000000
00000000
,
01000000
00000000
00010000
00000000
,
01000000
00000000
00000000
00000000
,
00010000
00000000
10000000
00000000
,
00010000
00000000
00000000
00000000
,
01000000
00000000
01000000
00000000
,
00001000
00000000
00001000
00000000
,
00010000
00000000
00000000
00000000
,
00000000
00000000
00000100
00000000
,
00000100
00000000
00000000
00000000
,
00000000
00000000
00000010
00000000
,
00000010
00000000
00000000
00000000
,
00000000
00000000
00000001
00000000
,
00000001
00000000
00000000
00000000
,
00001000
00000000
00000010
00000000
,
00000100
00000000
00000000
00000000
,
00000000
00000000
00000010
00000000
,
00000010
00000000
00000000
00000000
,
00010000
00000000
00000000
00000000
,
00001000
00000000
00010000
00000000
,
00001000
00000000
01000000
00000000
,
00010000
00000000
00000000
00000000
,
10010000
00000000
00000000
00000000
,
10000000
00000000
01000000
00000000
,
10000000
00000000
01000000
00000000
,
00100000
00000000
00010000
00000000
,
00100000
00000000
00010000
00000000
,
01000000
00000000
00000000
00000000
,
00100000
00000000
10000000
00000000
,
00010000
00000000
00000000
00000000
,
01000000
00000000
00000000
00000000
,
00001000
00000000
00000000
00000000
,
00010000
00000000
00000100
00000000
,
00001000
00000000
00000000
00000000
,
00001000
00000000
00000000
00000000
,
00000001
00000000
00000000
00000000
,
00000100
00000000
00000010
00000000
,
00001000
00000000
00000000
00000000
,
00000001
00000000
00000000
00000000
,
00000100
00000000
00000000
00000000
,
00000010
00000000
00001000
00000000
,
00000100
00000000
00000100
00000000
,
00010000
00001000
00010000
00001000
,
01000000
00000000
00000000
00000000
,
00000000
00000000
00100000
00000000
,
00100000
00000000
00000000
00000000
,
10000000
00000000
00000000
00000000
,
00010000
00000000
00100000
00000000
,
01000000
00000000
10000000
00000000
,
00010000
00000000
00000000
00000000
,
20020000
00000000
00000000
00000000
,
30030000
00000000
00000000
00000000
;

//---------------dance-double - Spork!----------------
#NOTES:
     dance-double:
     Spork!:
     Medium:
     4:
     0.187,0.303,0.060,0.035,0.000:
00000000
00000000
00000000
00000000
,
00000000
00000000
00000000
00000000
,
00000000
00000000
00000000
00000000
,
00000000
00000000
00000000
00000000
,
00011000
00000000
00010000
00000000
,
00000100
00000000
00000000
00000000
00000000
00000000
00001000
00000010
,
00000100
00000000
00000001
00000000
,
00001000
00000000
00000000
00000000
,
00000001
00000001
00000001
00000000
00001000
00001000
00001000
00000000
,
00000100
00000000
00010000
00000000
00001000
00010000
00001000
01000000
,
00100000
00000000
10000000
00000000
,
00100000
00000000
10000000
00010000
,
01000000
00000000
00010000
00000000
,
00100000
00000000
01000000
10000000
,
01000000
00000000
00100000
00000000
,
00001000
00000000
00010000
00001000
,
00010000
00000000
00000100
00000000
,
00001000
00000010
00000100
00000001
,
00001000
00000000
00000001
00000000
,
00000010
00000000
00000100
00001000
,
00000010
00000000
00000100
00000000
,
00000001
00000000
00001000
00000100
,
00000010
00000001
00001000
00000000
,
00000010
00000000
00000100
00000001
,
00000010
00000000
00000100
00000000
,
00022000
00000000
00000000
00033000
,
00010000
00000000
00001000
00000000
,
00010000
00000000
00001000
00000000
,
01000000
00000000
00010000
00000000
,
01000000
00000000
00010000
10000000
,
01000000
00000000
01100000
00000000
,
00100000
00010000
00100000
00001000
,
00010000
00000000
00000100
00000000
,
00001000
00000000
00000010
00000100
,
00000001
00000000
00001001
00000000
,
00001000
00000010
00001000
00000100
,
00010000
00000000
00001000
00000000
,
01000000
00000000
00010000
10000000
,
01000000
00100000
01100000
00100000
,
00001000
00010000
00001000
01000000
,
00010000
00000000
10000000
00000000
,
00100000
00000000
01000000
00010000
,
00100000
00001000
00011000
00001000
,
00010000
00001000
00010000
00000010
,
00001000
00000000
00000000
00001000
00000001
00000000
00000000
00000001
,
00000100
00000000
00000010
00000000
00001000
00000001
00001000
00000001
,
00000100
00000000
00000010
00000000
,
00001000
00000000
00000001
00000100
,
00000010
00000000
00010000
00000000
,
00001000
00000000
00100000
00010000
,
01000000
00100000
10000000
00000000
,
00010000
00000000
00100000
00010000
,
01000000
00000000
00001000
00000000
,
00022000
00000000
00000000
00000000
,
00033000
00000000
00000000
00000000
;

//---------------dance-double - Spork!----------------
#NOTES:
     dance-double:
     Spork!:
     Hard:
     7:
     0.351,0.466,0.216,0.112,0.091:
00000000
00000000
00000000
00000000
,
00000000
00000000
00000000
00000000
,
00000000
00000000
00000000
00000000
,
00000000
00000000
00000000
00000000
,
00010000
00000000
00000000
00000000
00000000
00000000
00000000
00000000
01100000
00000000
00000000
00000000
01000000
00000000
00010000
01000000
,
00200000
00000000
00000000
00000000
00000000
00000000
00000000
00000000
10300000
00000000
00000000
00000000
00010000
00000000
10000000
00100000
,
01000000
00000000
00000000
00000000
00000000
00000000
00000000
00000000
10010000
00000000
00000000
00000000
00100000
00000000
01000000
00001000
,
00020000
00000000
00000000
00000000
00000000
00000000
00000000
00000000
00031000
00000000
00000000
00010000
00001000
00000000
00010000
00000000
,
00000100
00000100
00000100
00000100
00001000
00001000
00001000
00001000
,
00000001
00000000
00000000
00000000
00000001
00000000
00000000
00000000
00000100
00000000
00000000
00000000
00000100
00000000
00000000
00000000
00000010
00000000
00000000
00000000
00000010
00000000
00000000
00000000
00010000
00000000
00000000
00000000
00001000
00010000
00001000
00010000
,
00001000
00100000
01000000
10000000
,
00010000
00000000
01000000
00000000
00011000
00000000
00010000
00000100
,
00000000
00001000
00000010
00000100
,
00000001
00000000
00000010
00000000
00001100
00000000
00000010
00000100
,
00000000
00000001
00001000
00000010
,
00010000
00000000
00001000
00000000
01010000
00000000
00010000
00100000
,
00000000
00100000
00000000
00100000
00000000
00000000
01000000
00000000
,
10000000
00000000
00000000
00000000
01000000
00000000
00000000
00000000
00100000
00000000
00000000
00000000
00010000
10000000
00010000
10000000
,
00010000
01000000
00001000
00100000
,
00010000
00000000
10000000
00000000
01010000
00000000
01000000
00001000
,
00000000
00010000
00000100
00001000
,
00000010
00000000
00000000
00000000
00010000
00000000
00000000
00000000
00000100
00000000
00000000
00000000
00000010
00000000
00000100
00001000
,
00000100
00000000
00000010
00000100
00000000
00001000
00000000
00000001
,
00000000
00000101
00000000
00001000
00000010
00000000
00000010
00000100
,
00000000
00000001
00001000
00000010
,
00022000
00000000
00000000
00033000
,
00001000
00010000
00000000
01000000
00000000
10000000
00000000
00100000
,
00000000
00010000
00000000
00001000
00000000
00000100
00000000
00000010
,
00001000
00000001
00000000
00000100
00000000
00001000
00000000
00010000
,
00000000
00000000
00001000
00000000
00000000
00000000
00000100
00000000
00000000
00000000
00000010
00000000
00001000
00000001
00001000
00000001
,
00002000
00000100
00000010
00003100
,
00010000
00001000
00000000
01010000
00000000
00011000
00000000
00100000
,
00010000
01000000
00100000
10000000
00100000
01000000
00010000
00100000
,
01000000
00000000
00000000
00000000
10000000
00000000
00000000
00000000
00100000
00000000
00000000
00000000
10000000
00010000
10000000
00010000
,
20000000
00010000
01000000
30010000
,
01000000
00001000
00000000
00110000
00000000
00011000
00000000
00010000
,
00000100
00001000
00000010
00000100
,
00000001
00000000
00000000
00000000
00000010
00000000
00000000
00000000
00000100
00000000
00000000
00000000
00000010
00000001
00000010
00000001
,
00000010
00000110
00001100
00010100
,
00010000
00001000
00000000
00011000
00000000
01010000
00000000
00010000
,
00100000
01000000
10000000
00100000
01000000
00010000
00100000
01000000
,
10000000
00000000
00000000
00000000
00010000
00000000
00000000
00000000
01000000
00000000
00000000
00000000
00100000
10000000
00100000
10000000
,
00100000
01100000
01010000
01001000
,
00010000
00000100
00000000
00011000
00000000
00001010
00000000
00000010
,
00000200
00000000
00000000
00000301
00000020
00000000
00000000
00000130
,
00002000
00000000
00000000
00000000
00003020
00000000
00000000
00000000
00020030
00000000
00000000
00000000
00031000
00010000
00001000
00010000
,
00001000
01000000
00100000
10000000
,
01000000
00000000
00100000
00000000
00101000
00000000
00010000
00001000
,
00000000
00010000
00000100
00001000
,
00000010
00000000
00000000
00000000
00000100
00000000
00000000
00000000
00000001
00000000
00000000
00000000
00001000
00000000
00000100
00001000
,
00000100
00000000
00000010
00000100
00000000
00001000
00000000
00000010
,
00000000
00001001
00000000
00000100
00000010
00000000
00000010
00001000
,
00000000
00000100
00010000
00001000
,
00022000
00000000
00000000
00000000
,
00033000
00000000
00000000
00000000
;

//---------------dance-single - [Ness]----------------
#NOTES:
     dance-single:
     [Ness]:
     Challenge:
     9:
     0.430,0.693,0.009,0.302,0.220:
0000
0000
0000
0000
,
0000
0000
0000
0000
,
0000
0000
0000
0000
,
0000
0000
0000
0000
,
0001
0100
0010
0000
1000
0010
0000
0010
1000
0100
0010
0000
0001
0010
0000
0010
,
0100
1000
0010
0000
1000
0010
0000
0001
0010
0000
1000
0010
0200
0000
0301
1000
,
0100
0010
0001
0000
0010
0100
0000
0100
1000
0001
0100
0000
0010
1000
0000
1000
,
0100
1000
0020
0000
0000
0000
0000
0000
0000
0000
0000
0000
0000
0000
1030
0000
,
0100
0100
0100
0100
0010
0010
0010
0010
,
0001
0000
0000
0100
0001
0000
0000
0100
1000
0000
0000
0100
1000
0000
0000
0100
0010
0000
1000
0010
0100
0000
0001
0010
0100
0000
1000
0010
0100
0001
1000
0001
,
0040
0000
0000
0000
,
0034
0000
0000
0000
1000
0000
0100
0100
,
0403
0000
0000
0000
,
0000
0000
0000
0000
0010
0000
0001
0010
,
0340
0000
0000
0000
,
4030
0000
0000
0000
0100
0000
0001
0100
,
3400
0000
0000
0000
,
0000
0000
0000
0000
0000
0000
0000
0000
0000
0000
0000
0000
0300
1000
0001
1000
,
0040
0000
4030
0000
,
3400
0000
0000
0000
0340
0000
0001
0100
,
0034
0000
0403
0000
,
0340
0000
0000
0000
0000
0000
0000
0000
4030
0000
0000
0000
0000
0000
3000
0100
,
4000
0000
0000
3010
0004
0000
0000
0013
,
0040
0100
0000
0030
0410
0000
1000
0310
,
0040
0001
0100
1000
,
0002
0030
0000
0000
0000
0000
0000
0000
,
1003
0010
1000
0010
0001
0010
0001
0010
,
1000
0010
1000
0010
0001
0010
1000
0100
,
0001
0100
0001
0100
1000
0100
1000
0100
,
0001
0000
0100
0000
1000
0000
0100
0000
0010
0000
0100
1000
0100
0010
0100
0010
,
0001
0010
0001
0010
1000
0010
1000
0010
,
0001
0400
0010
0000
1000
0000
0010
0300
,
0001
0010
0001
0010
1000
0010
1000
0010
,
0001
0000
0010
0000
0001
0000
0010
0000
1000
0000
0010
0000
0100
1000
0100
1000
,
0001
0100
0001
0100
1000
0100
1000
0100
,
0001
0040
0100
0000
1000
0000
0100
0030
,
0001
0100
0001
0100
1000
0100
1000
0100
,
0001
0000
0100
0000
0001
0000
0100
0000
1000
0000
0100
0000
0010
1000
0010
1000
,
0001
0010
0100
0001
1000
0010
0100
1000
,
0001
0400
1000
0000
0001
0000
1000
0300
,
0001
0010
1000
0001
0100
1000
0010
0100
,
1000
0000
0001
0000
0010
0000
0100
0000
0001
0000
1000
0000
0010
0100
0010
0100
,
0001
0010
0100
0001
1000
0010
0100
1000
,
0001
0040
1000
0000
0001
0000
1000
0000
,
0130
0000
0100
0000
0100
0000
0010
0001
0010
0000
0010
0000
0010
0000
0001
0100
,
0010
0000
1000
0010
0100
0000
0001
1000
0100
0000
1000
0001
0100
0010
0100
0010
,
4000
0010
0000
0100
0000
0010
0000
0100
,
3004
0010
0000
0100
0000
0010
0000
1000
,
0403
0001
0000
1000
0000
0001
0000
1000
,
0340
0000
0100
0000
0000
0000
1000
0000
0430
0000
0010
0000
0000
0000
0300
0010
,
0400
0010
0000
0001
0000
0010
0000
1000
,
0340
0100
0000
0001
0000
0100
0000
1000
,
0034
0100
0000
1000
0000
0010
0000
1000
,
0203
0000
0300
0000
;

//---------------dance-double - [Ness]----------------
#NOTES:
     dance-double:
     [Ness]:
     Challenge:
     9:
     0.429,0.711,0.000,0.294,0.216:
00000000
00000000
00000000
00000000
,
00000000
00000000
00000000
00000000
,
00000000
00000000
00000000
00000000
,
00000000
00000000
00000000
00000000
,
00000100
00010000
00001000
00000000
00010000
00001000
00000000
00001000
01000000
00001000
00010000
00000000
00001000
00010000
00000000
00010000
,
00000100
00001000
00000010
00000000
00000001
00000010
00000000
00001000
00000010
00000000
00001000
00000100
00020000
00000000
00031000
01000000
,
00010000
00100000
01000000
00000000
00100000
00010000
00000000
00010000
01000000
00100000
10000000
00000000
01000000
00100000
00000000
00100000
,
00001000
00010000
00000020
00000000
00000000
00000000
00000000
00000000
00000000
00000000
00000000
00000000
00000000
00000000
00000130
00000000
,
00000001
00000001
00000001
00000001
00001000
00001000
00001000
00001000
,
00010000
00000000
00000000
00100000
00010000
00000000
00000000
00100000
10000000
00000000
00000000
00100000
10000000
00000000
00010000
10000000
00100000
00000000
01000000
00010000
00100000
00000000
00001000
00010000
00000100
00000000
00001000
00000010
00000100
00000001
00000100
00000010
,
00000400
00000000
00000000
00000000
,
00000340
00000000
00000000
00000000
00000001
00000000
00001000
00010000
,
00040030
00000000
00000000
00000000
,
00000000
00000000
00000000
00000000
00001000
00000000
00100000
00001000
,
00034000
00000000
00000000
00000000
,
04003000
00000000
00000000
00000000
10000000
00000000
00010000
00100000
,
03400000
00000000
00000000
00000000
,
00000000
00000000
00000000
00000000
00000000
00000000
00000000
00000000
00000000
00000000
00300000
00000000
01000000
00100000
01000000
00010000
,
40000000
00000000
34000000
00000000
,
03400000
00000000
00000000
00000000
00304000
00000000
00010000
00010000
,
00043000
00000000
00030040
00000000
,
00000430
00000000
00000000
00000000
00000000
00000000
00000000
00000000
00000304
00000000
00000000
00000000
00000000
00000000
00000003
00000100
,
00000040
00000000
00000000
00010000
00004030
00000000
00000000
00000000
,
00003400
00000010
00000000
00000000
00004300
00000000
01003000
00100000
,
00040000
00000000
00000000
00000000
00000000
00000000
00000000
00030000
,
20000000
00000000
00000000
30000000
,
10000000
00100000
10000000
00100000
00010000
00100000
00010000
00100000
,
00010000
00000010
00010000
00000010
00000001
00000010
00000001
00000010
,
00000100
00000001
00000100
00000001
00001000
00000100
00001000
00000100
,
00010000
00000000
01000000
00000000
00010000
00000000
01000000
00000000
10000000
00000000
01000000
10000000
01000000
00100000
00001000
00010000
,
00001000
00010000
00001000
00010000
00000010
00001000
00000010
00001000
,
00000010
00000400
00000001
00000000
00001000
00000000
00000310
00010000
,
00001000
00100000
00001000
00100000
10000000
00100000
10000000
00100000
,
00010000
00000000
01000000
00000000
00010000
00000000
01000000
00000000
10000000
00000000
01000000
00000000
10000000
01000000
00100000
01000000
,
00010000
00100000
00010000
00100000
00001000
00000010
00001000
00000010
,
00000001
00000400
00000010
00000000
00001000
00000000
00000310
00010000
,
00001000
01000000
00001000
01000000
00001000
00000100
00001000
00000100
,
00000010
00000000
00001000
00000000
00000010
00000000
00001000
00000000
00000001
00000000
00000010
00000100
00001000
00000010
00001000
00000100
,
00010000
00001000
00010000
00001000
01000000
00010000
01000000
00010000
,
01000000
00400000
10000000
00000000
00010000
00000000
01300000
00001000
,
00010000
00000100
00010000
00000100
00000001
00000100
00000001
00000100
,
00001000
00000000
00000010
00000000
00001000
00000000
00000010
00000000
00000001
00000000
00000010
00000000
00000001
00000010
00000100
00000010
,
00001000
00000100
00001000
00000100
00010000
01000000
00010000
01000000
,
10000000
00400000
01000000
00000000
00010000
00000000
01300000
00001000
,
00010000
00000000
00000010
00000000
00010000
00000000
00000010
00010000
00001000
00000000
00100000
00000000
00010000
00000000
00100000
00010000
,
01000000
00000000
00010000
00000000
10000000
00000000
00010000
00000000
00100000
00000000
01000000
00000000
10000000
01000000
10000000
01000000
,
00400000
01000000
00000000
00010000
00000000
10000000
00000000
00310000
,
04000000
00001000
00000000
00010000
00000000
00100000
00000000
03001000
,
00040000
00000100
00000000
00001000
00000000
00000010
00000000
00030100
,
00000040
00000000
00000001
00000000
00000000
00000000
00000100
00000000
00000000
00000000
00001000
00000000
00000000
00000000
00000031
00000010
,
00000400
00010000
00000000
00001000
00000000
00000010
00000000
00001300
,
00000040
00010000
00000000
00001030
00000400
00000000
00010000
00001300
,
00004000
00010000
00000000
00000010
00000000
00000001
00000000
00000010
,
00003000
00010000
00000000
00000000
00000000
00000000
00000000
00000000
;
