#TITLE:Chaos;
#SUBTITLE:;
#ARTIST:Megara vs. DJ Lee;
#TITLETRANSLIT:;
#SUBTITLETRANSLIT:;
#ARTISTTRANSLIT:;
#GENRE:;
#CREDIT:;
#BANNER:Chaos-bn.png;
#BACKGROUND:Chaos-bg.png;
#LYRICSPATH:Lyrics.lrc;
#CDTITLE:ddrencorecdtitle.png;
#MUSIC:Chaos.mp3;
#OFFSET:-0.008;
#SAMPLESTART:77.785;
#SAMPLELENGTH:13.561;
#SELECTABLE:YES;
#BPMS:0.000=142.000
;
#STOPS:;
#BGCHANGES:;
#KEYSOUNDS:;
#ATTACKS:;

//---------------dance-single - ----------------
#NOTES:
     dance-single:
     :
     Beginner:
     1:
     0.158,0.227,0.119,0.073,0.000,100.000,13.000,8.000,0.000,0.000,0.000,0.158,0.227,0.119,0.073,0.000,100.000,13.000,8.000,0.000,0.000,0.000:
0000
0000
0000
0000
,
0000
0000
0000
0000
,
0000
0000
0000
0000
,
0000
0000
0000
0000
,
0000
1000
0000
1000
,
0000
1000
0000
0000
,
0000
0001
0000
0001
,
0000
0001
0000
0000
,
0000
1000
0000
1000
,
0000
1000
0000
0000
,
0000
0001
0000
0001
,
0001
0000
0000
0000
,
0200
0000
0000
0000
,
0300
0000
0000
0000
,
0020
0000
0000
0000
,
0030
0000
0000
0000
,
2000
0000
0000
0000
,
3000
0000
0000
0000
,
0002
0000
0000
0000
,
0003
0000
0000
0000
,
1000
1000
1000
0000
,
0010
0000
0100
0000
,
0001
0001
0001
0000
,
1000
0000
1001
0000
,
0001
0001
0001
0000
,
0010
0000
0100
0000
,
1000
1000
1000
0000
,
0001
0000
1001
0000
,
0001
0000
0100
0000
,
0001
0000
1000
0000
,
0010
0010
0010
0000
,
0100
0100
0100
0000
,
0001
0000
1000
0000
,
0001
0000
0010
0000
,
0001
0001
0001
0000
,
1000
1000
1000
0000
,
1001
0000
0000
0110
,
0000
0000
0001
0001
,
0001
0000
0000
0000
,
0000
0000
0000
0000
,
1000
0000
0000
0000
,
0000
0000
0000
0000
,
0001
0000
0100
0000
,
0001
0000
1000
0000
,
0100
0000
0010
0000
,
1001
0000
0000
0000
,
0001
0000
0100
0000
,
1000
0000
0100
0100
,
0100
0000
0001
0000
,
0010
0000
1000
1000
,
1000
0000
0010
0000
,
0001
0000
0100
0100
,
0100
0000
0010
0000
,
2002
0000
3003
0000
,
0000
1000
0000
1000
,
0000
1000
0000
0000
,
0000
0001
0000
0001
,
0000
0001
0000
0000
,
0000
1001
0000
1001
,
0000
1001
0000
0000
,
0000
0110
0000
0110
,
0220
0000
0000
0330
,
1001
0000
0000
0000
;

//---------------dance-single - ----------------
#NOTES:
     dance-single:
     :
     Easy:
     4:
     0.238,0.227,0.073,0.229,0.000,149.000,8.000,25.000,0.000,0.000,0.000,0.238,0.227,0.073,0.229,0.000,149.000,8.000,25.000,0.000,0.000,0.000:
0000
0000
0000
0000
,
0000
0000
0000
0000
,
0000
0000
0000
0000
,
0000
0000
0000
0000
,
0010
0100
0000
0001
,
0000
1000
0000
0001
,
0010
0100
0000
1000
,
0000
0001
0000
1000
,
0010
0100
0000
0001
,
0000
1000
0000
0001
,
0010
0100
0000
0010
,
0100
1001
0100
0001
,
2000
0000
3200
0000
,
2300
0000
3200
0000
,
0320
0000
0032
0000
,
0023
0000
0032
0000
,
2003
0000
3020
0000
,
2030
0000
3020
0000
,
0230
0000
0302
0000
,
0103
0001
1000
0001
,
0100
0000
0100
0010
,
1000
0000
0001
0000
,
1000
0000
1000
0010
,
0100
0000
0001
1100
,
0001
0000
0001
0010
,
0100
0000
1000
0000
,
0010
0000
0010
0100
,
0001
0000
1000
0101
,
1000
0100
0010
0000
,
0100
0000
0010
0001
,
0100
0000
0100
0010
,
1000
0000
0001
0000
,
1000
0010
0100
0000
,
0010
0000
0100
0001
,
1000
0000
1000
0010
,
0100
0000
0001
0000
,
2100
0000
3000
0102
,
0000
0003
0010
0001
,
2000
0000
3000
0000
,
0002
0000
0003
0000
,
2000
0000
3000
0000
,
0002
0000
0003
0000
,
0001
0100
0001
0100
,
0010
1000
0010
1000
,
0100
0010
0001
1000
,
0010
0010
0020
0000
,
1030
0000
0100
0000
0000
0100
0000
0000
,
0100
0000
0000
0100
0000
0000
0010
0000
,
0001
0000
0010
0000
0000
0010
0000
0000
,
0010
0000
0000
0010
0000
0000
0001
0000
,
1000
0000
0001
0000
0000
0001
0000
0000
,
0001
0000
0000
0001
0000
0000
1000
0000
,
0010
0000
1000
0000
0000
1000
0000
0000
,
2002
0000
3003
0000
,
0010
0100
0000
0001
,
0000
1000
0000
0001
,
0010
0100
0000
1000
,
0000
0001
0000
1000
,
0010
0100
0000
0100
,
0000
0100
0000
0001
,
0100
0010
0000
0010
,
2002
0000
0000
3003
,
1001
0000
0000
0000
;

//---------------dance-single - ----------------
#NOTES:
     dance-single:
     :
     Medium:
     6:
     0.344,0.369,0.266,0.229,0.009,209.000,29.000,25.000,0.000,0.000,0.000,0.344,0.369,0.266,0.229,0.009,209.000,29.000,25.000,0.000,0.000,0.000:
0000
0000
0000
0000
,
0000
0000
0000
0000
,
0000
0000
0000
0000
,
0000
0000
0000
0000
,
0000
1100
0000
1001
,
0000
0000
0101
0000
0000
0000
0010
0010
,
0000
0101
0000
1001
,
0000
0000
1100
0000
0000
0000
0010
0010
,
0000
1001
0000
0011
,
0000
0000
1010
0000
0000
0000
0100
0100
,
0000
1001
0000
1010
,
0200
0001
0000
0301
,
2000
0000
3002
0000
,
2003
0000
3002
0000
,
0203
0000
0320
0000
,
0230
0000
0320
0000
,
2030
0000
3200
0000
,
0320
0000
0032
0000
,
2003
0000
3002
0000
,
0103
0001
1000
0000
0010
0000
1001
0000
,
0001
0100
0001
0000
1000
0100
1000
0000
,
0010
0000
0100
0000
0001
0010
0100
0000
,
1000
0010
1000
0000
0001
0010
0001
0000
,
0100
0010
1000
1001
,
0001
0100
0010
0000
1000
0100
0010
0000
,
0001
0000
0100
0000
0001
1000
0001
0000
,
1000
0010
0100
0000
0001
0010
0100
0000
,
1000
0000
0010
0000
0100
0001
0100
0001
,
1000
0100
0020
0000
,
0031
0100
0010
1000
,
0001
0100
0001
0000
1000
0100
1000
0000
,
0010
0000
0100
0000
0010
1000
0001
0000
,
0010
0001
0200
0000
,
0310
1000
0100
1000
,
0001
0100
0010
0000
1000
0100
0010
0000
,
0100
0000
1000
0000
0010
0100
0001
0000
,
2100
0000
0100
0100
3000
0000
0102
0000
,
0100
0000
0000
0100
0000
0000
0003
0000
0000
0000
0000
0000
1000
0000
0000
0000
0100
0000
0000
0000
0010
0000
0000
0000
,
0002
0000
0003
0000
,
0100
0000
0010
0000
,
2000
0000
3000
0000
,
0010
0000
1000
0000
,
0001
0100
0001
0100
,
0010
1000
0010
1000
,
0100
0010
0100
0000
0010
0100
0010
0000
,
2002
0000
3003
0000
,
0001
0000
0100
0000
0100
0010
0000
0010
,
1000
0000
1000
0001
0000
0001
0100
0000
,
0001
0000
0010
0000
0010
0001
0000
0001
,
0100
0000
0100
0010
0000
0010
1000
0000
,
0001
0000
1000
0000
1000
0100
0000
0100
,
0010
0000
0010
0001
0000
0001
1000
0000
,
0010
0000
0100
0000
0001
1000
0000
1000
,
0010
0000
0100
0000
0001
0000
0100
0001
,
0010
0011
0000
1100
,
0000
0000
1010
0000
0000
0000
0100
0100
,
0000
1010
0000
0101
,
0000
0000
0011
0000
0000
0000
0100
0100
,
0000
0110
0000
1001
,
0000
0000
0110
0000
0000
0000
0001
1000
,
0000
1001
0000
0110
,
2002
0000
0000
3003
,
1001
0000
0000
0000
;

//---------------dance-single - ----------------
#NOTES:
     dance-single:
     :
     Hard:
     8:
     0.482,0.520,0.431,0.119,0.220,308.000,47.000,13.000,0.000,0.000,0.000,0.482,0.520,0.431,0.119,0.220,308.000,47.000,13.000,0.000,0.000,0.000:
0000
0000
0000
0000
,
0000
0000
0000
0000
,
0000
0000
0000
0000
,
0000
0000
0000
0000
,
0000
1010
0000
0101
,
0000
0000
0011
0000
0000
0000
0100
0001
,
0000
0101
0000
1100
,
0000
0000
0110
0000
0000
0000
0001
1000
,
0000
0101
0000
1010
,
0000
0000
1100
0000
0000
0000
0010
1000
,
0000
1010
0000
0011
,
0001
0000
1100
0000
0010
0100
0001
0002
,
0000
0000
0000
0010
0000
0000
0000
1000
,
0000
0000
0000
0103
0000
0000
0000
2000
,
0000
0000
0000
0010
0000
0000
0000
0001
,
0000
0000
0000
3100
0000
0000
0000
0020
,
0000
0000
0000
0001
0000
0000
0000
0100
,
0000
0000
0000
1030
0000
0000
0000
0200
,
0000
0000
0000
1000
0000
0000
0000
0310
,
0001
0000
1000
0000
0010
0000
0000
0000
0100
0010
0000
0100
0001
0000
1000
0001
,
1000
0010
0000
1000
0010
0000
1000
0010
0000
1000
0010
0000
0100
0000
0001
0000
,
0010
0000
0000
1001
0000
0000
0100
0000
0000
0000
1000
0000
0010
0000
0100
0000
,
0001
0010
0000
0001
0010
0000
0001
0010
0000
0001
0010
0000
0100
0000
1000
0000
,
0010
0000
0000
0100
0001
0000
0010
0000
0000
0100
1000
0000
0010
0000
1000
0000
,
0001
0100
0000
0001
0100
0000
0001
0100
0000
0001
0100
0000
0010
0000
1000
0000
,
0100
0000
0000
1001
0000
0000
0010
0000
0000
0000
0001
0000
0100
0000
0010
0000
,
1000
0100
0000
1000
0100
0000
1000
0100
0000
1000
0100
0000
0010
0000
0001
0000
,
0100
0000
0010
0000
1000
0000
0000
0000
0001
1000
0000
0000
0010
0000
0100
0001
,
1000
0000
0000
0100
0000
0000
0010
0000
0001
2000
0000
0000
0000
0000
0000
0000
,
3010
0000
0000
0000
1001
0000
0000
0000
1000
0000
0000
0010
0000
0000
0100
0000
,
0001
1000
0000
0001
1000
0000
0001
1000
0000
0001
1000
0000
0010
0000
0100
0000
,
0001
0000
0000
0010
0100
0000
1000
0000
0000
0001
0100
0000
0010
0000
1000
0000
,
0001
0000
0000
0010
0000
0000
0100
0000
1000
0002
0000
0000
0000
0000
0000
0000
,
0103
0000
0000
0000
1001
0000
0000
0000
0001
0000
0000
0100
0000
0000
0010
0000
,
1000
0001
0000
1000
0001
0000
1000
0001
0000
1000
0001
0000
0100
0000
0010
0000
,
1000
0000
0001
0000
0010
0000
0000
0000
0100
0010
0000
0000
0001
0000
1000
0000
,
0102
0000
1000
1000
0000
0003
2100
0000
,
0001
0000
0000
0001
0000
0000
0000
0000
0000
3000
0000
0000
0011
0000
0000
0000
1100
0000
0000
0000
1001
0000
0000
0000
,
0010
0001
0010
0000
0100
1000
0000
0010
,
0100
0000
0001
1000
0000
0100
0010
0001
,
0100
0010
1000
0000
0100
1000
0000
0010
,
0100
0000
0001
0010
0000
0100
0010
0001
,
1000
0010
1000
0010
0100
0001
0100
0001
,
1000
0100
1000
0100
0010
0001
0010
0001
,
0100
0010
1000
0100
0010
0001
0100
0010
,
0220
0000
0000
0330
,
0001
0000
0101
0000
0010
1010
0100
0001
,
1000
0000
0100
0110
0000
0001
0100
0010
,
1000
0000
1100
0000
0010
0011
0100
1000
,
0001
0000
0100
0110
0000
0001
0010
0100
,
1000
0000
0101
0000
0010
1010
0100
0001
,
1000
0000
0001
0110
0000
1000
0100
0010
,
0001
0000
1100
0000
0010
0100
0000
0001
,
0101
0000
1001
0000
2100
0000
0000
3000
,
0010
0101
0010
1100
,
0001
0000
0110
0000
1000
0000
0001
0010
,
0100
0011
0100
1010
,
0001
0000
0110
0000
1000
0000
0010
1000
,
0100
0110
0000
0011
,
0000
0000
1100
0000
0000
0000
0010
0100
,
0000
0101
0000
0110
,
1000
0001
0000
1000
0001
0000
1000
0001
0000
1000
0001
0000
0100
0000
0010
0000
,
2002
0000
0000
0000
,
3003
0000
0000
0000
;

//---------------dance-double - ----------------
#NOTES:
     dance-double:
     :
     Easy:
     3:
     0.221,0.227,0.083,0.211,0.000,137.000,9.000,23.000,0.000,0.000,0.000,0.221,0.227,0.083,0.211,0.000,137.000,9.000,23.000,0.000,0.000,0.000:
00000000
00000000
00000000
00000000
,
00000000
00000000
00000000
00000000
,
00000000
00000000
00000000
00000000
,
00000000
00000000
00000000
00000000
,
00000000
00100000
00000000
00100000
,
00000000
00100000
00000000
00011000
,
00000000
00000010
00000000
00000010
,
00000000
00000010
00000000
00011000
,
00000000
01000000
00000000
01000000
,
00000000
01000000
00000000
00011000
,
00000000
00000100
00000000
00000100
,
00000010
00000000
00000001
00000000
,
00002000
00000000
00003200
00000000
,
00002300
00000000
00003200
00000000
,
00000320
00000000
00000032
00000000
,
00000023
00000000
00000032
00000000
,
00000203
00000000
00000320
00000000
,
00000230
00000000
00000320
00000000
,
00020030
00000000
00032000
00000000
,
00023000
00000000
00032000
00000000
,
01003000
00010000
01000000
00000000
,
00100000
10000000
00010000
00000000
,
00100000
00010000
00100000
00000000
,
01000000
10000000
01000000
00000000
,
00100000
00001000
00010000
00000000
,
00001000
00010000
00001000
00000000
,
00010000
00000010
00001000
00000000
,
00000010
00000100
00000010
00000000
,
00001000
00001000
00000002
00000000
,
00000103
00000000
00000010
00001000
,
00000100
00000000
00010000
00000000
,
00000010
00000000
00010000
00000000
,
00001000
00001000
02000000
00000000
,
03100000
00000000
10000000
00010000
,
01000000
00000000
00001000
00000000
,
00100000
00000000
00001000
00000000
,
00021000
00000000
00030000
00012000
,
00000000
00003000
00010000
00000100
,
00000010
00000000
00000000
00000000
,
00000001
00000000
00001000
00000000
,
00000100
00000000
00000000
00000000
,
00010000
00000000
00001000
00000000
,
01000000
00010000
01000000
00000000
,
00100000
10000000
00100000
00000000
,
01000000
00010000
00100000
00001000
,
00020000
00000000
00000000
00030000
,
00000000
00000000
00000100
00000000
00000000
00000100
00000000
00000000
,
00000100
00000000
00000000
00000100
00000000
00000000
00000010
00000000
,
00000001
00000000
00001000
00000000
00000000
00001000
00000000
00000000
,
00001000
00000000
00000000
00001000
00000000
00000000
00000010
00000000
,
00010000
00000000
00001000
00000000
00000000
00001000
00000000
00000000
,
00001000
00000000
00000000
00001000
00000000
00000000
00100000
00000000
,
00010000
00000000
01000000
00000000
00000000
01000000
00000000
00000000
,
00100000
10000000
00020000
00000000
,
01030000
01000000
00000000
01000000
,
00000000
01000000
00000000
00011000
,
00000000
00000100
00000000
00000100
,
00000000
00000100
00000000
00011000
,
00000000
00100000
00000000
01000000
,
00000000
00100000
00000000
00011000
,
00000000
00000010
00000000
00000100
,
00000020
00000000
00000000
00000030
,
00001001
00000000
00000000
00000000
;

//---------------dance-double - ----------------
#NOTES:
     dance-double:
     :
     Medium:
     6:
     0.350,0.369,0.257,0.202,0.028,217.000,28.000,22.000,0.000,0.000,0.000,0.350,0.369,0.257,0.202,0.028,217.000,28.000,22.000,0.000,0.000,0.000:
00000000
00000000
00000000
00000000
,
00000000
00000000
00000000
00000000
,
00000000
00000000
00000000
00000000
,
00000000
00000000
00000000
00000000
,
00000000
00000101
00000000
00000110
,
00000000
00000000
00001010
00000000
00000000
00000000
00000100
00000100
,
00000000
00011000
00000000
01001000
,
00000000
00000000
01100000
00000000
00000000
00000000
10000000
10000000
,
00000000
11000000
00000000
01100000
,
00000000
00000000
00110000
00000000
00000000
00000000
01000000
01000000
,
00000000
00011000
00000000
00010100
,
00002000
00000000
00000000
00003010
,
00000200
00000000
00000302
00000000
,
00002003
00000000
00003020
00000000
,
00020030
00000000
00032000
00000000
,
02003000
00000000
03020000
00000000
,
00230000
00000000
02300000
00000000
,
23000000
00000000
30020000
00000000
,
00230000
00000000
00302000
00000000
,
00013000
00001000
00010000
00000000
00000010
00000000
00000100
00000000
,
00000001
00000010
00000001
00000010
00000100
00001000
00000010
00000000
,
00010000
00000000
00001000
00000000
01000000
00010000
00100000
00000000
,
01000000
10000000
01000000
10000000
00100000
01000000
00010000
00000000
,
00100000
00000000
00001000
00000000
00010000
00001000
00011000
00000000
,
01000000
00010000
01000000
00010000
00100000
01000000
10000000
00000000
,
00010000
00000000
00100000
00000000
00001000
00010000
00000010
00000000
,
00001000
00000100
00001000
00000100
00000010
00000001
00000100
00000000
,
00000010
00010000
00001000
00011000
,
00010000
00000000
00000000
00000100
00000000
00000000
00001000
00000000
00000002
00000000
00000000
00000000
00000000
00000000
00000000
00000000
,
00000103
00000000
00000000
00000000
00000010
00000000
00000000
00000000
00001000
00000000
00000000
00000001
00000000
00000000
00000100
00000000
,
00000010
00000000
00010000
00000000
00001000
00010000
00001000
00000000
,
01000000
00000000
00001000
00000000
00100000
00010000
00100000
00000000
,
00001000
00000000
00000000
01000000
00000000
00000000
00100000
00000000
20000000
00000000
00000000
00000000
00000000
00000000
00000000
00000000
,
31000000
00000000
00000000
00000000
00100000
00000000
00000000
00000000
00010000
00000000
00000000
10000000
00000000
00000000
00100000
00000000
,
01000000
00000000
00001000
00000000
00010000
00001000
00010000
00000000
,
00000010
00000000
00010000
00000000
00000100
00001000
00000100
00000000
,
00000120
00000000
00000030
00001002
,
00000000
00000000
00000000
00000003
00000000
00000000
00000001
00000000
00000100
00000000
00000010
00000000
,
00001000
00000000
00000100
00000000
,
00010000
00000000
00001000
00100000
,
00010000
00000000
01000000
00000000
,
00100000
00000000
10000000
00010000
,
00100000
00010000
00100000
00000000
01000000
10000000
01000000
00000000
,
00100000
00001000
00100000
00000000
00001000
00010000
00001000
00000000
,
00010000
00000000
00000100
00000000
00000010
00000001
00001000
00000000
,
00002002
00000000
00003003
00000000
,
00001000
00000000
00000001
00000000
00000100
00000010
00000000
00000010
,
00001000
00000000
00001000
00000100
00000000
00000100
00010000
00000000
,
00001000
00000000
01000000
00000000
00010000
00100000
00000000
00100000
,
01000000
00000000
01000000
10000000
00000000
10000000
00010000
00000000
,
00100000
00000000
00001000
00000000
00010000
00001000
00000000
00001000
,
01000000
00000000
01000000
00100000
00000000
00100000
10000000
00000000
,
00010000
00000000
00100000
00000000
00001000
00010000
00000000
00010000
,
00000010
00000000
00000100
00000000
00000001
00001000
00000001
00001000
,
00000100
00000110
00000000
00001100
,
00000000
00000000
00010100
00000000
00000000
00000000
00010000
00001000
,
00000000
01001000
00000000
01010000
,
00000000
00000000
01100000
00000000
00000000
00000000
10000000
00010000
,
00000000
11000000
00000000
01100000
,
00000000
00000000
00011000
00000000
00000000
00000000
00010000
00010000
,
00000000
00001010
00000000
00000110
,
00000002
00000000
00000000
00000003
,
00001001
00000000
00000000
00000000
;

//---------------dance-double - ----------------
#NOTES:
     dance-double:
     :
     Hard:
     8:
     0.481,0.462,0.183,0.119,0.069,334.000,20.000,13.000,0.000,0.000,0.000,0.481,0.462,0.183,0.119,0.069,334.000,20.000,13.000,0.000,0.000,0.000:
00000000
00000000
00000000
00000000
,
00000000
00000000
00000000
00000000
,
00000000
00000000
00000000
00000000
,
00000000
00000000
00000000
00000000
,
00001000
00100000
00010000
00000000
01000000
00100000
10000000
00000000
,
01000000
00100000
00010000
00000000
01000000
00000000
00100000
10000000
,
00010000
00100000
00001000
00000000
00010000
00000010
00001000
00000000
,
00000100
00000010
00000001
00000000
00000100
00000000
00000010
00001000
,
00000100
00010000
00001000
00000000
01000000
00010000
00100000
00000000
,
01000000
00100000
00010000
00000000
01000000
00000000
00001000
00010000
,
00000010
00000100
00000001
00000000
00000100
00000010
00001000
00000000
,
00000010
00000000
00000101
00000000
00000001
00001000
00000100
00000020
,
00000000
00000000
00000000
00000001
00000000
00000000
00000000
00001000
,
00000000
00000000
00000000
00000100
00000030
00000000
00000000
00020000
,
00000000
00000000
00000000
00001000
00000000
00000000
00000000
01000000
,
00000000
00000000
00000000
00001000
00030000
00000000
00000000
02000000
,
00000000
00000000
00000000
10000000
00000000
00000000
00000000
00010000
,
00000000
00000000
00000000
00100000
03000000
00000000
00000000
00002000
,
00000000
00000000
00000000
00100000
00000000
00000000
00000000
00013000
,
00001000
00000000
00100000
00000000
00001000
00000000
00000000
00000000
00010000
00001000
00000000
00000000
01000000
00000000
00010000
10000000
,
01000000
00100000
00001000
00010000
00000100
00000010
00000001
00000100
,
00000010
00000000
00000000
00011000
00000000
00000000
00000010
00000000
00000000
00000000
00000100
00000000
00000001
00000000
00000001
00000000
,
00000100
00000010
00010000
00001000
01000000
00100000
10000000
00010000
,
01000000
00010000
00100000
00000000
00100000
00001000
00010000
00001000
,
00100000
00010000
01000000
00001000
00010000
00000010
00001000
00000100
,
00010000
00000000
00000000
00001100
00000000
00000000
00010000
00000000
00000000
00000000
00001000
00000000
01000000
00000000
00001000
00000000
,
00010000
00000010
00001000
00000100
00010000
00001000
01000000
00010000
,
00100000
00000000
00001000
00000000
00010000
00000000
00000000
00000000
00001000
01000000
00000000
00000000
00010000
00000000
00100000
00010000
,
00100000
00000000
00000000
01000000
00000000
00000000
10000000
00000000
00010000
02000000
00000000
00000000
00000000
00000000
00000000
00000000
,
03100000
00000000
00000000
00000000
10010000
00000000
00000000
00000000
00100000
00000000
00000000
00001000
00000000
00000000
00010000
00000000
,
00000010
00000100
00000001
00001000
00000100
00010000
00001000
00000000
,
01000000
00010000
00100000
00001000
00010000
00000010
00001000
00000100
,
00000010
00000000
00000000
00000100
00000000
00000000
00001000
00000000
00000001
00000200
00000000
00000000
00000000
00000000
00000000
00000000
,
00000310
00000000
00000000
00000000
00001001
00000000
00000000
00000000
00000010
00000000
00000000
00010000
00000000
00000000
00001000
00000000
,
01000000
00010000
10000000
00100000
01000000
00010000
00100000
00000000
,
01000000
00000000
10000000
00000000
00010000
00000000
00100000
00000000
00001000
00010000
00000000
00000000
00001000
00000000
00010000
00000000
,
01002000
00000000
00010000
00010000
00003000
00000000
00020100
00000000
,
00001000
00000000
00000000
00001000
00000000
00000000
00030000
00000000
00000000
00000000
00000000
00000000
00011000
00000000
00000000
00000000
00010100
00000000
00000000
00000000
00001100
00000000
00000000
00000000
,
00000010
00000000
00000001
00000000
00000100
00000010
00001000
00000010
,
00000100
00000000
00000000
00000101
00000000
00000000
00001000
00000010
,
00010000
00000000
00001000
00000000
00001000
01000000
00010000
01000000
,
00001000
00000000
00000000
00110000
00000000
00000000
01000000
00100000
,
10000000
01000000
00100000
00010000
10000000
01000000
00100000
00010000
,
00001000
00000100
00000010
00000001
00001000
00000100
00000010
00000001
,
00001000
00000010
00010000
00001000
01000000
00010000
00100000
00001000
,
00022000
00000000
00000000
00033000
,
00100000
00010000
01000000
10000000
00010000
00100000
01000000
00010000
,
00100000
01000000
00100000
00001000
00010000
00000100
00000010
00000010
,
00000100
00001000
00000010
00000001
00001000
00000100
00000010
00001000
,
00000100
00000010
00000100
00010000
00001000
01000000
00100000
00100000
,
10000000
01000000
00010000
00001000
00000010
00000001
00000010
00000100
,
00010000
00000010
00000100
00000001
00000100
00000010
00001000
00001000
,
00000001
00000100
00001000
00010000
00100000
10000000
00100000
01000000
,
00001000
00010000
00021000
00000000
,
00030100
00001000
00000010
00000000
00000100
00000001
00001000
00000000
,
00000010
00010000
00001000
00000000
01000000
00000000
00010000
00100000
,
01000000
10000000
00100000
00000000
01000000
00010000
00100000
00000000
,
00001000
00010000
00000010
00000000
00000100
00000000
00000001
00000010
,
00000100
00001100
00000000
00011000
,
00000000
00000000
01010000
00000000
00000000
00000000
00100000
10000000
,
00010000
11000000
00000000
00110000
,
01000000
10000000
00010000
00100000
00001000
00010000
00000010
00001000
,
00002002
00000000
00000000
00000000
,
00003003
00000000
00000000
00000000
;
