#TITLE:Broadbanded;
#SUBTITLE:;
#ARTIST:SADA;
#TITLETRANSLIT:Broadbanded;
#SUBTITLETRANSLIT:;
#ARTISTTRANSLIT:SADA;
#GENRE:;
#CREDIT:djKEN.;
#MENUCOLOR:;
#BANNER:Broadbanded-bn.png;
#BACKGROUND:Broadbanded-bg.png;
#LYRICSPATH:;
#CDTITLE:ddrencorecdtitle.png;
#MUSIC:Broadbanded.mp3;
#OFFSET:1.220;
#SAMPLESTART:43.370;
#SAMPLELENGTH:16.000;
#SELECTABLE:YES;
#LISTSORT:;
#BPMS:0.000=140.000;
#STOPS:;
#TICKCOUNT:0.000=2;
#BGCHANGES:2.000=Broadbanded.mpg=1.000=1=0=1,
99999=-nosongbg-=1.000=0=0=0 // don't automatically add -songbackground-
;
#KEYSOUNDS:;
#ATTACKS:;

//---------------dance-single - ----------------
#NOTES:
     dance-single:
     :
     Hard:
     9:
     0.627,0.651,0.170,0.024,0.247:
0000
0000
0000
0000
,
0000
0000
0000
0000
,
1000
0000
0001
0000
0010
0100
1000
0000
,
0001
0000
1000
0000
0010
0100
0001
0000
,
0100
0000
1000
0000
0100
0001
0010
0000
,
0100
0000
0001
0000
0100
1000
0010
0000
,
0100
0000
0010
1000
0001
0000
0010
0001
,
1000
0000
0001
0100
1000
0000
1000
0100
,
0001
0010
0100
1000
0100
0010
0001
0100
,
2010
0001
0100
3001
,
0010
1001
0100
0011
,
1000
0110
0001
1100
,
0010
0101
1000
0011
,
0100
1001
0010
1001
,
0101
0010
0100
0000
0001
0100
1000
0000
,
1010
0100
0001
0000
1000
0100
0010
0000
,
1001
0100
0001
0010
0101
0010
0100
1000
,
1010
0000
0110
0000
1000
0100
0001
0100
,
1000
0001
0100
0010
1000
0100
1000
0100
,
0001
0100
0010
0001
1000
0010
1000
0001
,
0100
0010
0100
0010
1000
0001
0100
1000
,
0100
0010
1000
0100
0010
1000
0010
0001
,
0100
1000
0100
1000
0100
0001
0010
0100
,
1000
0100
0010
0001
0100
0010
1000
0010
,
1000
0100
1000
0100
0001
0100
0001
0100
,
1000
0010
1000
0010
0001
0010
0001
0010
,
1000
0100
0010
0001
0100
0010
0100
0010
,
1000
0001
1000
0010
0100
0001
0100
0001
,
0010
0001
1000
0100
1000
0001
0010
1000
,
0010
0001
0100
1000
0100
0001
0100
0010
,
0100
0001
1000
0100
1000
0001
0010
0001
,
1000
0010
1000
0001
0100
0001
1000
0010
,
1000
1000
0001
0001
0100
0100
0010
0010
,
1000
1000
0100
0100
0010
0010
0001
0001
,
1000
0000
0100
0000
1000
0000
0001
0100
0000
0010
0000
0100
0000
0001
1000
0000
,
0100
1000
0000
0001
1000
0000
0100
0010
0000
0100
1000
0000
0001
0010
0000
0100
,
0010
0000
0001
0000
0100
0000
0010
1000
0000
0100
0000
0010
0000
0100
1000
0000
,
0001
0100
0000
0010
0100
0000
0001
1000
0000
0100
0010
0000
0100
1000
0000
0001
,
0100
0000
0001
0000
1000
0000
0010
0100
0000
0010
0000
1000
0000
0100
0001
0000
,
0100
1000
0000
0001
1000
0000
0010
0100
0000
0001
1000
0000
0100
0010
0000
0001
,
0100
0000
1000
0000
0100
0000
0001
0010
0000
0100
0000
0001
0000
0100
1000
0000
,
0001
0100
0000
0001
1000
0000
0001
0100
0000
0010
0100
0000
0001
1000
0000
0010
,
0100
0001
0100
0001
0100
0000
0100
0001
0000
0001
0100
0000
0101
0000
0000
0000
,
1000
0100
0010
0001
0100
1000
0100
0000
,
0010
1000
0010
1000
0010
0000
0010
1000
0000
1000
0010
0000
1010
0000
0000
0000
,
0001
0000
0100
0000
0010
0000
0100
0010
0100
0010
0100
0010
1000
0000
0100
0000
,
0010
0001
0010
0001
0010
0000
0010
0001
0000
0001
0010
0000
0011
0000
0000
0000
,
1000
0010
0100
0001
0010
1000
0010
0000
,
0100
1000
0100
1000
0100
0000
0100
1000
0000
1000
0100
0000
1100
0000
0000
0000
,
0001
0100
1000
0001
0010
1000
0100
0010
,
1001
0000
0000
0000
0000
0000
0000
0000
0010
0001
0010
0000
0100
0010
0100
0000
,
1000
0010
1000
0010
0100
1000
0100
0001
,
0010
0100
1000
0001
0100
0010
0001
0010
,
0100
0010
0100
0010
1000
0100
0001
0100
,
1000
0010
1000
0001
0100
0001
1000
0001
,
0010
0100
1000
0010
0100
0001
0100
0010
,
1000
0100
0010
0001
1000
0010
1000
0100
,
1000
0010
1000
0010
0100
0001
0100
0001
,
0010
0001
0100
0001
0010
0001
1000
0001
,
0010
0100
0010
0100
1000
0010
0100
0001
,
1000
0100
1000
0100
0010
0001
0100
1000
,
0100
0010
1000
0100
0010
1000
0010
0001
,
0100
0010
1000
0001
0010
0100
1000
0001
,
0100
0010
0001
0010
1000
0001
0100
1000
,
0100
0001
0010
0100
1000
0010
1000
0100
,
1000
0001
1000
0100
0010
0100
1000
0100
,
1000
0001
0010
0001
1000
0010
1000
0001
,
1000
1000
0001
0001
0010
0010
0100
0100
,
1000
1000
0010
0010
0100
0100
0001
0001
,
2002
0000
0000
0000
,
3003
0000
0000
0000
;

//---------------dance-single - ----------------
#NOTES:
     dance-single:
     :
     Medium:
     6:
     0.372,0.453,0.323,0.032,0.000:
0000
0000
0000
0000
,
0000
0000
0000
0000
,
0001
0010
0100
0010
,
0001
1000
0010
0100
,
0010
1000
0100
1000
,
0001
0100
0001
0010
,
0100
0100
0010
0010
,
0001
0100
0010
1000
,
0001
0100
0001
0100
,
0010
1000
0010
1000
,
0100
0110
0000
0001
,
1000
1100
0000
0010
,
0100
0101
0000
0001
,
0010
0110
0000
0100
,
0010
0010
0100
0100
,
1000
0001
1000
0001
,
1001
0100
1001
0010
,
1001
0110
1001
0110
,
1000
0001
0100
0000
0010
0000
0100
0000
,
0001
0010
0100
1000
,
0001
0100
0010
0000
1000
0000
0100
0000
,
1000
0010
0100
0001
,
0100
0010
0100
0000
0100
0001
0100
0000
,
0001
0010
0100
0010
,
0100
1000
0001
0000
0101
0000
0100
0000
,
0010
1000
0001
0000
1001
0000
0010
0000
,
0001
0010
0001
0000
0100
0000
0010
0000
,
1000
0100
1000
0010
,
0100
0001
1000
0000
0100
0000
0010
0000
,
0100
1000
0010
1000
,
0100
0010
0100
0000
0100
1000
0100
0000
,
0010
0001
0100
1000
,
0100
0010
1000
0000
1100
0000
0010
0000
,
0011
0101
1010
1100
,
0001
0101
0100
0000
,
0010
0011
0001
0000
,
1000
1010
0010
0000
,
0100
0110
0010
1010
,
1000
1001
0001
0000
,
0010
0110
0100
0000
,
1000
0001
1001
1000
,
1010
0010
0110
0000
,
0100
0001
0100
0001
0100
0000
0101
0000
,
0000
0000
0000
0000
,
0010
1000
0010
1000
0010
0000
1010
0000
,
0000
0000
0000
1000
0001
1000
0001
0000
,
0010
0100
0010
0100
0010
0000
0110
0000
,
0000
0000
0000
0000
,
0100
1000
0100
1000
0100
0000
1100
0000
,
0000
0000
0000
0000
,
2002
0000
3003
0000
,
0001
1000
0100
0000
0010
0000
0100
0000
,
1000
0010
0100
0001
,
0100
0010
1000
0000
0001
0000
0010
0000
,
0001
0100
0010
1000
,
0001
0010
0001
0000
0001
0100
0001
0000
,
1000
0100
0010
0100
,
0010
0001
0100
0000
1010
0000
0010
0000
,
0100
0001
0010
0000
0110
0000
0100
0000
,
1000
0100
1000
0000
0010
0000
0100
0000
,
0001
0010
0001
0100
,
0010
1000
0100
0000
0010
0000
1000
0000
,
0010
0100
0001
0010
,
0100
1000
0100
0000
0100
0010
0100
0000
,
1000
0010
0100
0001
,
0010
0100
1000
0000
1010
0000
0010
0000
,
0101
0011
1100
1010
,
1000
0001
1000
0000
0100
0010
0100
0010
,
0001
0000
0100
0000
0010
0000
1000
0001
,
2002
0000
0000
0000
,
3003
0000
0000
0000
;

//---------------dance-single - ----------------
#NOTES:
     dance-single:
     :
     Easy:
     4:
     0.261,0.368,0.243,0.065,0.000:
0000
0000
0000
0000
,
0000
0000
0000
0000
,
0001
0000
0100
0010
,
0100
0000
0001
0000
,
1000
0000
0100
0010
,
0100
0000
1000
0000
,
0010
0000
0100
0010
,
1000
0000
0100
0010
,
0011
0000
0001
0100
,
0010
1000
0010
1000
,
1001
0000
0100
0010
,
0100
0000
0010
0000
,
0001
0000
0100
0010
,
0100
0000
0010
0000
,
1000
0000
0100
0010
,
0001
0100
0010
1000
,
1100
0000
0011
0000
,
1001
1001
1001
0000
,
1000
0000
0010
0100
,
0001
0000
0100
0000
,
0001
0000
0010
0100
,
1000
0000
0001
0000
,
1000
0000
0100
1000
,
0001
0000
0010
0001
,
0011
0000
0100
0010
,
1000
0001
1000
0001
,
1001
0000
0100
0010
,
0100
0000
0001
0000
,
0010
0000
0100
0001
,
0100
0000
1000
0000
,
0010
0100
1000
0100
,
0010
0100
1000
0001
,
0101
0000
1010
0000
,
1001
1001
1001
0000
,
0001
0001
0001
0000
,
1000
1000
1000
0000
,
0010
0010
0010
0000
,
0100
0100
0100
0000
,
0001
1000
0001
0000
,
0010
0100
0010
0000
,
0001
0100
0010
0000
,
1000
0001
0010
0000
,
0200
1000
1300
1001
,
0000
0000
0000
0000
,
0020
1000
1030
1001
,
0000
0000
0100
0010
,
0020
0100
0130
0110
,
0000
0000
0000
0000
,
0002
1000
1003
0110
,
0000
0000
0000
0000
,
2002
0000
3003
0000
,
0001
0000
0010
0100
,
0010
0000
0001
0000
,
0100
0000
0010
1000
,
0010
0000
0100
0000
,
0001
0000
0010
0100
,
1000
0001
1000
0010
,
0110
0000
0101
0000
,
1001
1001
1001
0000
,
0001
0000
0100
0010
,
1000
0000
0100
0000
,
1000
0000
0010
0100
,
0001
0000
1000
0000
,
0100
0000
0010
0001
,
1000
0000
0100
1000
,
1100
0000
0010
0100
,
0001
0010
0001
0100
,
0110
0110
0110
0110
,
0010
1000
0010
0100
,
2002
0000
0000
0000
,
3003
0000
0000
0000
;

//---------------dance-single - ----------------
#NOTES:
     dance-single:
     :
     Beginner:
     2:
     0.163,0.226,0.170,0.097,0.000:
0000
0000
0000
0000
,
0000
0000
0000
0000
,
0001
0000
1000
0000
,
0001
0000
0000
0000
,
0100
0000
0010
0000
,
0100
0000
0000
0000
,
1000
0000
0010
0000
,
0100
0000
0000
0000
,
0001
0000
0010
0000
,
0100
0000
0010
0000
,
0001
0000
0010
0000
,
0001
0000
0000
0000
,
1000
0000
0010
0000
,
1000
0000
0000
0000
,
0001
0000
0001
0000
,
1000
0000
1000
0000
,
1001
0000
1001
0000
,
1001
0000
0000
0000
,
0010
0000
0100
0000
,
0010
0000
0000
0000
,
0001
0000
1000
0000
,
0001
0000
0000
0000
,
0100
0000
1000
0000
,
0001
0000
0000
0000
,
0010
0000
1000
0000
,
0001
0000
1000
0000
,
0010
0000
1000
0000
,
0010
0000
0000
0000
,
0100
0000
1000
0000
,
0100
0000
0000
0000
,
0010
0000
0010
0000
,
0100
0000
0100
0000
,
1001
0000
1001
0000
,
1001
0000
0000
0000
,
1000
0000
1000
0000
,
0001
0000
0001
0000
,
0100
0000
0100
0000
,
0010
0000
0010
0000
,
1000
0000
0010
0000
,
1000
0000
0100
0000
,
0001
0000
0100
0000
,
0001
0000
0010
0000
,
2002
0000
3003
1001
,
0000
0000
0000
0000
,
0220
0000
0330
0110
,
0000
0000
0000
0000
,
2002
0000
3003
1001
,
0000
0000
0000
0000
,
2002
0000
3003
1001
,
0000
0000
0000
0000
,
0220
0000
0330
0000
,
0100
0000
0010
0000
,
0100
0000
0000
0000
,
1000
0000
0001
0000
,
1000
0000
0000
0000
,
0010
0000
0001
0000
,
1000
0000
0000
0000
,
0100
0000
0001
0000
,
1000
0000
0001
0000
,
0100
0000
0001
0000
,
0100
0000
0000
0000
,
0010
0000
0001
0000
,
0010
0000
0000
0000
,
0100
0000
0100
0000
,
0010
0000
0010
0000
,
0110
0000
0110
0000
,
0110
0000
0000
0000
,
1000
0000
0001
0000
,
0110
0000
0110
0000
,
2002
0000
0000
0000
,
3003
0000
0000
0000
;

//---------------dance-double - ----------------
#NOTES:
     dance-double:
     :
     Hard:
     9:
     0.611,0.651,0.137,0.024,0.247:
00000000
00000000
00000000
00000000
,
00000000
00000000
00000000
00000000
,
10000000
01000000
00100000
01000000
,
00010000
00001000
00000010
00000001
,
00000100
00000010
00000100
00001000
,
00010000
00100000
10000000
01000000
,
00100000
01000000
10000000
00100000
,
01000000
00010000
00100000
00001000
,
00010000
00001000
00010000
00000000
01000000
00100000
01000000
00000000
,
00210000
00001000
00010000
00301000
,
00010000
00010100
00001000
00001010
,
00000100
00000101
00000010
00000110
,
00001000
00001100
00010000
00011000
,
01000000
01010000
00100000
01100000
,
10000000
01000000
00010000
00000000
00010000
01000000
00100000
00000000
,
00010000
01000000
10000000
00000000
10000000
01000000
00010000
00000000
,
00100000
00001000
00010000
00001000
01000000
00010000
01000000
00001000
,
00011000
00000000
00011000
00000000
00010000
00001000
00000100
00000001
,
00000010
00000100
00000010
00000100
00001000
00000010
00000100
00000001
,
00000100
00000010
00000100
00000010
00010000
00000100
00010000
00001000
,
00100000
00010000
00100000
00010000
01000000
00100000
10000000
01000000
,
00100000
00010000
00100000
00010000
01000000
00001000
00010000
00001000
,
00100000
00010000
10000000
01000000
00100000
00010000
00100000
01000000
,
10000000
00100000
00010000
00001000
00010000
00001000
00000010
00000001
,
00000100
00000010
00000100
00000010
00001000
00000100
00001000
00000100
,
00000010
00000001
00000010
00000001
00000100
00001000
00000100
00001000
,
00010000
00100000
01000000
00100000
10000000
00010000
00100000
01000000
,
10000000
00010000
10000000
00010000
00100000
01000000
00100000
01000000
,
10000000
01000000
00010000
01000000
00100000
00001000
00100000
00010000
,
01000000
00100000
01000000
00100000
10000000
01000000
10000000
01000000
,
00100000
01000000
00010000
00001000
00010000
00100000
00010000
00001000
,
01000000
00001000
00010000
00000100
00001000
00000001
00000100
00000010
,
00001000
00001000
00000100
00000100
00001000
00001000
00000001
00000001
,
00000100
00000100
00000010
00000010
00001000
00001000
00000001
00000001
,
00000010
00000000
00000100
00000000
00000010
00000000
00000001
00001000
00000000
00000010
00000000
00000100
00000000
00000010
00010000
00000000
,
00001000
00010000
00000000
01000000
10000000
00000000
01000000
00100000
00000000
00010000
00100000
00000000
01000000
10000000
00000000
00010000
,
01000000
00000000
00100000
00000000
10000000
00000000
00010000
01000000
00000000
00100000
00000000
01000000
00000000
00010000
01000000
00000000
,
00001000
00010000
00000000
00001000
00010000
00000000
00001000
00000010
00000000
00000100
00001000
00000000
00000010
00000100
00000000
00000010
,
00001000
00000000
00000001
00000000
00000010
00000000
00000100
00001000
00000000
00000100
00000000
00010000
00000000
00001000
00000010
00000000
,
00000100
00001000
00000000
00000001
00000100
00000000
00000010
00001000
00000000
00000100
00010000
00000000
00001000
00100000
00000000
00010000
,
01000000
00000000
00100000
00000000
00010000
00000000
00100000
10000000
00000000
01000000
00000000
00100000
00000000
01000000
10000000
00000000
,
00010000
01000000
00000000
00010000
00100000
00000000
01000000
00100000
00000000
00001000
00010000
00000000
00001000
00010000
00000000
00000100
,
00010000
00001000
00010000
00001000
00010000
00000000
00010000
00001000
00000000
00001000
00010000
00000000
00011000
00000000
00000000
00000000
,
00010000
00001000
00000100
00000001
00000010
00001000
00010000
00000000
,
00001000
00010000
00001000
00010000
00001000
00000000
00001000
00010000
00000000
00010000
00001000
00000000
00011000
00000000
00000000
00000000
,
00001000
00000000
00010000
00000000
00100000
00000000
10000000
00100000
10000000
00100000
10000000
00100000
10000000
00000000
01000000
00000000
,
00100000
01000000
00100000
01000000
00100000
00000000
00100000
01000000
00000000
01000000
00100000
00000000
01100000
00000000
00000000
00000000
,
10000000
01000000
10000000
01000000
00100000
00010000
00100000
00000000
,
00001000
00010000
00001000
00010000
00001000
00000000
00001000
00010000
00000000
00010000
00001000
00000000
00011000
00000000
00000000
00000000
,
00001000
00010000
00100000
10000000
01000000
00010000
00001000
00010000
,
00011000
00000000
00000000
00000000
00000000
00000000
00000000
00000000
00000100
00000010
00000100
00000000
00000010
00001000
00000010
00000000
,
00001000
00000100
00001000
00000010
00000100
00000001
00000100
00000010
,
00010000
00000100
00010000
00000100
00010000
00001000
00010000
00001000
,
01000000
00100000
01000000
00010000
00100000
01000000
10000000
00010000
,
01000000
00100000
01000000
00100000
10000000
01000000
10000000
01000000
,
00100000
00010000
01000000
00010000
00100000
01000000
00010000
00001000
,
00000010
00000001
00000010
00000100
00001000
00000010
00000100
00000010
,
00001000
00000001
00001000
00000001
00000100
00000010
00000100
00000010
,
00010000
00001000
00010000
00001000
00000010
00000100
00000010
00000100
,
00001000
00000010
00000100
00001000
00010000
00100000
01000000
00010000
,
10000000
01000000
10000000
01000000
00100000
00010000
00100000
00010000
,
01000000
00100000
10000000
00010000
10000000
01000000
00100000
00010000
,
01000000
00100000
01000000
00100000
00010000
00100000
00010000
00100000
,
10000000
01000000
00010000
00001000
00000010
00001000
00010000
00001000
,
00000100
00000001
00000010
00000100
00001000
00000010
00000100
00000001
,
00001000
00000100
00001000
00000100
00001000
00000001
00001000
00000001
,
00000100
00000010
00000100
00000010
00010000
00000010
00010000
00000010
,
00010000
00010000
00001000
00001000
01000000
01000000
00010000
00010000
,
00100000
00100000
01000000
01000000
10000000
10000000
00010000
00010000
,
20020000
00000000
00000000
00000000
,
30030000
00000000
00000000
00000000
;

//---------------dance-double - ----------------
#NOTES:
     dance-double:
     :
     Medium:
     6:
     0.353,0.425,0.396,0.032,0.000: // measure 1
00000000
00000000
00000000
00000000
,  // measure 2
00000000
00000000
00000000
00000000
,  // measure 3
10000000
01000000
00010000
01000000
,  // measure 4
11000000
00000000
00110000
00000000
,  // measure 5
00100000
00001000
00010000
00001000
,  // measure 6
00011000
00000000
00010100
00000000
,  // measure 7
00001000
00010000
00001000
00000010
,  // measure 8
00000001
00000100
00000001
00000010
,  // measure 9
00000110
00000000
00001001
00000010
,  // measure 10
00001010
00000000
00000010
00000100
,  // measure 11
00001000
00011000
00000000
00010000
,  // measure 12
01000000
11000000
00000000
00100000
,  // measure 13
00010000
10010000
00000000
01000000
,  // measure 14
00001000
00011000
00000000
00010000
,  // measure 15
00000010
00001010
00000100
00000001
,  // measure 16
00000010
00000110
00000100
00001000
,  // measure 17
00000010
00010010
00010000
00011000
,  // measure 18
00001000
01001000
01010000
01100000
,  // measure 19
00010000
00100000
01000000
00000000
10000000
00000000
01000000
00000000
,  // measure 20
00010000
01000000
00100000
00010000
,  // measure 21
01000000
00001000
00010000
00000000
00001000
00000000
00000100
00000000
,  // measure 22
00001000
00010000
00001000
00000010
,  // measure 23
00000001
00000100
00000001
00000000
00000001
00000010
00000001
00000000
,  // measure 24
00001000
00000010
00000100
00001000
,  // measure 25
00010000
00001000
00010000
00000000
00011000
00000000
00010000
00000000
,  // measure 26
00100000
10000000
00010000
00000000
00110000
00000000
00100000
00000000
,  // measure 27
01000000
00100000
01000000
00000000
10000000
00000000
01000000
00000000
,  // measure 28
00010000
01000000
00100000
00010000
,  // measure 29
01000000
00010000
00100000
00000000
00001000
00000000
00010000
00000000
,  // measure 30
00000100
00000010
00000001
00001000
,  // measure 31
00000010
00000100
00000010
00000000
00000010
00001000
00000010
00000000
,  // measure 32
00000100
00000001
00000010
00000100
,  // measure 33
00010000
00000100
00001000
00000000
00001010
00000000
00000100
00000000
,  // measure 34
00001001
00001010
00010010
00011000
,  // measure 35
00010000
00001000
01000000
00000000
,  // measure 36
00100000
01000000
00010000
00000000
,  // measure 37
00100000
00010000
00100000
00000000
,  // measure 38
01000000
10000000
00010000
01000000
,  // measure 39
00001000
00010000
00001000
00000000
,  // measure 40
00000100
00000001
00000010
00000000
,  // measure 41
00000100
00000010
00000001
00000100
,  // measure 42
00001000
00010000
00100000
00000000
,  // measure 43
10000000
00010000
10000000
00010000
10000000
00000000
10010000
00000000
,  // measure 44
00000000
00000000
00000000
00000000
,  // measure 45
01000000
00010000
01000000
00010000
01000000
00000000
01010000
00000000
,  // measure 46
00000000
00000000
00000000
00010000
00001000
00010000
00001000
00000000
,  // measure 47
00000100
00001000
00000100
00001000
00000100
00000000
00001100
00000000
,  // measure 48
00000000
00000000
00000000
00000000
,  // measure 49
00000001
00001000
00000001
00001000
00000001
00000000
00001001
00000000
,  // measure 50
00000000
00000000
00000000
00000000
,  // measure 51
00002002
00000000
00003003
00000000
,  // measure 52
00000001
00000010
00001000
00000010
,  // measure 53
00000011
00000000
00001100
00000000
,  // measure 54
00000100
00010000
00001000
00010000
,  // measure 55
00011000
00000000
00101000
00000000
,  // measure 56
00010000
00001000
00010000
01000000
,  // measure 57
10000000
00100000
10000000
01000000
,  // measure 58
01100000
00000000
10010000
01000000
,  // measure 59
01010000
00000000
01000000
00100000
,  // measure 60
00010000
00011000
00000000
00001000
,  // measure 61
00000010
00000011
00000000
00000100
,  // measure 62
00001000
00001001
00000000
00000010
,  // measure 63
00010000
00011000
00000000
00001000
,  // measure 64
01000000
01010000
00100000
10000000
,  // measure 65
01000000
01100000
00100000
00010000
,  // measure 66
01000000
01001000
00001000
00011000
,  // measure 67
00010000
00010010
00001010
00000110
,  // measure 68
00001000
00000100
00000010
00000000
00000001
00000100
00000010
00000000
,  // measure 69
00010000
00001000
00010000
00001000
01000000
00100000
01000000
00100000
,  // measure 70
20020000
00000000
00000000
00000000
,  // measure 71
30030000
00000000
00000000
00000000
;

//---------------dance-double - ----------------
#NOTES:
     dance-double:
     :
     Easy:
     4:
     0.256,0.368,0.202,0.065,0.000: // measure 1
00000000
00000000
00000000
00000000
,  // measure 2
00000000
00000000
00000000
00000000
,  // measure 3
00010000
00000000
00001000
00100000
,  // measure 4
00001000
00000000
00010000
00000000
,  // measure 5
01000000
00000000
00100000
01000000
,  // measure 6
00100000
00000000
00010000
00000000
,  // measure 7
01000000
00000000
00100000
10000000
,  // measure 8
00010000
00000000
01000000
00010000
,  // measure 9
00110000
00000000
00001000
00010000
,  // measure 10
00001000
01000000
00010000
00100000
,  // measure 11
00001000
00000000
00010000
00001000
,  // measure 12
00010000
00000000
00000100
00000000
,  // measure 13
00001000
00000000
00000100
00000010
,  // measure 14
00000100
00000000
00001000
00000000
,  // measure 15
00000001
00000000
00000100
00000010
,  // measure 16
00001000
00000100
00000010
00000100
,  // measure 17
00000110
00000000
00000011
00000000
,  // measure 18
00001010
00001010
00001010
00000000
,  // measure 19
00001000
00000000
00000010
00000100
,  // measure 20
00001000
00000000
00010000
00000000
,  // measure 21
00001000
00000000
00010000
00100000
,  // measure 22
01000000
00000000
00010000
00000000
,  // measure 23
00100000
00000000
01000000
10000000
,  // measure 24
00010000
00000000
01000000
00100000
,  // measure 25
10100000
00000000
01000000
00010000
,  // measure 26
00100000
00001000
00010000
00001000
,  // measure 27
00010000
00000000
00001000
00000010
,  // measure 28
00000001
00000000
00000100
00000000
,  // measure 29
00000010
00000000
00001000
00000100
,  // measure 30
00001000
00000000
00000001
00000000
,  // measure 31
00001000
00000100
00000010
00000001
,  // measure 32
00000100
00001000
00010000
00001000
,  // measure 33
00011000
00000000
00110000
00000000
,  // measure 34
10010000
10010000
10010000
00000000
,  // measure 35
01000000
01000000
01000000
00000000
,  // measure 36
00010000
00010000
00010000
00000000
,  // measure 37
10000000
10000000
10000000
00000000
,  // measure 38
01000000
01000000
01000000
00000000
,  // measure 39
00010000
00001000
00010000
00000000
,  // measure 40
00001000
00000010
00001000
00000000
,  // measure 41
00010000
00000100
00010000
00000000
,  // measure 42
00000010
00001000
00000001
00000000
,  // measure 43
00000020
00000100
00000130
00000110
,  // measure 44
00000000
00000000
00000000
00000000
,  // measure 45
00002000
00000001
00003001
00001001
,  // measure 46
00000000
00000000
00000010
00010000
,  // measure 47
00002000
00010000
00013000
00011000
,  // measure 48
00000000
00000000
00000000
00000000
,  // measure 49
00020000
00100000
00130000
00110000
,  // measure 50
00000000
00000000
00000000
00000000
,  // measure 51
20020000
00000000
30030000
00000000
,  // measure 52
01000000
00000000
00100000
00001000
,  // measure 53
00100000
00000000
00001000
00000000
,  // measure 54
00010000
00000000
00000010
00001000
,  // measure 55
00000010
00000000
00000100
00000000
,  // measure 56
00000001
00000000
00000010
00000001
,  // measure 57
00001000
00000000
00000010
00001000
,  // measure 58
00001100
00000000
00010000
00001000
,  // measure 59
00010000
00000010
00001000
00000100
,  // measure 60
00010000
00000000
00001000
00010000
,  // measure 61
00001000
00000000
00100000
00000000
,  // measure 62
00010000
00000000
00100000
01000000
,  // measure 63
00100000
00000000
00010000
00000000
,  // measure 64
10000000
00000000
00100000
01000000
,  // measure 65
00010000
00100000
01000000
00100000
,  // measure 66
01100000
00000000
11000000
00000000
,  // measure 67
01010000
01010000
01010000
01010000
,  // measure 68
00010000
00100000
01000000
00010000
,  // measure 69
00001000
00010000
00001000
00010000
,  // measure 70
00022000
00000000
00000000
00000000
,  // measure 71
00033000
00000000
00000000
00000000
;
