#TITLE:Breath;
#SUBTITLE:;
#ARTIST:Sparker;
#TITLETRANSLIT:;
#SUBTITLETRANSLIT:;
#ARTISTTRANSLIT:;
#GENRE:;
#CREDIT:;
#BANNER:Breath-bn.png;
#BACKGROUND:Breath-bg.png;
#LYRICSPATH:;
#CDTITLE:ddrencorecdtitle.png;
#MUSIC:Breath.mp3;
#OFFSET:-0.319;
#SAMPLESTART:45.260;
#SAMPLELENGTH:14.940;
#SELECTABLE:YES;
#BPMS:0.000=160.000
,241.000=130.000
,242.000=128.000
,244.000=126.000
,245.000=107.000
,246.000=58.600
,247.000=53.000
;
#STOPS:164.000=0.750
;
#BGCHANGES:;
#KEYSOUNDS:;
#ATTACKS:;

//---------------dance-single - ----------------
#NOTES:
     dance-single:
     :
     Beginner:
     2:
     0.195,0.264,0.122,0.075,0.000,125.000,13.000,8.000,0.000,0.000,0.000,0.195,0.264,0.122,0.075,0.000,125.000,13.000,8.000,0.000,0.000,0.000:
0000
0000
0000
0000
,
0000
0000
0000
0000
,
0000
0000
0000
0000
,
0000
0000
0000
0000
,
0000
0010
0000
0010
,
0000
0100
0000
0100
,
0000
0001
0001
0000
,
1000
0000
0001
0001
,
0000
1000
1000
0000
,
0001
0000
1000
1000
,
0000
0010
0010
0000
,
0100
0000
0010
0010
,
0000
1000
0000
1000
,
0000
0001
0000
0001
,
0000
0010
0010
0000
,
0100
0000
0010
0010
,
0000
0100
0100
0000
,
0010
0000
0100
0100
,
0000
1000
1000
0000
,
0001
0000
1000
1000
,
1000
0000
0001
0000
,
0100
0000
0010
0000
,
1000
0000
1001
0000
,
0010
0000
0100
0000
,
1000
0000
0010
0000
,
0100
0000
0001
0000
,
0010
0010
0000
0100
,
0000
1000
1000
1000
,
0000
0010
0000
0100
,
0000
1001
0000
0000
,
0100
0100
0100
0100
,
0000
0000
1001
0000
,
0010
0010
0010
0010
,
0000
0000
0000
0000
,
1000
1000
1000
1000
,
0000
0000
0110
0000
,
0001
0000
1000
0000
,
0002
0000
0003
1000
,
2000
0000
3000
0001
,
0002
0000
0003
0100
,
0200
0000
0300
0010
,
0010
0000
1000
0000
,
0001
0000
1000
0000
,
0001
0000
0010
0000
,
0100
0000
0010
0000
,
0001
0000
1000
0000
,
1000
0000
0001
0000
,
0001
0000
0100
0000
,
0100
0000
0010
0000
,
0010
0000
1000
1000
,
1000
0000
0001
0001
,
0001
0000
0010
0010
,
0010
0000
0100
0100
,
0100
0000
1001
0000
,
0010
0000
1001
0000
,
0100
0000
1001
0000
,
0110
0000
1001
1001
,
1001
0000
0010
0000
,
0000
0000
0100
0000
,
0000
0000
2002
0000
,
0000
0000
0000
0000
,
0000
0000
0000
3003
,
2002
0000
0000
0000
0000
0000
0000
0000
0000
0000
0000
0000
0000
0000
0000
0000
0000
0000
0000
0000
0000
0000
0000
3003
0000
0000
0000
0000
0000
0000
0000
0000
;

//---------------dance-single - ----------------
#NOTES:
     dance-single:
     :
     Easy:
     5:
     0.322,0.440,0.374,0.150,0.000,185.000,40.000,16.000,0.000,0.000,0.000,0.322,0.440,0.374,0.150,0.000,185.000,40.000,16.000,0.000,0.000,0.000:
0000
0000
0000
0000
,
0000
0000
0000
0000
,
0000
0000
0000
0000
,
0000
0000
0000
0000
,
0000
1100
0000
0101
,
0000
1100
0000
0101
,
0000
0001
0010
0100
,
1000
0000
0010
0000
0100
0000
0001
1000
,
0000
1000
0010
0100
,
0001
0000
0010
0000
0100
0000
1000
0010
,
0000
0010
1000
0001
,
0010
0000
0100
0000
1000
0000
0010
1000
,
0000
0101
0000
1100
,
0000
0101
0000
1100
,
0000
1000
0010
0100
,
0001
0000
0010
0000
0100
0000
1000
0001
,
0000
0010
0001
0100
,
0010
0000
1000
0000
0001
0000
0100
0001
,
0000
1000
0010
0100
,
0001
0000
0010
0000
0100
0000
1000
0001
,
1000
1000
0001
0001
,
0100
0010
0010
0010
,
2000
0000
3002
0000
,
0013
0001
0100
0010
,
1000
1000
1000
0010
,
0100
0001
0010
0100
,
1000
0101
0000
1100
,
0000
0010
0010
1001
,
0000
0110
0000
1001
,
0000
0000
0110
0000
0000
1001
0000
0000
,
0001
0100
0010
1000
,
0000
0000
0000
0000
0001
1000
0001
0000
,
1000
0010
0100
0001
,
0000
0000
0000
1001
,
1000
0100
0010
0001
,
0000
0000
0000
0000
1000
0001
1000
0000
,
0010
0100
0001
1000
,
0002
0000
0003
0110
,
2000
0000
3000
0110
,
0002
0000
0003
1100
,
2000
0000
3000
0101
,
1001
0000
0101
0000
,
0110
0000
1010
0000
,
1001
0000
0011
0000
,
1100
0000
1010
0000
,
0101
0000
1000
0000
,
0001
0000
0010
0000
,
0100
0000
0010
0000
,
0001
0000
1000
0000
,
0010
0000
1001
1000
,
0010
0100
0001
0010
,
1000
0010
0001
0100
,
0010
1000
0001
0100
,
1000
0100
1001
0010
,
0001
0100
1001
0010
,
1000
0100
0110
0000
,
1001
0000
0110
0110
,
1001
1001
0100
0100
,
0010
0010
1000
1000
,
0001
0001
2000
3200
,
0320
0032
2003
3002
,
2003
3002
1003
0110
,
2002
0000
0000
0000
0000
0000
0000
0000
0000
0000
0000
0000
0000
0000
0000
0000
0000
0000
0000
0000
0000
0000
0000
3003
0000
0000
0000
0000
0000
0000
0000
0000
;

//---------------dance-single - ----------------
#NOTES:
     dance-single:
     :
     Medium:
     7:
     0.416,0.469,0.346,0.224,0.000,250.000,37.000,24.000,0.000,0.000,0.000,0.416,0.469,0.346,0.224,0.000,250.000,37.000,24.000,0.000,0.000,0.000:
0000
0000
0000
0000
,
0000
0000
0000
0000
,
0000
0000
0000
0000
,
0000
0000
0000
0000
,
1000
0110
0000
0101
,
0000
0110
0000
1100
,
0000
0000
1000
0000
0010
0100
0001
0000
,
0010
0000
0100
0000
0010
0001
0010
0001
,
1000
0000
1000
0000
0100
1000
0010
0000
,
0100
0000
0001
0000
1000
0010
1000
0010
,
0100
0000
0100
0000
0001
0010
0100
0000
,
1000
0000
0001
0000
0100
0010
0100
0010
,
1000
0110
0000
0011
,
0000
0110
0000
1010
,
0000
0000
0001
0000
0100
0010
1000
0000
,
0001
0000
0010
0000
0100
1000
0100
1000
,
0001
0000
0001
0000
0100
0001
0010
0000
,
0100
0000
1000
0000
0010
1000
0010
1000
,
0100
0000
0100
0000
1000
0001
0100
0000
,
0010
0000
1000
0000
0100
0010
0100
0010
,
0002
2003
3002
2003
,
3010
0100
0000
0001
0000
1000
0000
0010
,
0100
0010
1001
0010
,
0001
0100
0010
0000
1000
0000
0001
0000
,
0110
1100
0110
0001
,
1000
0010
0100
0000
0001
0000
1000
0000
,
0010
1001
0000
0110
,
0000
0001
1000
0101
,
0000
1010
1000
1001
,
0000
0000
0011
0000
0000
0110
0000
0000
,
1000
0100
0010
0001
,
0100
0000
1001
0000
0001
0010
0100
1000
,
0001
0100
0010
1000
,
0000
0000
0010
1001
,
0001
0010
0100
1000
,
0010
0000
1001
0000
1000
0100
0010
0001
,
1000
0010
1000
0001
,
1000
0010
0100
0001
0010
0100
2000
0000
,
3001
0100
0010
1000
0100
0010
0002
0000
,
1003
0001
0100
0010
1000
0100
0020
0000
,
0031
1000
0010
0100
0001
1000
0200
0000
,
0310
0000
1100
0000
,
0011
0000
0101
0000
,
1010
0000
1000
0000
,
0010
0000
0100
0000
,
0001
0000
0000
0000
1000
0000
0000
0001
,
0020
0000
0000
0130
2000
0000
0000
3010
,
0200
0000
0001
0300
0001
0000
0000
0100
,
0020
0000
0000
1030
0200
0000
0000
0310
,
0002
0000
1000
0003
1001
0000
1000
0000
,
0010
0000
0001
0001
0010
0000
1000
0000
,
0100
0000
0010
0010
0001
0000
0100
0000
,
1000
0000
0100
0100
0001
0000
0010
0000
,
0100
1000
1001
0100
,
1000
0010
1001
0100
,
0001
0010
1001
0100
,
1001
0100
0110
1001
,
0110
0000
1001
0000
0001
0100
0000
0010
,
0000
1000
0000
0100
0000
0010
0000
0001
,
0000
0100
0000
0010
2000
0000
3020
0000
,
0230
0302
2003
3200
,
0320
0032
1003
0110
,
2002
0000
0000
0000
0000
0000
0000
0000
0000
0000
0000
0000
0000
0000
0000
0000
0000
0000
0000
0000
0000
0000
0000
3003
0000
0000
0000
0000
0000
0000
0000
0000
;

//---------------dance-single - ----------------
#NOTES:
     dance-single:
     :
     Hard:
     9:
     0.629,0.821,0.468,0.196,0.201,400.000,50.000,21.000,0.000,0.000,0.000,0.629,0.821,0.468,0.196,0.201,400.000,50.000,21.000,0.000,0.000,0.000:
0000
0000
0000
0000
,
0000
0000
0000
0000
,
0000
0000
0000
0000
,
0000
0000
0000
0000
,
0001
0110
0001
1100
,
1000
0110
1000
0101
,
0001
0000
1000
0010
0001
0010
0100
0010
,
1000
0100
0001
0100
0010
0001
1000
0010
,
0100
0000
0001
0010
1000
0010
0100
1000
,
0001
0100
1000
0100
0010
1000
0001
0010
,
0100
0000
1000
0100
0001
0100
1000
0010
,
0001
0010
1000
0100
0010
0001
0100
0001
,
0010
1001
0010
1100
,
0100
1001
0100
0011
,
0010
0000
0001
0100
1000
0100
0010
1000
,
0001
0010
1000
0010
0100
1000
0010
0100
,
0001
0000
1000
0100
0001
0100
0010
0001
,
1000
0010
0001
0010
0100
0001
1000
0100
,
0010
0000
0001
0100
1000
0100
0001
0010
,
1000
0010
0001
0100
0010
1000
0100
1000
,
0002
2003
3020
0230
,
0301
0100
0001
0000
1000
0100
1000
0000
0020
0000
0000
0000
0230
0000
0000
0000
,
0301
0000
1000
0000
0101
0000
0001
0010
,
0100
1000
0010
0100
1000
0100
0010
1000
,
0101
0000
0011
0000
1100
1000
0010
0100
,
0001
0010
0100
0001
0100
0010
0001
0100
,
0010
1001
0010
1100
,
0010
0000
0200
0000
0001
0300
1010
0000
,
1000
0000
0110
0000
0001
0010
1100
0000
,
0010
0100
1001
0000
0000
0110
0000
0000
,
0001
0000
0000
0001
0010
0000
0000
0010
0100
0000
0000
0100
1000
0000
0000
0000
,
0010
0000
1001
0000
0100
0100
0010
0010
,
1000
0000
0000
1000
0100
0000
0000
0100
0010
0000
0000
0010
0001
0000
0000
0000
,
0100
1001
0010
0110
,
1000
0000
0000
1000
0001
0000
0000
0001
0100
0000
0000
0100
0010
0000
0000
0000
,
1000
0000
0101
0000
0010
0010
0100
0100
,
1000
0010
0100
0001
1000
0001
0010
0100
,
1000
0100
1000
0100
1000
0100
1000
0100
0010
0001
0010
0001
0020
0000
0000
0000
,
0031
0100
0001
0100
0001
0100
0001
0100
0010
1000
0010
1000
0020
0000
0000
0000
,
1030
0001
1000
0001
1000
0001
1000
0001
0010
0100
0010
0100
0020
0000
0000
0000
,
0031
1000
0001
1000
0001
1000
0001
1000
0010
0100
0010
0100
0020
0000
0000
0000
,
0130
0000
0010
0000
1001
0000
0010
0001
,
0110
0000
0100
0000
1001
0000
0100
1000
,
0110
0000
0010
0000
1001
0000
0100
1000
,
0110
0000
0010
0000
1001
0000
0010
0001
,
0110
0000
0100
0000
1100
1000
0010
0100
,
0101
0000
0010
0000
0011
0001
0100
0010
,
1010
0000
0001
0000
1010
1000
0001
0010
,
0110
0000
1000
0000
0101
0001
1000
0100
,
0110
0000
0001
0000
1001
0010
0100
0001
,
0010
0100
1000
0010
0100
0001
0010
0100
,
1000
0100
0010
0001
1000
0010
0001
0010
,
1000
0100
0010
0001
1000
0100
0001
0100
,
1000
0010
0100
0001
1001
0001
0010
0100
,
1000
0010
0100
0001
1001
1000
0100
0010
,
0001
0100
0010
1000
1001
0001
0010
0100
,
0110
0010
0001
1000
1100
0000
0110
0000
,
0011
0000
0000
0000
1001
0000
0000
0000
0001
0100
0001
0000
1000
0100
1000
0000
,
0001
0010
0001
0000
1000
0010
1000
0000
0001
0100
0001
0000
0100
0010
0100
0000
,
0010
1000
0010
0000
1000
0001
1000
0000
0002
0000
0000
0000
0203
0000
0000
0000
,
0320
0000
0000
0000
2030
0000
0000
0000
0002
3000
0000
0000
0023
0000
0000
0000
,
0230
2300
3001
0110
,
2002
0000
0000
0000
0000
0000
0000
0000
0000
0000
0000
0000
0000
0000
0000
0000
0000
0000
0000
0000
0000
0000
0000
3003
0000
0000
0000
0000
0000
0000
0000
0000
;

//---------------dance-double - ----------------
#NOTES:
     dance-double:
     :
     Easy:
     4:
     0.286,0.440,0.215,0.150,0.000,175.000,23.000,16.000,0.000,0.000,0.000,0.286,0.440,0.215,0.150,0.000,175.000,23.000,16.000,0.000,0.000,0.000:
00000000
00000000
00000000
00000000
,
00000000
00000000
00000000
00000000
,
00000000
00000000
00000000
00000000
,
00000000
00000000
00000000
00000000
,
00000000
00001100
00000000
00000101
,
00000000
00001100
00000000
00000101
,
00000000
00000001
00000100
00001000
,
00010000
00100000
10000000
00010000
,
00000000
10000000
01000000
00010000
,
00001000
00000010
00000001
00001000
,
00000000
00000001
00000010
00001000
,
00010000
01000000
10000000
00010000
,
00000000
01010000
00000000
11000000
,
00000000
01010000
00000000
11000000
,
00000000
10000000
00100000
00010000
,
00001000
00000100
00000001
00001000
,
00000000
00000001
00000010
00001000
,
00010000
01000000
10000000
00010000
,
00000000
10000000
01000000
00010000
,
00001000
00000000
00000010
00000000
00000001
00000000
00001000
00000001
,
00001000
00001000
00000001
00000001
,
00000100
00000010
00000100
00000010
,
00001000
00000000
00000001
00000000
,
00000010
00000100
00001000
00000100
,
00000010
00000010
00000010
00000100
,
00001000
00000010
00010000
00001000
,
00100000
00011000
00000000
01001000
,
00000000
00100000
10000000
10010000
,
00000000
01100000
00000000
10010000
,
00000000
02020000
00000000
03030000
,
10000000
01000000
00100000
00001000
,
00000000
00000000
00001000
00001000
,
00010000
00000100
00001000
00000010
,
00000000
00000000
00000000
00001001
,
00000001
00000100
00000010
00010000
,
00000000
00000000
00001000
00001000
,
00010000
00001000
01000000
00100000
,
20000000
00000000
30000000
01100000
,
00020000
00000000
00030000
01100000
,
20000000
00000000
30000000
01010000
,
00020000
00000000
00030000
11000000
,
10010000
00000000
00001000
00000000
,
00010000
00000000
00000100
00000000
,
00010000
00000000
00000010
00000000
,
00010000
00000000
00001000
00000000
,
00010000
00000000
00001000
00000000
,
00010000
00000000
00001000
00000000
,
01000000
00000000
00001000
00000000
,
00100000
00000000
00001000
00000000
,
00010000
00000000
00011000
00001000
,
01000000
00000000
00100000
10000000
,
01000000
00000000
00100000
00001000
,
00010000
00000000
00010000
00001000
,
00010000
00000000
00000100
00001000
,
00000010
00000100
00000001
00000010
,
00000100
00001000
00000010
00010000
,
00001000
01000000
00010000
00100000
,
01000000
10000000
00010000
00010000
,
10000000
10000000
00010000
01000000
,
00100000
10000000
02000000
03200000
,
00320000
02030000
03002000
00023000
,
00032000
00023000
00031000
00011000
,
00022000
00000000
00000000
00000000
00000000
00000000
00000000
00000000
00000000
00000000
00000000
00000000
00000000
00000000
00000000
00000000
00000000
00000000
00000000
00000000
00000000
00000000
00000000
00033000
00000000
00000000
00000000
00000000
00000000
00000000
00000000
00000000
;

//---------------dance-double - ----------------
#NOTES:
     dance-double:
     :
     Medium:
     6:
     0.346,0.440,0.365,0.196,0.000,199.000,39.000,21.000,0.000,0.000,0.000,0.346,0.440,0.365,0.196,0.000,199.000,39.000,21.000,0.000,0.000,0.000:
00000000
00000000
00000000
00000000
,
00000000
00000000
00000000
00000000
,
00000000
00000000
00000000
00000000
,
00000000
00000000
00000000
00000000
,
00000000
11000000
00000000
01010000
,
00000000
00011000
00000000
00001100
,
00000000
00000000
00001000
00000000
00000001
00000100
00000001
00000000
,
00000010
00000000
00000100
00000000
00001000
00000000
00000010
00000100
,
00000000
00000000
00000001
00000000
00001000
00000100
00001000
00000000
,
00000010
00000000
00010000
00000000
00000100
00000000
00010000
00001000
,
00000000
00000000
01000000
00000000
00010000
10000000
00010000
00000000
,
00100000
00000000
01000000
00000000
10000000
00000000
00100000
01000000
,
00000000
10100000
00000000
00110000
,
00000000
00011000
00000000
00001010
,
00000000
00000000
00000001
00000000
00001000
00000100
00001000
00000000
,
00000010
00000000
00000100
00000000
00000001
00000000
00001000
00000100
,
00000000
00000000
00000010
00000000
00000001
00000100
00000001
00000000
,
00001000
00000000
00000010
00000000
00010000
00000000
00000100
00010000
,
00000000
00000000
00001000
00000000
00100000
00010000
00100000
00000000
,
00001000
00000000
01000000
00000000
00100000
00000000
10000000
00010000
,
10000000
10000000
00010000
00010000
,
10000000
01000000
00000000
00100000
00000000
00001000
00000000
00010000
,
00001000
00000000
00000010
00000000
00001001
00000000
00000000
00000001
,
00000100
00000001
00000010
00000100
,
00001000
00001000
00001000
00000010
,
00010000
00001000
01000000
00010000
,
00100000
10010000
00000000
01100000
,
00000000
10100000
10100000
01010000
,
00000000
01001000
00000000
00011000
,
00000000
00000000
00010100
00000000
00000000
00001001
00000000
00000000
,
00000001
00000001
00001000
00002000
,
00000000
00000000
00003000
00000000
00000010
00000100
00000010
00000000
,
00010000
00010000
00001000
00002000
,
00000000
00003000
00000000
01100000
,
00010000
00010000
10000000
20000000
,
00000000
00000000
30000000
00000000
00100000
01000000
00100000
00000000
,
10000000
01000000
00100000
00010000
,
20020000
00000000
30030000
01010000
,
02002000
00000000
03003000
00011000
,
00020200
00000000
00030300
00001100
,
00002002
00000000
00003003
00000101
,
00000110
00000000
00001000
00000000
,
00000100
00000000
00010000
00000000
,
00001000
00000000
01000000
00000000
,
00100000
00000000
00010000
00000000
,
00001000
00000000
00000010
00000000
,
00000001
00000000
00001000
00000000
,
00000010
00000000
00010000
00000000
,
01000000
00000000
10000000
00000000
,
00100000
00000000
11000000
01000000
,
00100000
00010000
00100000
00000000
00010000
00000000
01000000
00000000
,
00001000
01000000
00010000
00100000
,
00001000
00010000
00001000
00000000
00010000
00000000
00000010
00000000
,
00010000
00000010
00001001
00000001
,
00000100
00000010
00001010
00001000
,
00000100
00010000
00011000
00001000
,
01001000
01000000
01010000
01010000
,
10100000
00000000
10100000
00000000
10000000
01000000
00000000
00100000
,
00000000
00010000
00000000
00100000
00000000
00001000
00000000
00010000
,
00000000
00000010
00000000
00001000
00000002
00000000
00000203
00000000
,
00000320
00002030
00003002
00000203
,
00000320
00020030
00031000
00011000
,
20020000
00000000
00000000
00000000
00000000
00000000
00000000
00000000
00000000
00000000
00000000
00000000
00000000
00000000
00000000
00000000
00000000
00000000
00000000
00000000
00000000
00000000
00000000
30030000
00000000
00000000
00000000
00000000
00000000
00000000
00000000
00000000
;

//---------------dance-double - ----------------
#NOTES:
     dance-double:
     :
     Hard:
     9:
     0.571,0.821,0.299,0.187,0.192,375.000,32.000,20.000,0.000,0.000,0.000,0.571,0.821,0.299,0.187,0.192,375.000,32.000,20.000,0.000,0.000,0.000:
00000000
00000000
00000000
00000000
,
00000000
00000000
00000000
00000000
,
00000000
00000000
00000000
00000000
,
00000000
00000000
00000000
00000000
,
00010000
11000000
00000000
00101000
,
00000000
00010100
00000000
00000011
,
00000000
00000000
00001000
00000100
00000010
00000001
00000100
00000100
,
00000001
00000100
00001000
00010000
00001000
00010000
00100000
10000000
,
00000000
00000000
00010000
00100000
01000000
10000000
00100000
00100000
,
10000000
01000000
00010000
00001000
00010000
00001000
00000010
00000001
,
00000000
00000000
00001000
00000010
00000100
00000001
00001000
00001000
,
00000010
00010000
00001000
01000000
00001000
00010000
00000010
00000010
,
00001000
00000101
00000000
00010010
,
00000000
01001000
00000000
10100000
,
00000000
00000000
00010000
00100000
10000000
00100000
00010000
00010000
,
10000000
01000000
00010000
00001000
00010000
00001000
00000010
00000001
,
00000000
00000000
00001000
00000100
00000001
00000100
00001000
00001000
,
00000001
00000100
00001000
00010000
00001000
00010000
00100000
10000000
,
00000000
00000000
00010000
00100000
10000000
00100000
00010000
00010000
,
01000000
00001000
00010000
00000010
00010000
00001000
01000000
01000000
,
00200000
20300000
32000000
03200000
,
00310000
01000000
00010000
00000000
10000000
01000000
10000000
00000000
00200000
00000000
00000000
00000000
02300000
00000000
00000000
00000000
,
03001000
00000000
00010000
00000000
00011000
00000000
00000000
00010000
,
00000100
00001000
00000010
00000100
00000001
00001000
00000100
00010000
,
00011000
00000000
00101000
00000000
00011000
00001000
01000000
00100000
,
10000000
01000000
00100000
00001000
00010000
00000000
00001000
00000000
,
00000000
01100000
00000000
00011000
,
00000000
00000011
00000100
00001001
,
00000000
00001010
00000000
00011000
,
00000000
00000000
10010000
00000000
00000000
10100000
00000000
00000000
,
10000000
00000000
00000000
10000000
01000000
00000000
00000000
01000000
00100000
00000000
00000000
00100000
00010000
00000000
00000000
00000000
,
10000000
00100000
01000000
00001000
00010000
00010000
00010000
00010000
,
00001000
00000000
00000000
00001000
00000010
00000000
00000000
00000010
00000001
00000000
00000000
00000001
00000100
00000000
00000000
00000000
,
00000010
00001000
00000001
00000100
00001000
00000000
00011000
00000000
,
00010000
00000000
00000000
00010000
00100000
00000000
00000000
00100000
10000000
00000000
00000000
10000000
01000000
00000000
00000000
00000000
,
00100000
00001000
00010000
00000010
00001000
00001000
00001000
00001000
,
00000001
00000010
00000001
00000100
00000001
00001000
00000001
00000100
,
00000010
00001000
00000010
00001000
00000010
00001000
00000010
00001000
00000100
00000010
00000100
00000010
00000200
00000000
00000000
00000000
,
00010300
00001000
00010000
00001000
00010000
00001000
00010000
00001000
01000000
00010000
01000000
00010000
02000000
00000000
00000000
00000000
,
03100000
10000000
00100000
10000000
00100000
10000000
00100000
10000000
00010000
00100000
00010000
00100000
00020000
00000000
00000000
00000000
,
01030000
00001000
01000000
00001000
01000000
00001000
01000000
00001000
00100000
00010000
00100000
00010000
00200000
00000000
00000000
00000000
,
00301000
00000000
00010000
00000000
00000100
00000000
00001000
00000010
,
00000001
00000000
00000010
00000000
00010000
00000000
00001000
00100000
,
01000000
00000000
00010000
00000000
01000000
00000000
10000000
00100000
,
00010000
00000000
00001000
00000000
00000100
00000000
00000010
00001000
,
00000100
00000000
00000001
00000000
00000001
00000100
00001000
00000010
,
00010000
00000000
00001000
00000000
01000000
10000000
00010000
00100000
,
01000000
00000000
00010000
00000000
00100000
10000000
00100000
00001000
,
00010000
00000000
00001000
00000000
00000010
00000001
00000100
00001000
,
00000001
00000000
00000010
00000000
00001001
00001000
00000100
00000010
,
00000001
00000010
00000100
00001000
00000010
00010000
00001000
01000000
,
00010000
00100000
01000000
10000000
10000000
00010000
01000000
00100000
,
10000000
00100000
01000000
00010000
00100000
00001000
00010000
00000010
,
00001000
00000100
00000010
00000001
00001001
00000100
00000010
00000000
,
00010000
00001000
01000000
00000000
10010000
00100000
01000000
00000000
,
00001000
00010000
00000100
00000000
00001001
00000100
00000010
00000000
,
00001001
00000010
00000100
00000000
00001100
00000000
00011000
00000000
,
01010000
00000000
00000000
00000000
00011000
00000000
00000000
00000000
00010000
00001000
00010000
00000000
00000010
00000000
00000100
00000000
,
00000001
00001000
00000001
00000000
00000100
00000001
00000100
00000000
00000001
00001000
00000001
00000000
00000100
00000000
00000010
00000000
,
00010000
00001000
00010000
00000000
00001000
00010000
00001000
00000000
02000000
00000000
00000000
00000000
03200000
00000000
00000000
00000000
,
20300000
00000000
00000000
00000000
30020000
00000000
00000000
00000000
00200000
00030000
00000000
00000000
02300000
00000000
00000000
00000000
,
03020000
00032000
00003010
00000011
,
22000000
00000000
00000000
00000000
00000000
00000000
00000000
00000000
00000000
00000000
00000000
00000000
00000000
00000000
00000000
00000000
00000000
00000000
00000000
00000000
00000000
00000000
00000000
33000000
00000000
00000000
00000000
00000000
00000000
00000000
00000000
00000000
;
