#TITLE:Breakaway;
#SUBTITLE:(Joe Bermudez & Josh Harris Regal Mix);
#ARTIST:Kelly Clarkson;
#TITLETRANSLIT:;
#SUBTITLETRANSLIT:;
#ARTISTTRANSLIT:;
#GENRE:;
#CREDIT:;
#BANNER:Breakaway (Joe Bermudez & Josh Harris Regal Mix)-bn.png;
#BACKGROUND:Breakaway (Joe Bermudez & Josh Harris Regal Mix)-bg.png;
#LYRICSPATH:Breakaway (Joe Bermudez & Josh Harris Regal Mix).lrc;
#CDTITLE:ddrencorecdtitle.png;
#MUSIC:Breakaway (Joe Bermudez & Josh Harris Regal Mix).mp3;
#OFFSET:-0.029;
#SAMPLESTART:60.562;
#SAMPLELENGTH:17.924;
#SELECTABLE:YES;
#BPMS:0.000=106.998
;
#STOPS:;
#BGCHANGES:;
#KEYSOUNDS:;
#ATTACKS:;

//---------------dance-single - ----------------
#NOTES:
     dance-single:
     :
     Beginner:
     1:
     0.108,0.087,0.055,0.055,0.000,70.000,6.000,6.000,0.000,0.000,0.000,0.108,0.087,0.055,0.055,0.000,70.000,6.000,6.000,0.000,0.000,0.000:
0000
0000
0000
0000
,
0000
0000
0000
0000
,
0000
0000
0000
0000
,
0000
0000
0000
0000
,
0001
0000
0000
0000
,
0010
0000
0000
0000
,
1000
0000
0000
0000
,
0100
0000
0000
0000
,
0010
0000
0010
0000
,
1000
0000
1000
0000
,
0001
0000
0100
0000
,
0020
0000
0030
0000
,
0100
0000
0100
0000
,
0001
0000
0001
0000
,
1000
0000
0001
0000
,
1001
0000
0000
0000
,
1000
0000
0100
0000
,
1000
0000
0010
0000
,
1000
0000
0001
0000
,
0200
0000
0300
0000
,
0001
0000
0010
0000
,
0001
0000
0100
0000
,
0001
0000
1000
0000
,
1001
0000
0000
0000
,
0100
0000
0010
0000
,
0110
0000
0000
0000
,
1001
0000
0000
0000
,
1000
0000
0001
0000
,
1000
0000
1000
0000
,
0001
0000
1000
0000
,
0001
0000
0001
0000
,
0100
0000
0100
0000
,
0100
0000
0000
0000
,
0010
0000
1000
0000
,
1001
0000
0000
0000
,
0001
0000
1000
0000
,
0001
0000
0001
0000
,
1000
0000
0001
0000
,
1000
0000
1000
0000
,
0010
0000
0010
0000
,
0010
0000
0000
0000
,
0100
0000
0001
0000
,
0020
0000
0030
0000
,
0100
0000
1000
0000
,
0020
0000
0030
0000
,
0100
0000
0001
0000
,
2002
0000
0000
0000
,
3003
0000
0000
0000
;

//---------------dance-single - ----------------
#NOTES:
     dance-single:
     :
     Easy:
     2:
     0.150,0.174,0.055,0.148,0.000,92.000,6.000,16.000,0.000,0.000,0.000,0.150,0.174,0.055,0.148,0.000,92.000,6.000,16.000,0.000,0.000,0.000:
0000
0000
0000
0000
,
0000
0000
0000
0000
,
0000
0000
0000
0000
,
0000
0000
0000
0000
,
1000
0000
0000
0000
,
0100
0000
0000
0000
,
0001
0000
0000
0000
,
0010
0000
0000
0000
,
1000
0000
0001
0001
,
0100
0000
0010
0010
,
1000
0000
0001
0000
,
0100
0000
0100
0000
,
0010
0000
1000
1000
,
0100
0000
0010
0010
,
0001
0000
1000
0000
,
2002
0000
0000
3003
,
0001
0000
0100
0010
,
1000
0000
0001
0100
,
0010
0000
1000
0000
,
0001
0000
0001
0000
,
1000
0000
0100
1000
,
0010
0000
0100
0001
,
0010
0000
0100
0000
,
0220
0000
0000
0330
,
0010
0000
0001
0000
,
2000
0000
0000
0000
,
0002
0000
0000
3003
,
1000
0010
1000
0001
,
0100
0000
0100
0000
,
0010
1000
0010
0100
,
0001
0000
0001
0000
,
2000
0010
0000
0010
,
0000
0010
3000
1000
,
0001
0000
0100
0000
,
2002
0000
0000
3003
,
0001
0100
0001
1000
,
0010
0000
0010
0000
,
0100
0001
0100
0010
,
1000
0000
1000
0000
,
0002
0010
0000
0010
,
0000
0010
0003
0001
,
1000
0000
0010
0000
,
2002
0000
0000
3003
,
1000
0000
0010
0000
,
0220
0000
0000
0330
,
0001
0000
1000
0000
,
2002
0000
0000
0000
,
3003
0000
0000
0000
;

//---------------dance-single - ----------------
#NOTES:
     dance-single:
     :
     Medium:
     5:
     0.243,0.260,0.194,0.277,0.028,133.000,21.000,30.000,0.000,0.000,0.000,0.243,0.260,0.194,0.277,0.028,133.000,21.000,30.000,0.000,0.000,0.000:
0000
0000
0000
0000
,
0000
0000
0000
0000
,
0000
0000
0000
0000
,
0000
0000
0000
0000
,
0002
0000
0000
0100
0003
0000
0100
0000
,
0020
0000
0000
1000
0030
0000
1000
0000
,
0002
0000
0000
0010
0003
0000
0010
0000
,
0200
0000
0000
1000
0300
0000
1000
0000
,
0001
0000
1001
1001
,
0100
0000
1001
1001
,
0010
0000
0001
0000
,
0200
0000
0320
0000
,
1030
0000
0110
0110
,
0001
0000
0110
0110
,
1000
0000
0001
0000
,
2002
0000
0000
3003
,
1000
0001
0110
1001
,
0001
1000
0110
1001
,
0001
0100
0010
1000
,
0002
0000
2003
0000
,
3001
0100
1001
0110
,
1000
0100
1001
0110
,
0002
0000
2003
0000
,
3020
0000
0000
0130
,
0002
0000
2003
0000
,
3020
0000
0000
0000
,
0200
0000
0000
0330
,
0001
0000
0000
1000
0000
0000
0001
0000
0100
0000
0000
0000
0010
0000
0000
0000
,
1000
0001
1001
0000
,
1000
0000
0000
0001
0000
0000
1000
0000
0010
0000
0000
0000
0100
0000
0000
0000
,
0001
0000
0000
1000
0000
0000
0001
0000
0020
0000
0000
0000
0000
0000
0000
0000
,
0130
1000
0100
0000
0010
0001
0010
0000
,
0100
1000
0001
0000
0100
0000
1001
0000
,
0200
0000
0320
0000
,
2030
0000
0000
3001
,
1000
0000
0000
0001
0000
0000
1000
0000
0010
0000
0000
0000
0100
0000
0000
0000
,
0001
0010
1001
0000
,
0001
0000
0000
0100
0000
0000
0001
0000
1000
0000
0000
0000
0010
0000
0000
0000
,
1000
0000
0000
0100
0000
0000
1000
0000
0001
0000
0000
0000
0100
0000
0000
0000
,
0010
1000
0010
0000
0100
0001
0100
0000
,
0001
1000
0010
0000
1000
0000
1001
0000
,
0020
0000
0230
0000
,
0302
0000
0000
1003
,
0002
0000
2003
0000
,
3200
0000
0000
0310
,
0200
0000
2300
0000
,
0002
0000
0000
0000
,
3003
0000
0000
0000
;

//---------------dance-single - ----------------
#NOTES:
     dance-single:
     :
     Hard:
     7:
     0.357,0.347,0.037,0.342,0.125,230.000,4.000,37.000,0.000,0.000,0.000,0.357,0.347,0.037,0.342,0.125,230.000,4.000,37.000,0.000,0.000,0.000:
0000
0000
0000
0000
,
0000
0000
0000
0000
,
0000
0000
0000
0000
,
0000
0000
0000
0000
,
0001
0000
0000
1000
0000
0000
0020
0000
0000
0000
1030
0001
1000
0000
0000
0000
,
0100
0000
0000
1000
0000
0000
0002
0000
0000
0000
1003
0100
1000
0000
0000
0000
,
0010
0000
0000
1000
0000
0000
0200
0000
0000
0000
0310
0001
0010
0000
0000
0000
,
0010
0000
0000
0001
0000
0000
2000
0000
0000
0000
3001
0100
0001
0000
1000
0001
,
1000
0100
1000
0010
0100
0000
0100
0000
,
0010
1000
0001
0100
0010
0000
0010
0000
,
1000
0000
0000
0100
0000
0000
0010
0000
0001
0000
0000
0010
0000
0000
0001
0000
,
0100
0020
0200
0330
,
0010
1000
0001
0100
0010
0000
1000
0000
,
0001
0100
0010
1000
0010
0000
1000
0000
,
0200
0010
2300
0001
,
3020
0000
0000
0000
0000
0000
0000
0000
0030
0000
1000
0000
0001
0000
0100
0010
,
1000
0001
0100
0001
0010
0100
1100
0000
,
1000
0010
0100
0001
1000
0010
0110
0000
,
1000
0000
0000
0001
0000
0000
0100
0000
0010
0000
0000
0100
0000
0000
0010
0000
,
1000
0002
0200
0303
,
0001
0010
0100
1000
0010
0000
1001
0000
,
0010
0100
0001
1000
0010
0000
1001
0000
,
0002
1000
0203
1000
,
0320
0000
0000
0000
0000
0000
0001
0000
0000
0000
0000
0000
1030
0000
0001
1000
,
0002
0010
2003
0100
,
3020
0000
0000
0000
0100
0000
0000
0000
0000
0000
0130
0010
0200
0000
0000
0000
,
0302
0000
0000
0000
0010
0000
0000
0000
0103
0000
0010
0000
1000
0000
0001
0100
,
0010
0000
0000
1000
0000
0000
0001
0000
0100
0000
0000
0000
0010
0000
0000
0000
,
0100
0000
0000
0001
0000
0000
1000
0000
0200
0000
0000
0000
0010
0000
0000
0000
,
1300
0100
0001
0100
1000
0010
0001
0010
,
0100
0000
0000
0001
0000
0000
2000
0000
0002
0000
0000
0000
0000
0000
3003
0000
,
0001
0100
1000
0000
0100
1000
0010
0000
,
1000
0000
0010
0000
0001
0000
0000
0000
0100
0000
0001
1000
0001
0000
1000
0000
,
0002
0010
0203
0001
,
0320
0000
0000
0000
0000
0000
0000
0000
0000
0000
1030
0000
0001
0000
1000
0010
,
1000
0000
0000
0001
0000
0000
0010
0000
0100
0000
0000
0000
1000
0000
0001
0000
,
0010
0000
0000
0001
0000
0000
0100
0000
0020
0000
0000
0000
0100
0000
0000
0000
,
1030
0100
0001
0100
1000
0010
0001
0010
,
0100
0000
0000
0100
0002
0000
0000
0000
2000
0000
0000
0000
0000
0000
3003
0000
,
1000
0010
0001
0000
0010
0001
0100
0000
,
0001
0000
0100
0000
1000
0000
0000
0000
0010
0000
1000
0001
1000
0000
0001
0000
,
0200
0001
0320
0100
,
2030
0000
0000
0000
0000
0000
0000
0000
0000
0000
3001
0000
0100
0000
0001
1000
,
0200
1000
0320
0100
,
0032
0000
0000
0000
0000
1003
0010
0100
,
0002
0000
2003
0000
,
0200
0000
0000
0000
,
3300
0000
0000
0000
;

//---------------dance-double - ----------------
#NOTES:
     dance-double:
     :
     Easy:
     2:
     0.145,0.152,0.037,0.203,0.000,84.000,4.000,22.000,0.000,0.000,0.000,0.145,0.152,0.037,0.203,0.000,84.000,4.000,22.000,0.000,0.000,0.000:
00000000
00000000
00000000
00000000
,
00000000
00000000
00000000
00000000
,
00000000
00000000
00000000
00000000
,
00000000
00000000
00000000
00000000
,
00020000
00000000
00030000
00000000
,
20000000
00000000
30000000
00000000
,
00200000
00000000
00300000
00000000
,
02000000
00000000
03000000
00000000
,
00010000
00000000
00100000
00000000
,
00010000
00000000
10000000
00000000
,
01000000
00000000
00100000
00000000
,
00002000
00000000
00023000
00000000
,
00031000
00000000
00010000
00000000
,
00000100
00000000
00001000
00000000
,
00000010
00000000
00000100
00000000
,
00000002
00000000
00000000
00000000
,
00001003
00000000
00000100
00000100
,
00001000
00000000
00000010
00000010
,
00000100
00000000
00000001
00000000
,
00000020
00000000
00000230
00000000
,
00001300
00000000
00000010
00000010
,
00001000
00000000
00000100
00000100
,
00010000
00000000
00001000
00000000
,
02000000
00000000
00000000
00000000
,
03100000
00000000
10000000
00000000
,
00020000
00000000
00000000
00000000
,
20000000
00000000
00000000
30030000
,
10000000
01000000
10000000
00000000
,
00010000
00000000
00100000
00000000
,
00001000
00010000
00001000
00000000
,
00010000
00000000
00000100
00000000
,
00002000
00000010
00000000
00000001
,
00000000
00000010
00003000
00001000
,
00000001
00000000
00000100
00000000
,
00002002
00000000
00000000
00003003
,
00000001
00000100
00000001
00000000
,
00001000
00000000
00000010
00000000
,
00010000
00001000
00010000
00000000
,
00001000
00000000
01000000
00000000
,
00020000
01000000
00000000
10000000
,
00000000
01000000
00030000
00010000
,
10000000
00000000
00100000
00000000
,
20020000
00000000
00000000
30030000
,
01000000
00000000
00001000
00000000
,
00022000
00000000
00000000
00033000
,
00010000
00000000
00000100
00000000
,
00002002
00000000
00000000
00000000
,
00003003
00000000
00000000
00000000
;

//---------------dance-double - ----------------
#NOTES:
     dance-double:
     :
     Medium:
     5:
     0.227,0.239,0.046,0.249,0.018,140.000,5.000,27.000,0.000,0.000,0.000,0.227,0.239,0.046,0.249,0.018,140.000,5.000,27.000,0.000,0.000,0.000:
00000000
00000000
00000000
00000000
,
00000000
00000000
00000000
00000000
,
00000000
00000000
00000000
00000000
,
00000000
00000000
00000000
00000000
,
00010000
00000000
00000000
00001000
00000000
00000000
00020000
00000000
00000000
00000000
00000000
00000000
00030000
00000000
00000000
00000000
,
00000100
00000000
00000000
00001000
00000000
00000000
00000200
00000000
00000000
00000000
00000000
00000000
00000300
00000000
00000000
00000000
,
00000010
00000000
00000000
00000001
00000000
00000000
00000020
00000000
00000000
00000000
00000000
00000000
00000030
00000000
00000000
00000000
,
00000100
00000000
00000000
00001000
00000000
00000000
00000200
00000000
00000000
00000000
00000000
00000000
00000300
00000000
00000000
00000000
,
00010000
00001000
01000000
01000000
,
00001000
00010000
00000100
00000100
,
00010000
00001000
00100000
00001000
,
00020000
00000000
00032000
00000000
,
00013000
00001000
00100000
00100000
,
00001000
00010000
00000010
00000010
,
00020000
00000000
00032000
00000000
,
00203000
00000000
00000000
00000000
,
00310000
01000000
00100000
10010000
,
01000000
00010000
00100000
10010000
,
00010000
01000000
00001000
00010000
,
00000200
00000000
00002300
00000000
,
00003001
00000100
00000010
00001001
,
00000100
00000001
00000010
00001001
,
00000100
00000000
00000010
00000000
,
00022000
00000000
00000000
00033000
,
00001000
00000000
01000000
00000000
,
00020000
00000000
00000000
00000000
,
20000000
00000000
00000000
30030000
,
10000000
00000000
01000000
10000000
01000000
00000000
00100000
00000000
,
00001000
00000000
00010000
00001000
00010000
00000000
00000100
00000000
,
00001000
00000000
00000010
00001000
00000001
00000000
00000100
00000000
,
00000010
00000000
00001000
00000001
00000100
00000000
00000010
00000000
,
00010000
00001000
00010000
00000000
00010000
00000100
00010000
00000000
,
00010000
00000010
00010000
00000000
00000010
00000000
00001000
00000000
,
00000002
00000000
00000203
00000000
,
00000020
00000000
00000000
00000330
,
00000001
00000000
00000010
00000001
00000010
00000000
00000100
00000000
,
00010000
00000000
00001000
00010000
00001000
00000000
00100000
00000000
,
00010000
00000000
01000000
00010000
10000000
00000000
00100000
00000000
,
01000000
00000000
00010000
10000000
00100000
00000000
01000000
00000000
,
00001000
01000000
00001000
00000000
00001000
00100000
00001000
00000000
,
00001000
00010000
00001000
00000000
01000000
00000000
00010000
00000000
,
20000000
00000000
30200000
00000000
,
02000000
00000000
00000000
03300000
,
00020000
00000000
02030000
00000000
,
00002000
00000000
00000000
03003000
,
00002000
00000000
00023000
00000000
,
00000200
00000000
00000000
00000000
,
00030300
00000000
00000000
00000000
;

//---------------dance-double - ----------------
#NOTES:
     dance-double:
     :
     Hard:
     7:
     0.355,0.347,0.074,0.295,0.083,229.000,8.000,32.000,0.000,0.000,0.000,0.355,0.347,0.074,0.295,0.083,229.000,8.000,32.000,0.000,0.000,0.000:
00000000
00000000
00000000
00000000
,
00000000
00000000
00000000
00000000
,
00000000
00000000
00000000
00000000
,
00000000
00000000
00000000
00000000
,
00010000
00000000
00000000
00001000
00000000
00000000
00200000
00000000
00000000
00000000
00010000
00000000
01300000
00000000
00000000
00000000
,
01000000
00000000
00000000
10000000
00000000
00000000
00020000
00000000
00000000
00000000
00100000
00000000
01030000
00000000
00000000
00000000
,
01000000
00000000
00000000
00001000
00000000
00000000
00020000
00000000
00000000
00000000
00000100
00000000
00031000
00000000
00000000
00000000
,
00001000
00000000
00000000
00000010
00000000
00000000
00000200
00000000
00000000
00000000
00000010
00000000
00000301
00000000
00001000
00000001
,
00001000
00000010
00000100
00000001
00001000
00000000
00001000
00000000
,
00000010
00000100
00000001
00001000
00000010
00000000
00000010
00000000
,
00010000
00001000
01000000
00010000
00100000
01000000
10000000
00010000
,
02000000
00100000
00020000
03030000
,
00010000
10000000
01000000
00100000
00010000
00000000
00010000
00000000
,
00100000
00001000
00010000
00000100
00001000
00000000
00001000
00000000
,
00000020
00001000
00000230
00001000
,
00000002
00000000
00000000
00000000
00000000
00000000
00000000
00000000
00000303
00000000
00000100
00000000
00000001
00000000
00001000
00000001
,
00001000
00000001
00000100
00000010
00001000
00000010
00000110
00000000
,
00000010
00010000
00001000
00100000
00010000
00100000
01100000
00000000
,
01000000
00000000
00000000
10000000
00000000
00000000
00100000
00000000
00010000
00000000
00000000
00100000
00000000
00000000
01000000
00000000
,
00002000
00100000
00020000
00033000
,
00010000
00000100
00001000
00000010
00000100
00000010
00001010
00000000
,
00001000
00000010
00010000
00001000
01000000
00001000
00011000
00000000
,
00002000
00100000
00023000
01000000
,
00032000
00000000
00000000
00000000
00000000
00000000
00000000
00000000
00003000
00000000
00100000
00000000
00010000
00000000
10000000
00010000
,
20000000
01000000
30200000
00010000
,
02300000
00001000
00000000
10000000
,
03200000
00000000
00000000
00000000
00010000
00000000
00000000
00000000
01000000
00000000
00000000
00000000
10300000
00000000
00010000
01000000
,
00010000
00000000
00000000
10000000
00000000
00000000
00100000
00000000
01000000
00000000
00010000
00000000
00100000
00000000
00001000
00000000
,
00010000
00000000
00000000
01000000
00000000
00000000
10000000
00000000
00100000
00000000
00000000
00000000
01000000
00000000
00000000
00000000
,
00010000
01000000
10000000
01000000
00010000
00100000
00001000
00000100
,
00001000
00000000
00000000
00010000
00000000
00000000
00001000
00000000
00021000
00000000
00000000
00000000
00000100
00000000
00000000
00000000
,
00031000
00010000
01000000
00000000
01000000
00010000
00001000
00000000
,
00010000
00001000
00000010
00000000
00000001
00000000
00001001
00000000
,
00002000
00000010
00003200
00001000
,
00020300
00000000
00000000
00000000
00000010
00000000
00000000
00000000
00031000
00000000
00010000
00000000
00000100
00000000
00010000
00001000
,
00010000
00000000
00000000
00001000
00000000
00000000
01000000
00000000
00100000
00000000
10000000
00000000
00010000
00000000
00100000
00000000
,
01000000
00000000
00000000
10000000
00000000
00000000
00010000
00000000
00100000
00000000
00000000
00000000
00010000
00000000
00000000
00000000
,
10000000
01000000
00010000
01000000
10000000
00100000
01000000
00001000
,
00100000
00000000
00000000
00001000
00000000
00000000
00010000
00000000
00012000
00000000
00000000
00000000
00100000
00000000
00000000
00000000
,
00013000
00001000
00000010
00000000
00000010
00001000
00010000
00000000
,
00001000
00010000
01000000
00000000
10000000
00000000
10010000
00000000
,
20000000
00100000
30020000
01000000
,
00230000
00000000
00000000
00000000
00000000
00000000
00010000
00000000
00300000
00000000
00001000
00000000
00010000
00000000
00000100
00001000
,
00000200
00010000
00002300
00000010
,
00003002
00000000
00000000
00000100
00000003
00001000
00000010
00000000
,
00020000
00000000
00032000
00000000
,
02000000
00000000
00000000
00000000
,
03003000
00000000
00000000
00000000
;
