#TITLE:Bounce;
#SUBTITLE:;
#ARTIST:MSTRKRFT feat. N.O.R.E. & Isis;
#TITLETRANSLIT:;
#SUBTITLETRANSLIT:;
#ARTISTTRANSLIT:;
#GENRE:;
#CREDIT:;
#MENUCOLOR:;
#METERTYPE:DDR;
#BANNER:Bounce-banner.png;
#BACKGROUND:Bounce-bg.png;
#LYRICSPATH:Bounce.lrc;
#CDTITLE:DDR Encore 2.png;
#MUSIC:Bounce.mp3;
#OFFSET:-0.021;
#SAMPLESTART:14.886;
#SAMPLELENGTH:14.866;
#SELECTABLE:YES;
#LISTSORT:;
#BPMS:0.000=128.984;
#STOPS:;
#BGCHANGES:;
#ATTACKS:;

//---------------dance-double - ----------------
#NOTES:
     dance-double:
     :
     Hard:
     9:
     0.514,0.509,0.352,0.092,0.117:
00000000
00000000
00000000
00000000
,
00000000
00000000
00000000
00000000
,
00000000
00000000
00000000
00000000
,
00000000
00000000
00000000
00000000
,
00000000
00000000
10000000
00000000
00000000
10000000
00000000
00000000
00100000
00000000
01000000
00001000
00000000
00010000
00000000
00000100
,
00000000
00000010
00000000
00000001
00000000
00001000
00000000
00000010
00020000
00000000
00000000
00000000
00032000
00000000
00000000
00000000
,
00003000
00000000
01000000
00000000
00000000
01000000
00000000
00000000
00100000
00000000
10000000
00010000
00000000
00100000
00000000
00010000
,
00000000
00000010
00000000
00000100
00000000
00010000
00000000
00001000
02000000
00000000
00000000
00000000
03020000
00000000
00000000
00000000
,
10030000
00000000
00100000
01000000
00100000
00000000
10000000
00000000
01000000
00000000
00100000
00000000
00010000
00000000
00100000
00000000
,
01000000
00100000
10000000
00100000
00002000
00000000
00023000
00000000
,
00030010
00000000
00001000
00000001
00001000
00000000
00000100
00000000
00000010
00000000
00000001
00000000
00000100
00000000
00001000
00000000
,
00000100
00000000
00000001
00000000
00000100
00000000
00000010
00000000
00020000
00000000
00000000
00000000
00032000
00000000
00000000
00003000
,
00011000
01000000
00011000
00000100
,
00011000
00100000
00011000
00000010
,
00010000
00000000
00100000
01000000
00100000
00000000
10000000
00000000
00010000
00000000
00100000
00000000
01000000
00000000
10000000
00000000
,
01000000
00010000
01000000
00100000
00002000
00000000
00023000
00000000
,
00030010
00000100
00000001
00000000
00001000
00000100
00000010
00000000
,
00000100
00001000
00000010
00010000
00100000
01000000
00010000
00000000
,
00000010
00000100
00001000
00000000
00000001
00001000
00000010
00000000
,
00000100
00000000
00000010
00000000
00001000
00000001
00001000
00000000
00000100
00000000
00000010
00000000
00000100
00000000
00011000
00000000
,
01000000
00100000
01010000
00000000
00100000
10000000
00010000
00000010
,
00000100
00010000
00001000
00000000
01000000
00100000
10000000
10000000
,
00010000
00100000
01000000
00100000
00001000
00000100
00000010
00001000
,
00000010
00000000
00000100
00000001
00000100
00000000
00000010
00000000
00001000
00000000
00000100
00000000
00010000
00000000
00010000
00000000
,
00001000
01000000
00100000
00000000
10000000
00010000
00100000
00000000
,
00001000
00000000
00010000
00000000
00000010
00000000
00000100
00000001
00000100
00000000
00000010
00001000
00000100
00000000
00000000
00000000
,
00010000
00000000
00001000
00000000
01000000
00000000
00000000
00000000
00100000
00000000
00100000
10000000
00010000
00000000
00000000
00000000
,
00100000
00001000
00010000
00000000
00000010
00010000
00001000
00000000
,
00010000
00000000
00100000
10000000
00100000
00000000
01000000
00000000
00010000
00000000
10000000
00000000
01000000
00000000
00010000
00000000
,
01000000
10000000
01000000
00100000
00001000
00001000
00010000
00010000
,
00000010
00000000
00000100
00000001
00000100
00000000
00000010
00000000
00001000
00000000
00000100
00000000
00000010
00000000
00001000
00000000
,
00000010
00000001
00000010
00000100
00010000
00010000
00001000
00001000
,
00011000
01000000
00011000
00000100
,
00011000
00100000
00011000
00000010
,
00010000
00100000
10000000
00010000
00100000
10000000
00100000
00010000
,
00100000
01000000
00100000
00001000
00010000
00010000
00001000
00001000
,
01000000
00100000
10000000
01000000
01000000
00100000
00010000
00000000
,
01000000
00001000
00010000
00000000
00011000
00010100
00011000
00000000
,
00010000
00000010
00000100
00000000
00000001
00001000
00000100
00000000
,
00000010
00000001
00000100
00000000
00010000
01000000
10000000
00000000
,
01000000
01000000
01000000
00000000
00010000
10000000
01000000
00000000
,
00100000
00000000
00001000
00000000
00010000
00000000
00000010
00000000
00000000
00000100
00000000
00000000
00000001
00000000
00000000
00001000
00000000
00000000
00000100
00000000
00000000
00011000
00000000
00000000
,
01000000
00100000
01000000
00000000
00010000
10000000
01000000
00000000
,
00100000
00010000
00000010
00000000
00000100
00001000
01000000
00000000
,
10000000
00010000
00100000
00000000
00010000
01000000
00001000
00001000
,
00010000
00000100
00000010
00000000
00000100
00010000
00011000
00011000
,
00100000
01000000
00010000
00000000
00000010
00000001
00000100
00000000
,
00000010
00010000
00000100
00000000
00010000
00001000
01000000
10100000
,
00000000
01001000
00011000
00000000
00000010
00000000
00000001
00000000
,
00000100
00001000
00000100
00000001
00000100
00000010
00010000
00000000
,
00011000
01000000
00011000
00000100
,
00011000
00000000
00100000
00000000
00011000
00000000
00000010
00000101
,
00000000
00010010
00011000
00000000
01000000
00000000
00010000
00000000
,
00100000
01000000
00100000
10000000
00100000
00001000
00010000
00000000
,
00000100
00000010
00000001
00000100
,
00000010
00000001
00000010
00000100
00000010
00010000
00001000
00000000
,
00011000
00011000
01000000
00000100
,
00011000
00011000
00100000
00000010
,
00011000
00011000
01000000
00000100
,
00011000
00011000
00100000
00000010
,
00011000
01000000
00011000
00000100
,
00011000
00100000
00011000
00000010
,
00001001
00010000
10010000
00001000
,
00000110
00010000
01100000
00002000
,
00003000
00000000
00000000
00000000
;

//---------------dance-single - ----------------
#NOTES:
     dance-single:
     :
     Beginner:
     2:
     0.117,0.186,0.008,0.075,0.000:
0000
0000
0000
0000
,
0000
0000
0000
0000
,
0000
0000
0000
0000
,
0000
0000
0000
0000
,
0000
0000
0000
0000
,
0000
0000
0000
0000
,
0000
0000
0000
0000
,
0000
0000
0000
0000
,
0001
0000
0002
0000
,
0000
0000
0000
0003
,
1000
0000
2000
0000
,
0000
0000
0000
3000
,
0100
0000
0100
0000
,
0010
0000
0010
0000
,
0100
0000
0020
0000
,
0000
0000
0000
0030
,
0001
0000
1000
0000
,
0001
0000
0000
0000
,
0100
0000
0010
0000
,
0100
0000
0000
0000
,
0001
0000
0010
0000
,
0100
0000
0000
0000
,
1000
0000
0010
0000
,
0100
0000
0000
0000
,
0001
0000
0100
0000
,
1000
0000
0001
0000
,
1000
0000
0100
0000
,
0001
0000
0000
0000
,
1000
0000
2000
0000
,
0000
0000
0000
3000
,
0001
0000
0002
0000
,
0000
0000
0000
0003
,
0100
0000
0100
0000
,
0010
0000
0010
0000
,
0100
0000
0020
0000
,
0000
0000
0000
0030
,
1000
0000
1000
0000
,
0001
0000
0010
0000
,
0001
0000
0001
0000
,
1000
0000
0010
0000
,
1001
0000
0100
0000
,
0010
0010
0010
0000
,
1000
0000
0001
0000
,
0010
0000
0010
0000
,
0001
0000
1000
0000
,
0100
0000
0100
0000
,
1000
0000
0000
0000
,
0001
0000
0000
0000
,
1000
0000
2000
0000
,
0000
0000
0000
3000
,
0100
0000
0100
0000
,
0010
0000
0010
0000
,
0001
0000
0002
0000
,
0000
0000
0000
0003
,
0100
0000
0020
0000
,
0000
0000
0000
0030
,
0100
0000
0100
0000
,
0010
0000
0010
0000
,
0100
0000
0100
0000
,
0010
0000
0010
0000
,
0100
0000
0100
0000
,
0010
0000
0010
0000
,
0100
0000
0100
0000
,
0010
0000
0010
0000
;

//---------------dance-single - ----------------
#NOTES:
     dance-single:
     :
     Hard:
     8:
     0.528,0.536,0.461,0.184,0.172: // measure 1
0000
0000
0000
0000
,  // measure 2
0000
0000
0000
0000
,  // measure 3
0000
0000
0000
0000
,  // measure 4
0000
0000
0000
0000
,  // measure 5
0001
0000
0100
0000
0001
0100
0000
0000
0010
0000
1000
0100
0000
1000
0000
0001
,  // measure 6
0000
0100
0000
0100
0000
0001
0000
0010
0200
0000
0000
0000
2300
0000
0000
0000
,  // measure 7
3000
0000
0010
0000
1000
0010
0000
0000
0100
0000
0001
0010
0000
0001
0000
1000
,  // measure 8
0000
0100
0000
0100
0000
1000
0000
0010
0200
0000
0000
0000
0302
0000
0000
0000
,  // measure 9
1003
0010
1000
0001
0010
0100
1000
0000
,  // measure 10
1100
0011
0101
1010
,  // measure 11
0100
0001
0010
0100
1000
0010
1000
0000
,  // measure 12
1010
0101
0011
1100
,  // measure 13
1000
0001
1000
0000
0000
0000
0000
0000
0010
0000
0100
0000
0001
0000
0010
0000
,  // measure 14
0100
1000
0100
0000
0000
0000
0000
0000
0012
0000
0000
0000
0100
0000
0000
0000
,  // measure 15
1003
0010
1000
0000
0000
0000
0000
0000
0100
0000
0010
0000
0001
0000
1000
0000
,  // measure 16
0010
0100
0010
0000
0000
0000
0000
0000
2010
0000
0000
0000
0100
0000
0000
0000
,  // measure 17
3001
0010
0100
0000
1000
0100
0010
0000
,  // measure 18
0001
1000
0010
0100
1000
0100
0001
0000
,  // measure 19
1010
1000
0100
0000
0011
0001
0100
0000
,  // measure 20
0010
1000
0100
0001
0100
0010
0001
0100
,  // measure 21
1000
0100
0001
0000
1000
0100
0001
0100
,  // measure 22
0010
0001
0100
0000
1000
0100
0010
1000
,  // measure 23
0100
0001
0100
1000
0010
0100
0010
1000
,  // measure 24
0001
0000
0010
0001
0010
0000
0100
0000
1000
0000
0010
0000
0100
0000
1000
0000
,  // measure 25
0100
0001
0010
0000
0100
1000
0001
0000
,  // measure 26
1000
0000
0010
0000
1000
0000
0100
0010
0100
0000
0010
0000
0001
0000
0000
0000
,  // measure 27
1000
0000
0010
0000
0100
0000
0000
0000
0100
0000
0010
1000
0010
0000
0000
0000
,  // measure 28
1000
0001
0010
0000
0011
0000
1001
0000
,  // measure 29
1000
0010
1000
0100
0010
0001
0100
0000
,  // measure 30
0101
1010
2002
0003
,  // measure 31
3001
0010
0001
0100
0010
1000
0100
0000
,  // measure 32
1100
0011
0201
0010
,  // measure 33
0301
0001
0010
0000
0100
1000
1010
0000
,  // measure 34
0100
0100
0010
0000
2010
0000
0001
0000
,  // measure 35
3010
0010
1000
0000
0001
1000
1100
0000
,  // measure 36
0010
0010
0012
0100
,  // measure 37
1003
0001
0000
0001
1000
0001
0010
0000
,  // measure 38
0100
0010
0001
0000
2010
0000
3200
0000
,  // measure 39
0310
0001
0100
0000
0010
1000
0100
0000
,  // measure 40
1000
0001
1000
0000
0021
0000
0230
0000
,  // measure 41
1300
1000
1000
0000
0001
0010
0100
0000
,  // measure 42
1000
0000
0100
0000
1000
0000
0100
0000
0000
0010
0000
0000
0001
0000
0000
1000
0000
0000
0010
0000
0000
0000
0000
0000
,  // measure 43
0100
0001
0101
0000
0010
1000
1010
0000
,  // measure 44
0100
0001
0010
0000
0100
1000
0001
0000
,  // measure 45
1000
0010
0100
0000
0001
0000
0011
0000
,  // measure 46
0100
1000
0100
0000
0010
0000
1001
0000
,  // measure 47
1000
1010
0100
0101
,  // measure 48
1002
0000
0010
0000
0100
0000
1003
1001
,  // measure 49
0000
1001
0100
0000
0010
0000
0001
0000
,  // measure 50
0100
0001
0100
0010
1000
0001
0010
0000
,  // measure 51
1010
0011
1010
0011
,  // measure 52
1100
0000
0101
0000
1100
0000
0101
0010
,  // measure 53
1000
0100
0010
0000
0001
0000
1000
0000
,  // measure 54
0010
0100
1000
0100
0001
0010
1000
0000
,  // measure 55
0010
0001
0100
0010
0001
0010
1000
0000
,  // measure 56
0200
0000
0000
0300
,  // measure 57
0010
0000
0001
1000
0001
0000
0100
0000
1001
0000
0000
0000
0010
0000
0000
0000
,  // measure 58
0100
0000
1000
0001
1000
0000
0100
0000
1001
0000
0000
0000
0200
0000
0000
0000
,  // measure 59
0310
0000
0001
0010
0001
0000
1000
0000
1001
0000
0000
0000
0020
0000
0000
0000
,  // measure 60
0130
0000
1000
0100
1000
0000
0001
0000
1001
0000
0000
0000
0200
0000
0000
0000
,  // measure 61
0310
0001
0000
0001
0010
0001
0000
0000
1001
0000
0000
0000
0011
0000
0000
0000
,  // measure 62
0010
1000
0000
1000
0010
1000
0000
0000
1001
0000
0000
0000
1100
0000
0000
0000
,  // measure 63
0001
0010
0000
0100
1000
0100
0000
0000
0110
0000
0000
0000
1001
0000
0000
0000
,  // measure 64
1000
0010
0000
0100
0001
0100
0000
0000
1001
0000
0000
0000
0220
0000
0000
0000
,  // measure 65
0330
0000
0000
0000
;

//---------------dance-single - ----------------
#NOTES:
     dance-single:
     :
     Medium:
     6:
     0.368,0.429,0.268,0.067,0.000:
0000
0000
0000
0000
,
0000
0000
0000
0000
,
0000
0000
0000
0000
,
0000
0000
0000
0000
,
1000
0001
0010
0001
,
0100
0010
0202
0000
,
0303
1000
0100
1000
,
0010
0100
2020
3030
,
0010
1000
0001
0000
0001
0000
0000
1000
,
0000
0001
0000
1000
0000
0001
0000
0000
,
0010
0001
1000
0000
1000
0000
0000
0001
,
0000
1000
0000
0001
0000
1000
0000
0000
,
1001
0100
1001
0100
,
1001
0010
1001
0010
,
0100
0001
0100
0000
0010
0000
0000
0100
,
0000
0010
0000
0100
0000
0010
0000
0000
,
1000
0100
1000
0010
,
0100
0000
0001
1000
0100
1000
0010
0000
,
0100
0001
1000
0100
,
1000
0010
1000
0000
0100
0000
0010
0000
,
0001
1000
0001
0000
0100
0000
0010
0000
,
0100
0010
0100
0000
0001
0000
1000
0000
,
0100
0010
0100
0010
,
0001
1000
0001
0000
0100
0000
0100
0000
,
0010
0100
0001
1000
,
0100
1000
0100
0010
0001
0000
0001
0000
,
1000
0010
1000
0000
0001
0100
0001
0000
,
1000
1000
0001
0001
,
0010
0001
0100
0000
0001
0000
1000
0000
,
0010
0010
0010
0010
,
0100
0001
0010
0000
0001
0000
1000
0000
,
0100
0100
0100
0100
,
1001
0100
1001
0100
,
1001
0010
1001
0010
,
0100
0001
0010
0000
0100
0000
0000
1000
,
0000
0010
0000
1000
0000
0010
0000
0000
,
0010
0100
0000
0100
0010
0100
0001
0000
,
0100
0000
0010
0000
1000
0001
0100
0000
,
0010
1000
0001
0010
,
0100
0000
0010
0000
0010
0100
1000
0000
,
0001
0001
0001
0000
0100
0000
0010
0000
,
0100
0001
1000
0000
0100
0000
0100
0000
,
0010
0001
0100
0100
,
0010
1000
0100
0000
0010
0001
0100
0000
,
0001
1000
0100
1100
,
0010
0001
1000
0101
,
0010
1000
0001
0010
,
0010
0001
0100
0000
0010
1000
0100
0000
,
1000
0100
0010
0001
1000
0000
0000
1000
,
0000
0001
0000
1000
0000
0001
0000
0000
,
1001
0100
1001
0100
,
1001
0010
1001
0010
,
0100
0001
0010
0100
1000
0000
0000
0010
,
0000
0100
0000
0010
0000
0100
0000
0000
,
0010
1000
0001
0000
0010
0000
0100
2000
,
0000
0002
0000
0000
0000
0000
0000
3003
,
1000
0001
0100
0000
1001
0000
1001
0000
,
0001
1000
0010
0000
1001
0000
1001
0000
,
1000
0010
0100
0000
1001
0000
1001
0000
,
0001
0100
0010
0000
1001
0000
1001
0000
,
1000
0001
0100
0000
1010
0000
0101
0000
,
0001
0100
0010
0000
1010
0000
1100
0000
,
1000
0001
0100
0000
1010
0000
0101
0000
,
0001
1000
0010
0000
0101
0000
0022
0000
,
0033
0000
0000
0000
;

//---------------dance-single - ----------------
#NOTES:
     dance-single:
     :
     Easy:
     4:
     0.254,0.375,0.126,0.042,0.000:
0000
0000
0000
0000
,
0000
0000
0000
0000
,
0000
0000
0000
0000
,
0000
0000
0000
0000
,
1000
0000
0010
0000
,
1000
0001
2000
0000
,
3100
0000
0010
0000
,
0001
1000
0002
0000
,
0103
0010
0100
0001
,
0010
0000
1001
0000
,
1000
0010
1000
0100
,
0010
0000
1001
0000
,
1000
0100
0001
0100
,
1000
0010
0001
0010
,
1000
0001
0100
0010
,
0100
0000
0110
0000
,
0100
0000
0001
0000
,
1000
0100
0010
0100
,
1000
0000
0001
0000
,
0100
0010
0100
0001
,
0010
0000
0100
0000
,
1000
0000
1001
0000
,
1000
0001
0100
0001
,
1000
0100
0010
0001
,
1000
0000
0010
0000
,
1000
0100
1000
0001
,
0100
0010
0100
0001
,
1000
0000
1001
0000
,
1000
0100
1000
0010
,
0100
0000
0110
0000
,
0010
0001
1000
0001
,
0100
0000
1001
0000
,
1000
0100
0001
0100
,
1000
0010
0001
0010
,
1000
0001
0010
0001
,
0100
0000
0110
0000
,
0100
0001
0100
0010
,
0100
0001
1000
0100
,
1000
0000
0010
0000
,
1000
0000
0001
0000
,
0010
0001
0100
0010
,
1000
0100
1000
0000
,
0001
1000
0001
0100
,
0010
0000
0110
0000
,
0100
0000
0001
0000
,
1000
0000
1001
0000
,
0010
0100
0010
1000
,
0001
0000
1001
0000
,
0001
0010
0001
0100
,
0010
0010
0010
0010
,
1000
0100
0001
0100
,
1000
0010
0001
0010
,
1000
0001
0010
0100
,
1000
1000
1000
1000
,
0010
0100
0010
1000
,
0002
0000
0000
0000
,
1003
0010
0100
0000
,
0001
1000
0010
0000
,
1000
0001
0100
0100
,
0001
1000
0010
0010
,
1000
0100
0001
0100
,
1000
0010
0001
0010
,
1000
0100
1001
1001
,
0001
0010
1001
2002
,
3003
0000
0000
0000
;

//---------------dance-double - ----------------
#NOTES:
     dance-double:
     :
     Easy:
     5:
     0.282,0.375,0.184,0.067,0.000:
00000000
00000000
00000000
00000000
,
00000000
00000000
00000000
00000000
,
00000000
00000000
00000000
00000000
,
00000000
00000000
00000000
00000000
,
10000000
00000000
10010000
00000000
,
00100000
00001000
00010000
00000000
,
00000100
00000000
00001001
00000000
,
00000010
00000001
00000100
00000000
,
00000010
00001000
00000100
00010000
,
00001000
00000000
00011000
00000000
,
00001000
01000000
00100000
10000000
,
00010000
00000000
10010000
00000000
,
10000000
01000000
00100000
00001000
,
00010000
00000010
00000100
00000001
,
00000010
00000100
00010000
00001000
,
01000000
00000000
01100000
00000000
,
00100000
10000000
01000000
10000000
,
00010000
01000000
00001000
00000000
,
00010000
00010000
00000100
00000100
,
00001000
00000010
00000100
00000001
,
00001000
00000100
00010000
00001000
,
01000000
00100000
10000000
10000000
,
00010000
00100000
00001000
00010000
,
00001000
01000000
00100000
10000000
,
00010000
00100000
00001000
00010000
,
00000010
00000100
00000010
00001000
,
00000100
00010000
00001000
01000000
,
00100000
00000000
10010000
00000000
,
01000000
00010000
00100000
00001000
,
00010000
00000000
00011000
00000000
,
00001000
00010000
00000010
00000100
,
00000001
00000000
00001001
00000000
,
00000001
00000100
00000010
00010000
,
00001000
00100000
01000000
10000000
,
00100000
01000000
00010000
00100000
,
00001000
00000000
00011000
00000000
,
00010000
00001000
01000000
00100000
,
10000000
00000000
10010000
00000000
,
00010000
00100000
00001000
00010000
,
00000010
00000100
00000001
00000010
,
00000100
00010000
00001000
01000000
,
00100000
00100000
10000000
00010000
,
10000000
01000000
10000000
00100000
,
01000000
00001000
00010000
00000100
,
00000010
00000000
00000110
00000000
,
00000010
00000001
00000100
00000010
,
00010000
00001000
01000000
00001000
,
00010000
00000100
00010000
00001000
,
00022000
00000000
00000000
00033000
,
00001000
01000000
00100000
10000000
,
00010000
01000000
00001000
00010000
,
00000100
00000010
00000001
00001000
,
00002002
00000000
00000000
00003003
,
00000001
00000100
00000010
00010000
,
00022000
00000000
00000000
00033000
,
00001000
00010000
00000010
00000100
,
00000001
00000001
00001000
00001000
,
00000100
00000100
00010000
00010000
,
00001000
00001000
01000000
01000000
,
00100000
00100000
10000000
10000000
,
10000000
00010000
10010000
10010000
,
01000000
00001000
00011000
00011000
,
00000100
00001000
00001001
00001001
,
00000100
00010000
00011000
00022000
,
00033000
00000000
00000000
00000000
;

//---------------dance-double - ----------------
#NOTES:
     dance-double:
     :
     Medium:
     7:
     0.412,0.375,0.461,0.159,0.000:
00000000
00000000
00000000
00000000
,
00000000
00000000
00000000
00000000
,
00000000
00000000
00000000
00000000
,
00000000
00000000
00000000
00000000
,
10000000
01000000
10000000
00010000
,
01000000
00001000
00010000
00000000
00011000
00000000
00000000
00000000
,
00010000
00000100
00000010
00000001
,
00000100
00000010
00010000
00000000
00011000
00000000
00000000
00000000
,
00001000
01000000
00001000
00000000
00100000
00000000
01000000
00000000
,
11000000
00110000
01010000
01001000
,
00010000
00000100
00010000
00000000
00000010
00000000
00000100
00000000
,
00000011
00001100
00010100
00011000
,
00001000
01000000
00001000
01000000
,
00001000
00100000
00001000
00100000
,
00001000
00010000
00001000
00000000
01000000
00000000
00100000
00000000
,
10100000
11000000
00101000
00011000
,
00010000
00000010
00000100
00000001
,
00001000
00000000
00000100
00010000
00001000
00100000
00001000
00000000
,
01000000
00100000
01000000
00000000
00010000
10000000
00010000
00000000
,
01000000
00001000
00010000
00011000
,
00010000
00000010
00000100
00000001
,
00001000
00000100
00010000
00000000
00001000
00000000
00011000
00000000
,
01000000
00100000
10000000
00000000
01000000
00100000
00001000
00000000
,
00010000
00001000
00010000
00000000
00000010
00000000
00000101
00000000
,
00000100
00000010
00010000
00000000
00001000
01000000
00010000
00000000
,
10000000
01000000
10000000
00010000
00100000
00000000
00101000
00000000
,
00001000
00010000
00000010
00000000
00000100
00000010
00001000
00000000
,
00000100
00010100
00010000
00011000
,
00001000
01000000
00100000
00000000
10000000
00000000
01000000
00000000
,
11000000
00101000
00022000
00033000
,
00010000
00000010
00000100
00000000
00000001
00000000
00001000
00000000
,
00001100
00010100
00022000
00033000
,
00010000
00000100
00010000
00000100
,
00010000
00000010
00010000
00000010
,
00010000
00001000
01000000
00000000
00100000
00000000
10000000
00000000
,
11000000
11000000
11000000
00101000
,
00001000
00010000
00000000
00010000
00001000
00010000
00000010
00000000
,
00000100
00000000
00000001
00000000
00001000
00000100
00010000
00000000
,
00001000
01000000
00001000
00000000
00010000
00000100
00010000
00000000
,
00001000
01000000
00100000
00000000
10000000
00000000
10010000
00000000
,
10000000
10000000
10000000
00000000
01000000
00000000
01100000
00000000
,
00100000
00001000
00010000
00000000
00000010
00000000
00000110
00000000
,
00000100
00000101
00000001
00001001
,
00001000
00000100
00010000
00000000
00001000
01000000
00100000
00000000
,
10000000
00010000
00100000
00101000
,
00001000
00010000
00000010
00000110
,
00000100
00000101
00000001
00001001
,
00001000
00000100
00010000
00000000
00001000
10000000
00100000
01000000
,
00000000
02000000
00001000
00000000
00010000
00000000
03100000
20000000
,
00000000
30020000
00000000
00100000
00000000
01000000
00000000
20030000
,
00000000
30200000
00000000
00000000
10000000
00000000
01300000
00002000
,
00000000
00023000
00000000
00000000
00000100
00000000
00030010
00000100
,
00000000
00000200
00000001
00000000
00000010
00000000
00000301
00002000
,
00000000
00003200
00000000
00010000
00000000
00000010
00000300
00000002
,
00000000
00000203
00000000
00000000
00000001
00000000
00000310
00020000
,
00000000
00002000
00000000
00000000
00000000
00000000
00000000
00033000
,
00011000
00011000
01000000
00100000
,
00011000
00011000
00000100
00000010
,
00011000
00011000
01000000
00100000
,
00011000
00011000
00000100
00000010
,
00001001
00000100
00011000
01000000
,
10010000
00100000
00011000
00000010
,
00001001
00000100
00011000
01000000
,
10010000
00100000
00011000
00000020
,
00000030
00000000
00000000
00000000
;
