#TITLE:Blame;
#SUBTITLE:;
#ARTIST:good-cool feat. Jeff Coote;
#TITLETRANSLIT:;
#SUBTITLETRANSLIT:;
#ARTISTTRANSLIT:;
#GENRE:;
#CREDIT:;
#MENUCOLOR:;
#METERTYPE:DDR;
#BANNER:Blame-bn.png;
#BACKGROUND:Blame-bg.png;
#LYRICSPATH:Blame.lrc;
#CDTITLE:DDREncore2.png;
#MUSIC:Blame.mp3;
#OFFSET:-1.761;
#SAMPLESTART:39.000;
#SAMPLELENGTH:11.920;
#SELECTABLE:YES;
#LISTSORT:;
#BPMS:0.000=155.000;
#STOPS:;
#BGCHANGES:;
#ATTACKS:;

//---------------dance-single - ----------------
#NOTES:
     dance-single:
     :
     Beginner:
     2:
     0.147,0.185,0.094,0.047,0.000:
0000
0000
0000
0000
,
0000
0000
0000
0000
,
0000
0000
0000
0000
,
0000
0000
0000
0000
,
0010
0000
0000
0000
,
0001
0000
1000
0000
,
0001
0000
0000
0000
,
0200
0000
0300
0000
,
0001
0000
0010
0000
,
0100
0000
1000
0000
,
0100
0000
0010
0000
,
0001
0000
0000
0000
,
1000
0000
0100
0000
,
0010
0000
0001
0000
,
0010
0000
0100
0000
,
1000
0000
0000
0000
,
0001
0000
0100
0000
,
0010
0000
1000
0000
,
0010
0000
0100
0000
,
0001
0000
0000
0000
,
1000
0000
0010
0000
,
0100
0000
0001
0000
,
0100
0000
0010
0000
,
1001
0000
0000
0000
,
1000
0000
0010
0000
,
0100
0100
0000
0000
,
0010
0000
0100
0000
,
0001
0001
0000
0000
,
0100
0000
0001
0000
,
1000
1000
0000
0000
,
0001
0000
1000
0000
,
1001
0000
0000
0000
,
0001
0000
0010
0000
,
0100
0100
0000
0000
,
0010
0000
0100
0000
,
1000
1000
0000
0000
,
0100
0000
1000
0000
,
0001
0000
0100
0000
,
0010
0000
0000
0000
,
0010
0000
0000
0000
,
1001
0000
0000
0000
,
0000
0000
0000
0000
,
0110
0000
0000
0000
,
0000
0000
0000
0000
,
0110
0000
0000
0000
,
0000
0000
0000
0000
,
1001
0000
0000
0000
,
0000
0000
0000
0000
,
2000
0000
3000
0000
,
0100
0000
1000
0000
,
0001
0000
0100
0000
,
0010
0000
0100
0000
,
0000
0002
0000
0003
,
0100
0000
0001
0000
,
0010
0000
0100
0000
,
0010
0000
0000
0000
,
0100
0000
0000
0000
,
1000
0000
0001
0000
,
1000
0000
0000
0000
,
1001
0000
1001
0000
,
0010
0000
0000
0000
,
0001
0000
1000
0000
,
0001
0000
0000
0000
,
1001
0000
0100
0000
,
0010
0000
0100
0000
,
2002
0000
3003
0000
;

//---------------dance-single - ----------------
#NOTES:
     dance-single:
     :
     Easy:
     4:
     0.276,0.277,0.094,0.122,0.000:
0000
0000
0000
0000
,
0000
0000
0000
0000
,
0000
0000
0000
0000
,
0000
0000
0000
0000
,
0001
0100
0000
0100
,
0010
0000
0010
0000
,
1000
0100
0000
0100
,
2001
0000
0000
3000
,
0001
0100
0001
0000
,
0100
1000
0100
0000
,
0001
0100
1000
0100
,
0002
0000
0003
0000
,
1000
0100
1000
0000
,
0100
0001
0100
0000
,
1000
0100
0001
0100
,
2000
0000
3000
0000
,
1000
0100
0010
0010
,
0100
0010
0001
0001
,
0010
0001
0100
0100
,
0010
0000
1001
0000
,
0001
0010
0100
0100
,
0010
0100
1000
1000
,
0100
1000
0010
0010
,
0100
0000
0020
0000
,
1030
0100
1000
0100
,
0001
0100
0001
0100
,
1000
0010
1000
0010
,
0001
0010
0001
0010
,
0100
0001
0010
0100
,
0010
0001
0100
0010
,
1000
0000
1000
0001
,
0020
0000
0030
1001
,
0001
0100
0001
0100
,
1000
0100
1000
0100
,
0001
0010
0001
0010
,
1000
0010
1000
0010
,
0100
0100
0100
0100
,
0100
0000
1000
0001
,
0100
0000
0001
1000
,
0100
0000
0000
0000
,
1100
0000
1000
0000
,
0001
0000
0100
0000
,
0011
0000
0001
0000
,
1000
0010
1000
0010
,
0101
0000
0001
0000
,
1000
0000
0100
0000
,
1010
0000
1000
0000
,
0001
0100
0001
0100
,
1020
0000
0030
0000
,
1000
1000
0001
0001
,
0100
0010
1000
0010
,
0100
0001
0010
0000
,
0000
0020
0000
0030
,
0001
0001
1000
1000
,
0001
0100
0001
1000
,
0010
0000
0000
0000
,
1000
0100
0000
0100
,
0020
0000
0230
0000
,
1300
0010
0000
0010
,
0100
0100
0100
0100
,
0001
0010
0000
0010
,
0200
0000
0320
0000
,
0031
0100
0000
0100
,
1001
0000
0010
0000
,
0100
0000
0010
0000
,
2002
0000
3003
0000
;

//---------------dance-single - ----------------
#NOTES:
     dance-single:
     :
     Medium:
     6:
     0.383,0.431,0.132,0.179,0.009:
0000
0000
0000
0000
,
0000
0000
0000
0000
,
0000
0000
0000
0000
,
0000
0000
0000
0000
,
1000
0000
0001
0200
0000
0000
0301
0000
,
0100
0010
0100
0100
,
0001
0000
1000
0200
0000
0000
1300
0000
,
0100
0010
0001
1000
,
0001
0100
0000
0100
0000
0100
0001
0000
,
1000
0100
0000
0100
0000
0100
1000
0000
,
0001
0100
0010
1000
,
0200
0000
0300
0000
,
1000
0010
0000
0010
0000
0010
1000
0000
,
0001
0010
0000
0010
0000
0010
0001
0000
,
1000
0010
0100
0001
,
0020
0000
0030
0000
,
0001
0100
0001
0000
0100
0000
0010
0000
,
1000
0100
1000
0000
0010
0000
0100
0000
,
0001
1000
0001
0000
1000
0001
1000
0000
,
0200
0000
0300
0000
,
1000
0010
1000
0000
0010
0000
0100
0000
,
0001
0010
0001
0000
0100
0000
0010
0000
,
1000
0001
1000
0000
0001
1000
0000
1001
,
0000
1001
0000
0000
0200
0000
0000
0000
,
0301
0010
0100
1000
,
0001
0100
0001
0000
0100
0000
0010
0000
,
1000
0100
0010
0001
,
1000
0010
1000
0000
0010
0000
0100
0000
,
0001
0000
0100
0000
0010
1000
0100
0000
,
1000
0000
0010
0000
0100
0001
0010
0000
,
0001
0100
1000
0100
,
0002
0000
0003
1001
,
1000
0100
0010
0001
,
1000
0010
0100
0000
0100
0010
1000
0000
,
0001
0010
0100
1000
,
0001
0100
0010
0000
0010
0100
0001
0000
,
1000
1000
0001
0001
,
0200
0000
0310
0010
,
1000
0100
0001
0100
,
2000
0000
3000
1001
,
0001
0100
0100
0001
,
0001
0000
0000
0000
1000
0000
0000
0000
1000
0000
0000
0000
0100
0000
0000
0010
,
0100
1000
1000
0001
,
0200
0000
0320
0000
,
1030
0010
0010
1000
,
1000
0000
0000
0000
0001
0000
0000
0000
0001
0000
0000
0000
0010
0000
0000
0100
,
0010
0001
0001
1000
,
0010
1000
0001
0100
,
0120
0000
0000
0030
,
1000
0100
1000
0100
0010
0001
0010
0001
,
1000
0000
0010
0000
0100
0010
0100
0000
,
0010
1000
0000
1000
0001
0000
0000
0000
,
0001
1000
0200
0000
0000
0000
0300
0000
,
1000
0100
0010
0010
,
0001
0100
0001
1000
0100
1000
0001
0010
,
0000
0010
0100
0000
0000
1001
0000
0000
,
0001
0000
1000
0020
0000
0000
1030
0000
,
0001
0100
0001
0000
0010
0000
0100
0000
,
1000
0000
0001
0020
0000
0000
0031
0000
,
1001
0110
1001
1001
,
1000
0000
0001
0200
0000
0000
0301
0000
,
1000
0010
1000
0000
0100
0000
0010
0000
,
0001
0000
1000
0200
0000
0000
1300
0000
,
1001
0000
0000
0000
0000
0110
0000
0000
,
0000
1001
0000
0000
0100
0000
0010
0000
,
2002
0000
3003
0000
;

//---------------dance-single - ----------------
#NOTES:
     dance-single:
     :
     Hard:
     9:
     0.645,0.678,0.273,0.254,0.292: // measure 1
0000
0000
0000
0000
,  // measure 2
0000
0000
0000
0000
,  // measure 3
0000
0000
0000
0000
,  // measure 4
0000
0000
0000
0000
,  // measure 5
0010
0001
0100
1000
0000
0100
1000
0100
,  // measure 6
0001
0000
1000
0000
0000
0100
0000
0000
0010
0000
0000
0001
0000
0000
0100
0000
,  // measure 7
0010
1000
0100
0001
0000
0100
0001
0100
,  // measure 8
2000
0000
0000
0000
3010
0100
0010
0000
1000
0000
0001
0000
2000
0000
0000
0000
,  // measure 9
3001
0000
1100
0000
0001
0010
1000
0010
,  // measure 10
0001
0000
1010
0000
0001
0100
1000
0100
,  // measure 11
0001
1100
1000
0101
,  // measure 12
2002
0000
0000
0000
3003
0000
0000
0000
0001
1000
0001
1000
0001
0000
1000
0001
,  // measure 13
1000
0000
0101
0000
1000
0010
0001
0010
,  // measure 14
1000
0000
0011
0000
1000
0100
0001
0100
,  // measure 15
1000
0110
0001
0110
,  // measure 16
2002
0000
3003
0000
0001
0001
1000
1000
,  // measure 17
0001
0100
0010
0100
0010
1000
0100
0000
,  // measure 18
1000
0010
0100
0010
0100
0001
0010
0000
,  // measure 19
0001
0100
1000
0000
0001
0010
1000
0000
,  // measure 20
0110
0000
0000
0000
1001
0000
0000
0000
0001
1000
0001
1000
0001
0000
1000
0001
,  // measure 21
1000
0001
0100
1000
0100
0001
1000
0000
,  // measure 22
0001
1000
0100
0001
0100
1000
0001
0000
,  // measure 23
1000
0100
0001
0000
1000
0010
0001
1001
,  // measure 24
0000
2002
0000
3003
1000
1000
0001
0001
,  // measure 25
1000
0100
0001
0000
0001
0100
1000
0100
,  // measure 26
0010
0100
1000
0010
0100
0001
1000
0000
,  // measure 27
0001
0100
1000
0000
1000
0100
0001
0100
,  // measure 28
0010
0000
0100
0000
0001
0000
1000
0000
0001
1000
0001
1000
0001
0000
1000
0001
,  // measure 29
1000
0100
1100
0000
0001
0100
0101
0000
,  // measure 30
0010
0100
1001
0000
0100
0010
1001
0000
,  // measure 31
1000
0100
0010
0001
0100
0010
1000
0000
,  // measure 32
1000
0100
0010
0002
0000
0003
1001
0000
,  // measure 33
0001
0100
0001
0010
0001
1000
0100
0001
,  // measure 34
0100
1000
0001
0100
0010
0100
0001
0000
,  // measure 35
1000
0010
1000
0100
1000
0001
0010
1000
,  // measure 36
0010
0000
0001
0000
1000
0000
0100
0000
1000
0001
1000
0001
1000
0000
0001
1000
,  // measure 37
0002
0000
0203
0020
0300
2030
0000
3002
,  // measure 38
0000
0003
0000
0200
0000
0320
0000
0230
,  // measure 39
0000
0300
0000
0002
0000
2003
0000
3001
,  // measure 40
0001
0010
0100
2000
0000
3000
1001
0000
,  // measure 41
1000
0000
0010
0000
1000
0010
1000
0010
0000
0000
0100
0000
0001
0010
0001
0010
,  // measure 42
0000
0000
0001
0000
0100
0010
0000
0010
0000
0000
1000
0000
0001
0010
0000
0010
,  // measure 43
0001
0000
0100
0000
0001
0100
0001
0100
0000
0000
0010
0000
1000
0100
1000
0100
,  // measure 44
0000
0000
1000
0000
0010
0100
0000
0001
0000
0100
0010
0000
1000
0001
1000
0000
,  // measure 45
0001
0000
0010
0000
0001
0010
0001
0010
0000
0000
0100
0000
1000
0010
1000
0010
,  // measure 46
0000
0000
1000
0000
0100
0010
0000
0010
0000
0000
0001
0000
1000
0010
0000
0010
,  // measure 47
1000
0000
0100
0000
1000
0100
1000
0100
0000
0000
0010
0000
0001
0100
0001
0100
,  // measure 48
0000
0000
0001
0000
0010
0100
0000
1000
0000
0100
0010
0000
0001
1000
0001
1000
,  // measure 49
0002
0000
0100
0103
,  // measure 50
0001
0010
1000
0001
0100
0010
0100
1000
,  // measure 51
0010
0000
0001
0010
0001
0010
1000
0100
,  // measure 52
0000
0000
0010
0000
0000
0000
1000
0000
0020
0000
0000
0000
0031
1000
0001
1000
,  // measure 53
0001
0100
0020
0000
0000
0030
1000
0000
,  // measure 54
0001
0000
0000
0010
0000
0000
0100
0000
1000
0000
0000
0001
0000
0000
1000
0000
,  // measure 55
0010
0000
0010
0100
0000
0100
0000
2002
,  // measure 56
0000
0000
3003
0000
1000
0000
0001
0000
0000
0000
1001
0000
0000
0100
0010
0100
,  // measure 57
0010
1000
0100
0001
0000
0100
0001
0100
,  // measure 58
1000
0000
1000
0000
0001
0000
0001
0000
1000
0001
0000
1000
0000
0010
0100
0010
,  // measure 59
0100
0001
0010
1000
0000
0010
0100
0010
,  // measure 60
0011
1100
1001
0110
,  // measure 61
0010
0001
0100
1000
0000
0100
1000
0100
,  // measure 62
0001
0000
0001
0000
1000
0000
1000
0000
0001
1000
0000
0001
0000
0010
0100
0010
,  // measure 63
0100
1000
0010
0001
0000
0010
0001
0010
,  // measure 64
1000
0000
0001
0010
0100
0011
0000
0100
,  // measure 65
0010
1100
0000
0010
0100
0001
1000
0100
,  // measure 66
2002
0000
3003
0000
;

//---------------dance-double - ----------------
#NOTES:
     dance-double:
     :
     Easy:
     4:
     0.284,0.339,0.113,0.179,0.000:
00000000
00000000
00000000
00000000
,
00000000
00000000
00000000
00000000
,
00000000
00000000
00000000
00000000
,
00000000
00000000
00000000
00000000
,
01000000
00000000
00100000
00000000
,
10000000
01000000
00010000
00001000
,
00000100
00000000
00000010
00000000
,
00022000
00000000
00000000
00033000
,
00000100
00000100
00000010
00000001
,
00000100
00000100
00000010
00010000
,
00001000
00100000
01000000
10000000
,
02000000
00000000
13000000
00010000
,
01000000
01000000
00100000
10000000
,
01000000
01000000
00100000
00001000
,
00010000
00000010
00000100
00000001
,
00000200
00000000
00000301
00001000
,
00000001
00000101
00000100
00000010
,
00001000
00001100
00000100
00010000
,
00001000
01000000
00100000
10000000
,
00020000
00000000
00130000
01000000
,
10000000
11000000
01000000
00100000
,
00010000
01010000
01000000
00001000
,
00010000
00000010
00000100
00000001
,
00002000
00000000
00003001
00000001
,
00000100
00000010
00001000
00000000
,
00000010
00000020
00000000
00010030
,
00001000
01000000
00010000
00000000
,
00100000
00200000
00000000
01300000
,
10000000
00010000
01000000
00000000
,
00100000
01000000
00010000
00000000
,
10000000
01000000
00100000
00010000
,
02000000
00000000
03200000
00000000
,
01300000
00010000
00100000
00000000
,
01000000
02000000
00000000
03100000
,
00001000
00010000
00000010
00000000
,
00000100
00000200
00000000
00000301
,
00001000
00001000
00000001
00000001
,
00000200
00000000
00000310
00000000
,
00010000
00000000
00001000
00000000
,
00000020
00000000
00000000
00000030
,
00000101
00000000
00000010
00000000
,
00010000
00000000
00001000
00000000
,
01010000
00000000
00100000
00000000
,
10000000
00000000
00010000
10000000
,
11000000
00000000
00100000
00000000
,
00001000
00000000
00010000
00000000
,
00001100
00000000
00000010
00000000
,
00000001
00000000
00001000
00000001
,
00000201
00000000
00000000
00000300
,
00000001
00001000
00000010
00010000
,
00001000
00100000
01000000
00100000
,
00010000
01000000
00100000
00000000
,
10000000
00020000
00000000
00030000
,
10000000
10000000
00010000
00010000
,
00100000
00001000
00010000
00000010
,
00000200
00000000
00000300
00000000
,
00000100
00000000
00000010
00000000
,
00001000
00000100
00000001
00000100
,
00001000
00000000
00001000
00000000
,
00000001
00000100
00001000
00010000
,
00100000
00000000
01000000
00000000
,
00010000
00100000
10000000
00100000
,
00010000
00000000
00010000
00000000
,
10010000
00000000
01000000
00000000
,
00001000
00000000
00000100
00000000
,
00002002
00000000
00003003
00000000
;

//---------------dance-double - ----------------
#NOTES:
     dance-double:
     :
     Medium:
     6:
     0.374,0.431,0.132,0.141,0.019:
00000000
00000000
00000000
00000000
,
00000000
00000000
00000000
00000000
,
00000000
00000000
00000000
00000000
,
00000000
00000000
00000000
00000000
,
00001000
00010000
00001000
00010000
00000000
00000000
01000000
00000000
,
10000000
01000000
00100000
00001000
,
00010000
00001000
00010000
00001000
00000000
00000000
00000100
00000000
,
00000001
00000000
00000100
00000000
00000010
00010000
00001000
00000000
,
00010000
00000100
00011000
00000000
,
00001000
01000000
00011000
00000000
,
00100000
10000000
01000000
00100000
,
00002000
00000000
00023000
00000000
,
00031000
00100000
00011000
00000000
,
00010000
00000010
00011000
00000000
,
00000100
00000001
00000010
00000100
,
00020000
00000000
00032000
00000000
,
01003000
00010000
01000000
00001000
,
01000000
00100000
01000000
00001000
,
00010000
00000100
00000010
00000001
,
00002000
00000000
00003000
00000000
,
00000100
00001000
00000100
00010000
,
00000100
00000010
00000100
00010000
,
00001000
01000000
00100000
10000000
,
00020000
00000000
20030000
00000000
,
30100000
00000000
10000000
00100000
00000000
01000000
00000000
00010000
,
00000000
10000000
00000000
01000000
00000000
00100000
00000000
00001000
,
00000000
00000000
00010000
00001000
00000000
00000010
00000000
00000100
,
00000000
00001000
00000000
00000001
00000000
00000100
00000000
00000010
,
00000000
00000000
00000100
00000001
00000000
00001000
00000000
00000100
,
00000000
00000010
00000000
00000100
00000000
00010000
00000000
00001000
,
00000000
00000000
00000010
00000100
00000000
00001000
00000000
00000001
,
00000100
00000010
00000100
00000020
00000000
00000030
00001001
00000000
,
00000100
00000000
00000001
00000010
00000000
00000100
00000000
00001000
,
00000000
00000001
00000000
00000100
00000000
00000010
00000000
00010000
,
00000000
00000000
00001000
00010000
00000000
00100000
00000000
01000000
,
00000000
00010000
00000000
10000000
00000000
00000000
01000000
00000000
,
10010000
00000000
01000000
10000000
00000000
00010000
00000000
01000000
,
00000000
00000000
00001000
00010000
00000000
00100000
00000000
01000000
,
00000000
00000000
00001000
00010000
00000000
00000100
00000000
00000020
,
00000000
00000000
00000000
00000030
,
00000001
00000001
00001000
00001000
,
00010000
00000000
00000000
00000000
00010000
00000000
00000000
00000000
10000000
00000000
00010000
00000000
10000000
00000000
00000000
00010000
,
10000000
01000000
00010000
01000000
,
10000000
00000000
00010000
00000000
01000000
00010000
00100000
01000000
,
10000000
10000000
00010000
00010000
,
00001000
00000000
00000000
00000000
00001000
00000000
00000000
00000000
00000001
00000000
00001000
00000000
00000001
00000000
00000000
00001000
,
00000001
00000100
00001000
00000100
,
00000001
00000000
00001000
00000000
00000100
00001000
00000010
00000100
,
00000002
00000000
00000000
00000003
,
00001000
00000010
00001000
00000010
00000100
00000001
00000100
00000001
,
00000010
00000000
00000100
00000000
00010000
00001000
00010000
00001000
,
00000000
00100000
00000000
01000000
20000000
00000000
00000000
00000000
,
30010000
01000000
00020000
00000000
00000000
00000000
00030000
00000000
,
10000000
01000000
00100000
00001000
,
00010000
00001000
00010000
00001000
01000000
00010000
01000000
00010000
,
00000000
10000000
00010000
02000000
00000000
00000000
00000000
00000000
,
03001000
00000000
00001000
00010000
00000000
00000000
01000000
00000000
,
10000000
00000000
01000000
00000000
00100000
00000000
00010000
00000000
10000000
00000000
00000000
01000000
00000000
00000000
00100000
00000000
,
00001000
00000000
00001000
00010000
00000000
00001000
00000010
00000000
,
00000110
00001001
00000110
00000110
,
00010000
00000000
00010000
00001000
00000000
00000000
00000100
00000000
,
00000001
00000000
00000010
00000000
00000100
00000000
00001000
00000000
00000001
00000000
00000000
00000010
00000000
00000000
00000100
00000000
,
00010000
00000000
00010000
00001000
00000000
00010000
00100000
00000000
,
10010000
00000000
00000000
00000000
00000000
00011000
00000000
00000000
,
00000000
00001001
00000000
00000000
00000000
00000000
00000000
00000000
,
20020000
00000000
30030000
00000000
;

//---------------dance-double - ----------------
#NOTES:
     dance-double:
     :
     Hard:
     9:
     0.639,0.678,0.085,0.188,0.334:
00000000
00000000
00000000
00000000
,
00000000
00000000
00000000
00000000
,
00000000
00000000
00000000
00000000
,
00000000
00000000
00000000
00000000
,
00000010
00001000
00000100
00000001
00000000
00000100
00001000
00000010
,
00000100
00000000
00000001
00000000
00000000
00001000
00000000
00000000
00010000
00000000
00000000
10000000
00000000
00000000
01000000
00000000
,
00100000
00010000
01000000
10000000
00000000
01000000
00010000
00100000
,
01000000
00000000
10000000
00100000
00010000
00001000
00000010
00000000
,
00000002
00000000
00001000
00000000
00000000
00000000
00000103
00000000
00000000
00000000
00000010
00001000
00000010
00001000
00000010
00001000
,
00000020
00000000
00010000
00000000
00000000
00000000
00001030
00000000
00000000
00000000
00001000
00000100
00001000
00000100
00001000
00000100
,
00001000
00000001
00000000
00000010
00000000
00000100
00000000
00010000
,
00000000
02000000
00000000
00000000
13000000
00100000
01000000
00100000
,
20000000
00000000
00010000
00000000
00000000
00000000
31000000
00000000
00000000
00000000
00100000
00010000
00100000
00010000
00100000
00010000
,
00200000
00000000
00001000
00000000
00000000
00000000
00310000
00000000
00000000
00000000
00010000
01000000
00010000
01000000
00010000
01000000
,
00010000
10000000
00000000
01000000
00000000
00100000
00000000
00002000
,
00000000
00000000
00003010
00000000
00000001
00000001
00001000
00001000
,
00000001
00000100
00000001
00001000
00000010
00010000
00000100
00001000
,
00000100
00010000
00000010
00000100
00000001
00000010
00001000
00010000
,
01000000
10000000
00100000
00010000
00001000
00010000
00100000
10000000
,
01000000
00000000
00000000
00000000
10010000
00000000
00000000
00000000
00010000
10000000
00010000
10000000
00010000
00000000
10000000
00010000
,
10000000
01000000
10000000
00010000
00100000
00001000
01000000
00010000
,
01000000
00001000
00100000
01000000
10000000
00100000
00010000
00001000
,
00000100
00000001
00000010
00001000
00010000
00001000
00000010
00001001
,
00000000
00000000
00002002
00000000
00000000
00000000
00003003
00000000
00000100
00000010
00000100
00000010
00000100
00000010
00000100
00000010
,
00000100
00000001
00000010
00000100
00001000
00000100
00000010
00000001
,
00010000
00001000
00000000
00000000
00001000
00020000
00000000
00000000
00000000
00000000
00000000
00030000
00000000
00000000
00000000
00000000
,
00100000
10000000
01000000
00100000
00010000
00100000
01000000
10000000
,
00001000
00010000
00000000
00000000
00010000
00002000
00000000
00000000
00000000
00000000
00000000
00003000
00000000
00000000
00000000
00000000
,
00000010
00000100
00001000
00000010
00000100
00000010
00010000
00000000
,
00100000
01000000
00010000
00100000
01000000
00100000
00001000
00000000
,
00000100
00001000
00010000
00100000
10000000
01000000
00100000
00000000
,
00001000
00010000
01000000
20000000
00000000
30000000
01100000
00000000
,
01000000
00100000
10000000
01000000
00100000
00001000
00000010
00001000
,
00100000
01000000
00100000
00010000
01000000
00001000
00010000
00000000
,
00000010
00000100
00000001
00000010
00000100
00010000
01000000
00010000
,
00000100
00000010
00000100
00001000
00000010
00010000
00001000
00000000
,
00100000
01000000
00100000
00001000
00010000
00000010
00000100
00000010
,
00010000
00001000
00000000
00000000
00001000
00020000
00000000
00000000
00001000
00000000
00000000
00030000
00000100
00000000
00000000
00000000
,
00000100
00001000
00000100
00000010
00000001
00001000
00000010
00000000
,
00010000
00001000
00000100
00000002
00000000
00000003
00000110
00000000
,
00000001
00000000
00000010
00000000
00000100
00000010
00000100
00000010
00000000
00000000
00000001
00000000
00000100
00000010
00000100
00000010
,
00000000
00000000
00001000
00000000
00000100
00000010
00000100
00000010
00000000
00000000
00000100
00000000
00010000
00001000
00000000
00010000
,
00001000
00000000
00010000
00000000
01000000
00100000
01000000
00100000
00000000
00000000
00010000
00000000
01000000
00100000
01000000
00100000
,
00000000
10000000
00000000
01000000
00000000
00010000
00000000
01000000
,
10000000
00000000
00100000
00000000
01000000
00100000
01000000
00100000
00000000
00000000
10000000
00000000
01000000
00100000
01000000
00100000
,
00000000
00000000
00010000
00000000
01000000
00100000
01000000
00100000
00000000
00000000
01000000
00000000
00001000
00010000
00000000
00001000
,
00010000
00000000
00001000
00000000
00000100
00000010
00000100
00000010
00000000
00000000
00001000
00000000
00000100
00000010
00000100
00000010
,
00000000
00000000
00000001
00000000
00000100
00000000
00000000
00000000
00000001
00001000
00000001
00001000
00000001
00001000
00000001
00001000
,
00000002
00000000
00000100
00000103
,
00000001
00000100
00001000
00010000
00100000
10000000
00100000
01000000
,
00020000
00000000
10030000
01000000
00100000
00001000
00010000
02000000
,
00000000
03200000
00000000
00301000
00010000
00000000
00100000
00000000
,
10000000
00010000
20000000
00000000
00000000
00000000
30000000
00000000
,
00010000
00000000
00000000
01000000
00000000
00000000
00100000
00000000
00010000
00000000
00000000
00000000
00011000
00000000
00000000
00000000
,
00000010
00000001
00001000
00000100
00000010
00000100
00010000
00002000
,
00000000
00000000
00003010
00000000
00000100
00000000
00000010
00000000
00000000
00000000
00001001
00000000
00000000
00000100
00000010
00000100
,
00000010
00001000
00000100
00000001
00000000
00000100
00001000
00000100
,
00000010
00000000
00000010
00000000
00000010
00000000
00000010
00000000
00000100
00001000
00000000
00000010
00000000
00010000
00001000
00000000
,
01000000
00010000
00100000
10000000
00000000
00100000
00010000
00100000
,
01000000
00000000
00000000
10000000
01000000
00000000
00000000
10000000
00100000
00000000
00000000
10000000
00010000
00000000
00000000
00000000
,
00100000
00010000
01000000
10000000
00000000
01000000
00010000
01000000
,
00100000
00000000
00100000
00000000
00100000
00000000
00100000
00000000
01000000
00010000
00000000
00100000
00000000
00001000
00010000
00000000
,
00000100
00001000
00000010
00000001
00000000
00000010
00001000
00000010
,
00000100
00000000
00000001
00000010
00000100
00000011
00000000
00000100
,
00000010
00000000
00001100
00000000
00000000
00000000
00000010
00000000
00010000
00001000
00010000
00001000
00010000
00001000
00010000
00001000
,
00020000
00000000
00030000
00000000
;
