#TITLE:Becoming Insane;
#SUBTITLE:;
#ARTIST:Infected Mushroom;
#TITLETRANSLIT:;
#SUBTITLETRANSLIT:;
#ARTISTTRANSLIT:;
#GENRE:;
#CREDIT:;
#MENUCOLOR:;
#BANNER:Becoming Insane-bn.png;
#BACKGROUND:Becoming Insane-bg.png;
#LYRICSPATH:;
#CDTITLE:ddrencorecdtitle.png;
#MUSIC:Becoming Insane.mp3;
#OFFSET:-0.015;
#SAMPLESTART:39.724;
#SAMPLELENGTH:11.940;
#SELECTABLE:YES;
#LISTSORT:;
#BPMS:0.000=108.750,24.000=145.000,216.000=108.750,240.000=145.000;
#STOPS:;
#TICKCOUNT:0.000=2;
#BGCHANGES:;
#KEYSOUNDS:;
#ATTACKS:;

//---------------dance-single - ----------------
#NOTES:
     dance-single:
     :
     Hard:
     8:
     0.532,0.502,0.433,0.148,0.415:
0000
0000
0000
0000
,
0000
0000
0000
0000
,
0000
0000
0000
0000
,
1000
0000
0000
0000
0000
0000
0001
0000
0000
0100
0000
0000
0001
0000
0000
0000
0000
0000
1000
0000
0000
0000
0000
0000
0000
0000
0000
0000
0000
0000
0100
0000
0000
0000
0000
0000
0000
0000
0000
0000
0000
0000
0010
0000
0000
0000
0000
0000
0000
0000
0000
0000
0000
0000
0001
0000
0000
0000
0000
0000
0000
0000
0000
0000
,
0000
0000
1000
0000
0000
0000
0000
0000
0010
0000
0000
0000
0000
0000
0000
0000
0000
0000
0000
0000
0000
0000
0000
0000
0000
0000
0000
0000
0000
0000
0000
0000
0100
0000
0000
0000
0000
0000
0001
0000
0000
1000
0000
0000
0001
0000
0000
0000
0000
0000
0100
0000
0000
0000
0000
0000
0000
0000
0000
0000
0000
0000
0010
0000
,
0000
0000
0000
0000
0000
1000
0000
0000
0000
0000
0000
0001
0000
0000
0000
0000
0000
0010
0000
0000
0001
0000
0000
1000
0000
0000
0100
0000
0000
0000
0000
0000
,
1001
0000
0000
0000
0010
0000
0000
0000
0100
0001
0000
0001
1000
0000
0000
0000
,
0110
0000
0000
0000
0001
0000
0000
0000
1000
0100
0000
0100
0010
0000
0000
0000
,
1001
0000
0000
0000
0100
0000
0000
0000
0010
1000
0000
1000
0001
0000
0010
0000
,
0100
0000
0001
0100
0000
1000
0001
0000
,
1010
0000
0000
0000
0100
0000
0000
0000
0001
0010
0000
0010
0100
0000
0000
0000
,
0011
0000
0000
0000
1000
0000
0000
0000
0010
0100
0000
0100
0001
0000
0000
0000
,
1001
0000
0000
0000
0100
0000
0000
0000
0010
1000
0000
1000
0001
0000
0000
0000
,
0201
0000
0000
0000
0300
0000
0010
1000
0010
0000
0100
0000
1001
0000
0000
0000
,
0010
0001
0000
0010
0001
0000
0100
0000
0010
0000
1000
0000
0100
0000
0000
0000
,
1000
0000
0000
0000
0010
0000
0100
0001
0100
0000
0001
0000
0010
0000
0000
0000
,
0200
0000
0000
0000
0310
0000
0001
0100
0001
0000
1000
0000
0100
0000
0000
0000
,
1000
0000
0010
0000
0100
0000
0001
0010
0000
0000
0100
0000
1100
0000
0000
0000
,
1000
0100
0000
0010
0001
0000
0200
0000
0000
0000
0010
0000
0310
0000
0000
0000
,
1000
0000
0000
0001
0100
0000
0010
1000
0010
0000
0100
0000
0001
0000
0000
0000
,
0010
0000
0000
0000
1001
0000
0001
0010
0100
0000
0010
0000
0010
0000
0000
0000
,
2002
0000
0000
3003
,
0001
0000
0010
0001
0000
0100
0010
0000
,
0001
0000
0000
0010
0000
0000
1000
0000
0101
0000
0000
0000
0010
0000
0001
0000
,
1000
0000
0000
0010
0000
0000
1000
0000
0100
0000
0001
0000
0100
0000
0010
0000
,
1000
0000
0000
0010
0000
0000
0001
0000
1100
0000
0000
0000
0020
0000
0000
0000
,
0130
0000
0001
0010
0000
1100
0000
0010
,
0001
0000
0000
0100
0000
0000
0010
0000
1000
0000
0000
0000
0100
0000
0010
0000
,
0001
0000
0000
0100
0000
0000
0010
0000
1000
0000
0000
0000
0010
0000
1000
0000
,
0100
0000
0000
0010
0000
0000
0001
0000
0010
0000
0000
0000
0100
0000
1000
0000
,
1001
0000
0000
0000
0010
0000
0100
0000
0001
0010
0000
0010
0100
0000
1000
0000
,
0010
0000
0100
0001
0000
0010
1000
0000
,
0010
0001
0100
0010
1000
0100
0010
0000
,
0001
0000
0000
0100
0000
0000
0010
0000
1000
0000
0000
0000
0110
0000
0000
0000
,
0001
0000
0000
0000
1000
0000
0100
0000
1000
0010
0000
0010
0100
0000
0001
0000
,
0010
0000
0001
0100
0000
0010
0001
0000
,
0010
0000
0000
1000
0000
0000
0100
0000
1000
0000
0010
0000
0100
0000
0001
0000
,
0010
0000
0000
0100
0000
0000
0001
0000
0100
0000
0000
0000
1000
0000
0000
0000
,
0011
0000
2100
0000
0000
3010
0000
1010
,
0000
0011
0000
0001
0100
0000
0100
0000
,
1010
0000
0102
0000
0000
0013
0000
1100
,
0000
0101
0000
0100
0010
1000
0100
0000
,
1100
0000
0021
0000
0000
0130
0000
0011
,
0000
1010
0000
1000
0001
0100
0010
0000
,
1010
0000
0201
0000
0000
0310
0000
1100
,
0000
0101
0000
0000
0001
0010
0100
1000
,
1010
0000
0201
0000
0001
0301
0000
1010
,
0000
1100
0000
0000
1000
0100
0010
0001
,
0101
0000
1020
0000
1000
1030
0000
0011
,
0000
0101
0000
0000
0001
0010
1000
0010
,
0011
0000
2100
0000
0010
3010
0100
0001
,
0000
0110
0000
0001
1000
0010
0001
0010
,
1010
0000
0102
0000
0010
0013
0100
1000
,
0000
0110
0000
1000
0000
0010
0001
0100
,
0010
0000
0000
0000
0000
0000
1000
0000
0000
0001
0000
0000
1000
0000
0000
0000
0000
0000
0100
0000
0000
0000
0000
0000
0000
0000
0000
0000
0000
0000
0010
0000
0000
0000
0000
0000
0000
0000
0000
0000
0000
0000
0001
0000
0000
0000
0000
0000
0000
0000
0000
0000
0000
0000
0100
0000
0000
0000
0000
0000
0000
0000
0000
0000
,
0000
0000
0010
0000
0000
0000
0000
0000
1000
0000
0000
0000
0000
0000
0000
0000
0000
0000
0000
0000
0100
0000
0000
0000
0000
0000
0000
0000
0000
0000
0000
0000
0010
0000
0000
0000
0000
0000
0100
0000
0000
1000
0000
0000
0100
0000
0000
0000
0000
0000
0010
0000
0000
0000
0000
0000
0000
0000
0000
0000
0000
0000
0001
0000
,
0000
0000
0000
0000
0000
0100
0000
0000
0000
0000
0000
0010
0000
0000
0000
0000
0000
1000
0000
0000
0001
0000
0000
0000
0000
0000
0000
0000
0000
0000
0000
0000
,
0010
0000
0000
0000
0000
0000
0001
0000
0000
0100
0000
0000
0001
0000
0000
0000
0000
0000
1000
0000
0000
0000
0000
0000
0000
0000
0000
0000
0000
0000
0010
0000
0000
0000
0000
0000
0000
0000
0000
0000
0000
0000
0100
0000
0000
0000
0000
0000
0000
0000
0000
0000
0000
0000
0001
0000
0000
0000
0000
0000
0000
0000
0000
0000
,
0000
0000
0010
0000
0000
0000
0000
0000
0100
0000
0000
0000
0000
0000
0000
0000
0000
0000
0000
0000
0010
0000
0000
0000
0000
0000
0000
0000
0000
0000
0000
0000
0001
0000
0000
0000
0000
0000
0100
0000
0000
0010
0000
0000
0100
0000
0000
0000
0000
0000
0001
0000
0000
0000
0000
0000
0000
0000
0000
0000
0000
0000
1000
0000
,
0000
0000
0000
0000
0000
0100
0000
0000
0000
0000
0000
0010
0000
0000
0000
0000
0000
0100
0000
0000
1000
0000
0000
0001
0000
0000
0010
0000
0000
0000
0000
0000
,
2002
0000
3003
0000
;

//---------------dance-double - ----------------
#NOTES:
     dance-double:
     :
     Hard:
     7:
     0.425,0.418,0.194,0.194,0.258:
00000000
00000000
00000000
00000000
,
00000000
00000000
00000000
00000000
,
00000000
00000000
00000000
00000000
,
10000000
00000000
00000000
00000000
00000000
00000000
00010000
00000000
00000000
01000000
00000000
00000000
00000000
00000000
00000000
00001000
00000000
00000000
00000000
00000000
00000000
00000010
00000000
00000000
00000000
00000000
00000000
00000001
00000000
00000000
00000000
00000000
,
00000000
00001000
00000000
00000000
00000010
00000000
00000000
00000000
00000000
00000000
00000000
00000000
00000000
00000000
00000000
00000000
00000001
00000000
00000000
00000000
00000000
00000000
00001000
00000000
00000000
00000100
00000000
00000000
00000000
00000000
00000000
00010000
,
00000000
00000000
00000000
00000000
00000000
00100000
00000000
00000000
00000000
00000000
00000000
10000000
00000000
00000000
00000000
00000000
00000000
01000000
00000000
00000000
00100000
00000000
00000000
00001000
00000000
00000000
00010000
00000000
00000000
00000000
00000000
00000000
,
00011000
01000000
10000000
00010000
,
01001000
00010000
00000010
00000100
,
00001001
00000010
00000100
00010000
,
00001100
00000000
00000010
00000001
00000000
00000001
00000100
00000000
,
00001001
00000010
00010000
00001000
,
01010000
00100000
10000000
01000000
,
00110000
00001000
00010000
00000010
,
00001001
00000000
00000000
00000000
00000000
00000000
00000010
00000100
00000010
00000000
00001000
00000000
00001000
00000000
00000000
00000000
,
00000001
00000000
00000000
00000010
00000000
00000000
00000001
00000000
00000100
00000000
00000010
00000000
00001000
00000000
00000000
00000000
,
00000100
00000000
00000000
00000000
00010000
00000000
00001000
00010000
00001000
00000000
01000000
00000000
01000000
00000000
00000000
00000000
,
00200000
00000000
10300000
00000000
00010000
01000000
00100000
00000000
,
10000000
00000000
00000000
00000000
01000000
00000000
00000000
00100000
00001000
00000000
00010000
00000000
00010000
00000000
00000000
00000000
,
00000010
00000000
00001000
00000001
00000000
00000001
00000010
00000000
,
00000100
00000000
00001000
00000000
00000010
00000100
00000001
00000000
,
00001000
00000000
00000000
00000000
00000100
00000000
00010000
00001000
00010000
00000000
00001000
00000000
01000000
00000000
00000000
00000000
,
00200000
00000000
00000000
00300000
,
10000000
00000000
10000000
01000000
00000000
01000000
00100000
00000000
,
00010000
00000000
00000000
01000000
00000000
00000000
00001000
00000000
00010000
00000000
00000000
00000000
00000000
00000000
00010000
00000000
,
00000100
00000000
00000000
00001000
00000000
00000000
00000100
00000000
00000010
00000000
00000001
00000000
00000010
00000000
00000000
00000000
,
00000001
00000000
00000000
00000100
00000000
00000000
00000010
00000000
00001000
00000000
00000000
00000000
00000200
00000000
00000000
00000000
,
00001300
00000000
00000001
00000100
00000000
00001000
00000000
00010000
,
00000000
00100000
00000000
10000000
01000000
00000000
00000000
01000000
,
10000000
00000000
00000000
00100000
00000000
00000000
10000000
00000000
01000000
00000000
00000000
00000000
00100000
00000000
00000000
00000000
,
00001000
00000000
00000000
00010000
00000000
00000000
00000010
00000000
00000100
00000000
00000000
00000000
00000000
00000000
00000001
00000000
,
00000010
00000000
00000010
00000100
00000000
00000100
00001000
00000010
,
00010000
00000000
00010000
00001000
00000000
00001000
01000000
00000000
,
00100000
00000000
00000000
10000000
00000000
00000000
00010000
00000000
01000000
00000000
00100000
00000000
10000000
00000000
00000000
00000000
,
01000000
00000000
00000000
00100000
00000000
00000000
00001000
00000000
00010000
00000000
00000000
00000000
00000000
00000000
00000100
00000000
,
00001000
00000000
00001000
00000010
00000000
00000010
00000100
00000001
,
00001000
00000000
00001000
00000010
00000000
00000010
00010000
00000000
,
00001000
00000000
00000000
01000000
00000000
00000000
00010000
00000000
00100000
00000000
00000000
00000000
01000000
00000000
00000000
00000000
,
10000000
00000000
00000000
00100000
00000000
00000000
01000000
00000000
00010000
00000000
00000000
00000000
00000000
00000000
00000000
00000000
,
20000000
00000000
02000000
30000000
00000000
03100000
00000000
00001000
,
00000000
00011000
00000000
00000000
00010000
00000000
00000010
00000000
,
00000200
00000000
00000002
00000300
00000000
00000013
00000000
00000100
,
00000000
00010100
00000000
00000000
00010000
00000000
00001000
00000000
,
02000000
00000000
00020000
03000000
00000000
10030000
00000000
01010000
,
00000000
01001000
00000000
00000000
00010000
00000000
00000010
00000000
,
00002000
00000000
00000200
00000000
00003000
00000310
00000000
00000011
,
00000000
00001001
00000000
00000000
00000001
00000100
00000001
00000100
,
00000020
00000000
00002000
00000030
00000000
00003100
00000000
00010100
,
00000000
00011000
00000000
00000000
00001000
01000000
00001000
01000000
,
00200000
00000000
20000000
00300000
00000000
31000000
00000000
00110000
,
00000000
00101000
00000000
00000000
00010000
00000100
00010000
00000100
,
00002000
00000000
00000020
00003000
00000000
00000130
00000001
00001000
,
00000000
00001001
00000000
00000000
00001000
00000010
00001000
00000010
,
00020000
00000000
00002000
00030000
00000000
01003000
00010000
10000000
,
00000000
10010000
00000000
00100000
00000000
01000000
00010000
00000000
,
00100000
00000000
00000000
00000000
00000000
00000000
00010000
00000000
00000000
01000000
00000000
00000000
00000000
00000000
00000000
00100000
00000000
00000000
00000000
00000000
00000000
10000000
00000000
00000000
00000000
00000000
00000000
01000000
00000000
00000000
00000000
00000000
,
00000000
00100000
00000000
00000000
00001000
00000000
00000000
00000000
00000000
00000000
00010000
00000000
00000000
00000000
00000000
00000000
00001000
00000000
00000000
00000000
00000000
00000000
01000000
00000000
00000000
00010000
00000000
00000000
00000000
00000000
00000000
00100000
,
00000000
00000000
00000000
00000000
00000000
01000000
00000000
00000000
00000000
00000000
00000000
10000000
00000000
00000000
00000000
00000000
00000000
00100000
00000000
00000000
01000000
00000000
00000000
00000000
00000000
00000000
00000000
00000000
00000000
00000000
00000000
00000000
,
00001000
00000000
00000000
00000000
00000000
00000000
00010000
00000000
00000000
00000010
00000000
00000000
00000000
00000000
00000000
00000100
00000000
00000000
00000000
00000000
00000000
00000001
00000000
00000000
00000000
00000000
00000000
00001000
00000000
00000000
00000000
00000000
,
00000000
00000100
00000000
00000000
00010000
00000000
00000000
00000000
00000000
00000000
00001000
00000000
00000000
00000000
00000000
00000000
00010000
00000000
00000000
00000000
00000000
00000000
00000010
00000000
00000000
00001000
00000000
00000000
00000000
00000000
00000000
00000001
,
00000000
00000000
00000000
00000000
00000000
00000010
00000000
00000000
00000000
00000000
00000000
00000100
00000000
00000000
00000000
00000000
00000000
00010000
00000000
00000000
00001000
00000000
00000000
00010000
00000000
00000000
00000100
00000000
00000000
00000000
00000000
00000000
,
00022000
00000000
00033000
00000000
;

//---------------dance-single - ----------------
#NOTES:
     dance-single:
     :
     Beginner:
     1:
     0.112,0.138,0.018,0.018,0.000:
0000
0000
0000
0000
,
0000
0000
0000
0000
,
0000
0000
0000
0000
,
1000
0000
0000
0000
,
0000
0000
0001
0000
,
0000
0000
0000
0000
,
1000
0000
1000
0000
,
0001
0000
0001
0000
,
0100
0000
0100
0000
,
0010
0000
1000
0000
,
0001
0000
0001
0000
,
1000
0000
1000
0000
,
0010
0000
0010
0000
,
0200
0000
0300
0000
,
0001
0000
1000
0000
,
0100
0000
0000
0000
,
1000
0000
0001
0000
,
0010
0000
0000
0000
,
0001
0000
1001
0000
,
0100
0000
0000
0000
,
0010
0000
1000
0000
,
0002
0000
0003
0000
,
1000
0000
1000
0000
,
1000
0000
0001
0000
,
0010
0000
0010
0000
,
0010
0000
0001
0000
,
0100
0000
0100
0000
,
0100
0000
0001
0000
,
1000
0000
0100
0000
,
0010
0000
0001
0000
,
1000
0000
0000
0000
,
0001
0000
0000
0000
,
0100
0000
0010
0000
,
0100
0000
0010
0000
,
1000
0000
0000
0000
,
0001
0000
0000
0000
,
0010
0000
0100
0000
,
0010
0000
0100
0000
,
1000
0000
0000
0000
,
0000
0000
0000
0000
,
0010
0000
0000
0000
,
0000
0000
0000
0000
,
0100
0000
0000
0000
,
0000
0000
0000
0000
,
0001
0000
0000
0000
,
0000
0000
0000
0000
,
1000
1000
0000
0000
,
0001
0000
0010
0000
,
0001
0001
0000
0000
,
0100
0000
0010
0000
,
1000
1000
0000
0000
,
0100
0000
0010
0000
,
0001
0001
0000
0000
,
0100
0000
0000
0000
,
0001
0000
0000
0000
,
0000
0000
1000
0000
,
0000
0000
0000
0000
,
0010
0000
0000
0000
,
0000
0000
0100
0000
,
0000
0000
0000
0000
,
1001
0000
0000
0000
;

//---------------dance-single - ----------------
#NOTES:
     dance-single:
     :
     Easy:
     3:
     0.188,0.221,0.046,0.092,0.000:
0000
0000
0000
0000
,
0000
0000
0000
0000
,
0000
0000
0000
0000
,
2000
0000
0000
0000
,
0000
3000
0002
0000
,
0000
0000
0000
0003
,
1000
0000
0000
0100
,
0010
0000
0000
0100
,
0001
0000
0000
0100
,
1000
0000
0100
0010
,
0001
0000
0000
0010
,
0100
0000
0000
0010
,
1000
0000
0000
0010
,
0002
0000
2003
0000
,
3010
0000
0010
1000
,
0100
0000
0010
0000
,
0100
0000
0010
0001
,
0100
0000
1001
0000
,
0010
0000
1000
0101
,
0001
0000
0010
0001
,
1000
0000
0100
0010
,
2002
0000
0000
3003
,
0001
0100
0001
0000
,
0010
0100
1000
0000
,
0010
1000
0010
0000
,
0100
0001
0010
0000
,
0001
0100
0001
0100
,
0010
1000
0100
0000
,
1000
0010
1000
0010
,
0100
0001
0010
0000
,
0001
0000
1000
0000
,
0001
0000
1000
0000
,
0100
0010
0001
0010
,
0100
1000
0010
0000
,
1000
0000
0001
0000
,
1000
0000
0001
0000
,
0100
0010
1000
0010
,
0100
0001
0010
0000
,
0001
0001
0000
0000
,
0100
0000
0010
0000
,
1000
1000
0000
0000
,
0001
0000
1000
0000
,
0001
0001
0000
0000
,
0010
0000
0100
0000
,
1000
1000
0000
0000
,
0001
0000
1001
0000
,
0100
0010
1000
0000
,
0100
0000
0010
0000
,
0100
0010
0001
0000
,
0100
0000
0010
0000
,
1000
0001
0100
0000
,
0010
0000
1000
0000
,
0001
1000
0100
0000
,
0010
0000
0001
0000
,
2000
0000
0000
0000
,
0000
3000
0200
0000
,
0000
0000
0000
0300
,
0020
0000
0000
0000
,
0000
0030
0002
0000
,
0000
0000
0000
0003
,
1001
0000
0000
0000
;

//---------------dance-double - ----------------
#NOTES:
     dance-double:
     :
     Easy:
     4:
     0.236,0.304,0.148,0.092,0.000:
00000000
00000000
00000000
00000000
,
00000000
00000000
00000000
00000000
,
00000000
00000000
00000000
00000000
,
00020000
00000000
00000000
00000000
,
00000000
00030000
02000000
00000000
,
00000000
00000000
00000000
03000000
,
00011000
00000000
00000000
00001000
,
01000000
00000000
00000000
00001000
,
00010000
00000000
00000000
00001000
,
00000010
00000000
00001000
00010000
,
00000010
00000000
00000000
00010000
,
00001000
00000000
00000000
00010000
,
00100000
00000000
00000000
00010000
,
00002000
00000000
00023000
00000000
,
00030100
00001000
00000010
00001000
,
00000000
00000100
00000010
00000001
,
00000000
00001000
00000100
00010000
,
00000000
00001000
01000000
00100000
,
00000000
10000000
00100000
01010000
,
00000000
00010000
10000000
01000000
,
00000000
00100000
00001000
00010000
,
00022000
00000000
00000000
00033000
,
00010000
00000100
00000010
00000001
,
00000100
00000010
00001000
00000000
,
00000001
00000100
00000010
00010000
,
00001000
01000000
00100000
00000000
,
10000000
01000000
00010000
01000000
,
10000000
00100000
01000000
00000000
,
10000000
00100000
00010000
00001000
,
00000100
00000001
00000010
00000000
,
00000011
00000000
00001100
00000000
,
00000100
00000000
00000010
00000000
,
00000001
00000100
00001000
00010000
,
00100000
10000000
01000000
00000000
,
00110000
00000000
11000000
00000000
,
00100000
00000000
01000000
00000000
,
10000000
01000000
00010000
00001000
,
00000010
00000001
00000100
00000000
,
00000001
00000000
00000001
00000000
00000000
00000100
00000000
00000010
,
00000000
00000100
00000000
00000000
00000010
00000000
00010000
00000000
,
00001000
00000000
00001000
00000000
00000000
00100000
00000000
00010000
,
00000000
01000000
00000000
00000000
00100000
00000000
10000000
00000000
,
00010000
00000000
00010000
00000000
00000000
00100000
00000000
01000000
,
00000000
00100000
00000000
00000000
00010000
00000000
01000000
00000000
,
00001000
00000000
00001000
00000000
00000000
00010000
00000000
00000010
,
00000000
00001000
00000000
00000000
00000001
00000000
00000010
00000000
,
00000110
00000000
00000110
00000000
00000000
00000001
00000000
00001000
,
00000000
00000100
00000000
00000000
00010000
00000000
00001000
00000000
,
00011000
00000000
00011000
00000000
00000000
01000000
00000000
00010000
,
00000000
00100000
00000000
00000000
01000000
00000000
10000000
00000000
,
01010000
00000000
10010000
00000000
00000000
00010000
00000000
01000000
,
00000000
00001000
00000000
00000000
00010000
00000000
00000010
00000000
,
00001010
00000000
00001001
00000000
00000000
00000001
00000000
00000010
,
00000000
00000100
00000000
00000000
00001000
00000000
00000001
00000000
,
00000200
00000000
00000000
00000000
,
00000000
00000300
00000020
00000000
,
00000000
00000000
00000000
00000030
,
00020000
00000000
00000000
00000000
,
00000000
00030000
00002000
00000000
,
00000000
00000000
00000000
00003000
,
00011000
00000000
00000000
00000000
;

//---------------dance-double - ----------------
#NOTES:
     dance-double:
     :
     Medium:
     6:
     0.354,0.335,0.111,0.129,0.148:
00000000
00000000
00000000
00000000
,
00000000
00000000
00000000
00000000
,
00000000
00000000
00000000
00000000
,
00000001
00000000
00000000
00000000
00000000
00000000
00000000
00000000
00000000
00001000
00000000
00000000
00000000
00000000
00000000
00000010
00000000
00000000
00000000
00000000
00000000
00001000
00000000
00000000
00000000
00000000
00000000
00000100
00000000
00000000
00000000
00000000
,
00000000
00000010
00000000
00000000
00000100
00000000
00000000
00000000
00000000
00000000
00000000
00000000
00000000
00000000
00000000
00000000
00001000
00000000
00000000
00000000
00000000
00000000
00000000
00000000
00000000
00000001
00000000
00000000
00000000
00000000
00000000
00000100
,
00000000
00000000
00000000
00000000
00000000
00000001
00000000
00000000
00000000
00000000
00000000
00001000
00000000
00000000
00000000
00000000
00000000
00000010
00000000
00000000
00010000
00000000
00000000
00000000
00000000
00000000
00001000
00000000
00000000
00000000
00000000
00000000
,
00011000
00000000
00001000
01000000
,
10010000
00000000
10000000
01000000
,
00110000
00000000
01000000
00100000
,
00001000
00000000
00010000
00000010
00000000
00000010
00001000
00000000
,
00000101
00000000
00000001
00000010
,
00001100
00000000
00000100
00010000
,
00011000
00000000
00001000
01000000
,
20010000
00000000
00000000
30100000
01000000
00100000
01000000
00000000
,
00010000
00000000
00100000
00000000
01000000
00100000
00010000
00000000
,
01000000
00000000
00001000
00000000
00010000
00000100
00001000
00000000
,
00000010
00000000
00000100
00000000
00000001
00000010
00000100
00000000
,
00001000
00000000
00000010
00000000
00010000
00001000
01000000
00000000
,
00001000
00000000
00010000
00000010
00000000
00000010
00000100
00000000
,
00000001
00000000
00000010
00000000
00000100
00001000
00000010
00000000
,
00010000
00000000
00001000
00000000
01000000
00010000
00100000
00000000
,
20020000
00000000
00000000
30030000
,
10000000
00000000
01000000
00100000
00000000
00100000
00010000
00000000
,
01000000
00001000
00010000
00000010
,
00000100
00000000
00000001
00000100
00000010
00000000
00001000
00000000
,
00000100
00000000
00000010
00000100
00001000
00000000
00002000
00000000
,
00003001
00000000
00000100
00000010
00000000
00010000
00000000
00001000
,
00000000
01000000
00000000
00010000
10000000
00000000
01000000
00100000
,
01000000
00000000
10000000
00000000
00010000
01000000
00100000
00000000
,
10000000
00000000
00010000
00000000
00100000
00000000
00000000
00001000
,
00010000
00000000
00010000
00001000
00000000
00001000
00010000
00000000
,
00000010
00000000
00001000
00000100
00000000
00000100
00000010
00000000
,
00000001
00000100
00001000
00010000
,
00100000
00000000
10000000
00000000
10010000
00000000
00000000
10000000
,
01000000
00000000
01000000
10000000
00000000
10000000
00010000
00000000
,
00100000
00000000
00001000
00010000
00000000
00010000
00001000
00000000
,
01000000
00010000
00100000
01000000
,
00010000
00001000
00000110
00000000
,
00000001
00000000
00000200
00000000
00000000
00000310
00000000
00001000
,
00000000
00000100
00000000
00000000
00010000
00000000
00001000
00000000
,
00100000
00000000
02000000
00000000
00000000
03100000
00000000
00010000
,
00000000
10000000
00000000
00000000
00100000
00000000
01000000
00000000
,
00001000
00000000
00020000
00000000
00000000
00031000
00000000
00010000
,
00000000
00000100
00000000
00000000
00000010
00000000
00000001
00000000
,
00001000
00000000
00000020
00000000
00000000
00000130
00000000
00000001
,
00000000
00001000
00000000
00000000
00000010
00000000
00000100
00000001
,
00000100
00000000
00000020
00000000
00000000
00010030
00000000
00001000
,
00000000
01000000
00000000
00000000
00010000
00000000
10000000
01000000
,
10000000
00000000
00200000
00000000
00000000
01300000
00000000
00001000
,
00000000
00010000
00000000
00000000
00000010
00000000
00001000
00000001
,
00001000
00000000
00000200
00000000
00000000
00010300
00000000
00001000
,
00000000
01001000
00000000
00000000
00010000
00000000
10000000
01000000
,
10000000
00000000
00020000
00000000
00000000
01030000
00000000
00001000
,
00010000
00000000
00000000
01000000
00000000
10000000
00010000
00000000
,
01000000
00000000
00000000
00000000
00000000
00000000
00000000
00000000
00000000
00010000
00000000
00000000
00000000
00000000
00000000
00100000
00000000
00000000
00000000
00000000
00000000
01000000
00000000
00000000
00000000
00000000
00000000
10000000
00000000
00000000
00000000
00000000
,
00000000
01000000
00000000
00000000
00100000
00000000
00000000
00000000
00000000
00000000
00000000
00000000
00000000
00000000
00000000
00000000
00001000
00000000
00000000
00000000
00000000
00000000
00000000
00000000
00000000
00010000
00000000
00000000
00000000
00000000
00000000
00000100
,
00000000
00000000
00000000
00000000
00000000
00010000
00000000
00000000
00000000
00000000
00000000
00001000
00000000
00000000
00000000
00000000
00000000
01000000
00000000
00000000
00001000
00000000
00000000
00000000
00000000
00000000
00000000
00000000
00000000
00000000
00000000
00000000
,
00010000
00000000
00000000
00000000
00000000
00000000
00000000
00000000
00000000
00000010
00000000
00000000
00000000
00000000
00000000
00001000
00000000
00000000
00000000
00000000
00000000
00000010
00000000
00000000
00000000
00000000
00000000
00000100
00000000
00000000
00000000
00000000
,
00000000
00000001
00000000
00000000
00001000
00000000
00000000
00000000
00000000
00000000
00000000
00000000
00000000
00000000
00000000
00000000
00000100
00000000
00000000
00000000
00000000
00000000
00000000
00000000
00000000
00010000
00000000
00000000
00000000
00000000
00000000
00001000
,
00000000
00000000
00000000
00000000
00000000
00010000
00000000
00000000
00000000
00000000
00000000
00000010
00000000
00000000
00000000
00000000
00000000
00000100
00000000
00000000
00000001
00000000
00000000
00000000
00000000
00000000
00001000
00000000
00000000
00000000
00000000
00000000
,
00002002
00000000
00003003
00000000
;

//---------------dance-single - ----------------
#NOTES:
     dance-single:
     :
     Medium:
     5:
     0.349,0.335,0.138,0.129,0.148: // measure 1
0000
0000
0000
0000
,  // measure 2
0000
0000
0000
0000
,  // measure 3
0000
0000
0000
0000
,  // measure 4
1000
0000
0000
0000
0000
0000
0000
0000
0000
0010
0000
0000
0000
0000
0000
0100
0000
0000
0000
0000
0000
0010
0000
0000
0000
0000
0000
1000
0000
0000
0000
0000
,  // measure 5
0000
0001
0000
0000
1000
0000
0000
0000
0000
0000
0000
0000
0000
0000
0000
0000
0001
0000
0000
0000
0000
0000
0000
0000
0000
0100
0000
0000
0000
0000
0000
0010
,  // measure 6
0000
0000
0000
0000
0000
0100
0000
0000
0000
0000
0000
0001
0000
0000
0000
0000
0000
1000
0000
0000
0001
0000
0000
0000
0000
0000
0100
0000
0000
0000
0000
0000
,  // measure 7
0110
0000
0010
1000
,  // measure 8
0101
0000
0010
0001
,  // measure 9
1100
0000
0010
0001
,  // measure 10
0110
0000
0010
0001
0000
0001
0100
0000
,  // measure 11
1010
0000
1000
0001
,  // measure 12
0110
0000
0001
1000
,  // measure 13
0101
0000
0010
0100
,  // measure 14
2002
0000
0000
3003
,  // measure 15
1000
0000
0010
0000
0100
0001
0100
0000
,  // measure 16
0010
0000
1000
0000
0100
0010
0001
0000
,  // measure 17
1000
0000
0010
0000
1000
0001
0100
0000
,  // measure 18
0001
0000
0010
0000
0001
1000
0100
0000
,  // measure 19
0010
0000
0001
0100
0000
0100
0001
0000
,  // measure 20
1000
0000
0010
0000
1000
0100
0010
0000
,  // measure 21
0001
0000
0100
0000
0010
1000
0001
0000
,  // measure 22
2002
0000
0000
3003
,  // measure 23
0001
0000
0010
0100
0000
0100
0010
0000
,  // measure 24
0001
1000
0101
0000
,  // measure 25
0010
0000
1000
0000
0100
1000
0010
0000
,  // measure 26
0100
0000
0001
1000
0100
0000
0000
0000
,  // measure 27
0010
0000
0001
0100
0000
0010
0000
1000
,  // measure 28
0000
0100
0000
0010
0001
0000
0000
0000
,  // measure 29
1000
0001
1000
0000
0001
0100
0001
0000
,  // measure 30
0010
0100
1001
0000
,  // measure 31
1000
0000
0100
0000
0010
0000
0001
0100
,  // measure 32
0010
0000
0010
0100
0000
0100
0001
0000
,  // measure 33
1000
0000
0010
0000
1000
0100
0010
0000
,  // measure 34
0001
0100
0110
0000
,  // measure 35
0001
0000
0010
0000
0100
0000
1000
0010
,  // measure 36
0100
0000
0100
0010
0000
0010
1000
0000
,  // measure 37
0001
0000
0010
0000
0001
1000
0100
0000
,  // measure 38
0010
0001
1001
0000
,  // measure 39
1000
0000
0020
0000
0000
0130
0000
0001
,  // measure 40
0000
1000
0000
0000
0100
0000
0010
0000
,  // measure 41
0001
0000
0200
0000
0000
0310
0000
1000
,  // measure 42
0000
0001
0000
0000
0010
0000
0100
0000
,  // measure 43
1000
0000
0002
0000
0000
0103
0000
0010
,  // measure 44
0000
1000
0000
0000
0010
0000
0100
0000
,  // measure 45
0001
0000
2000
0000
0000
3100
0000
0010
,  // measure 46
0000
0001
0000
0000
1000
0001
1000
0000
,  // measure 47
0010
0000
0200
0000
0000
0310
0000
0100
,  // measure 48
0000
0001
0000
0000
0001
1000
0001
0000
,  // measure 49
0100
0000
0020
0000
0000
0130
0000
0010
,  // measure 50
0000
1000
0000
0000
0001
0010
0100
0000
,  // measure 51
0010
0000
0002
0000
0000
0103
0000
0010
,  // measure 52
0000
1001
0000
0000
1000
0010
0100
0000
,  // measure 53
0010
0000
2000
0000
0000
3100
0000
0010
,  // measure 54
0100
0000
0000
0010
0000
0001
1000
0000
,  // measure 55
0010
0000
0000
0000
0000
0000
0000
0000
0000
0100
0000
0000
0000
0000
0000
0001
0000
0000
0000
0000
0000
0100
0000
0000
0000
0000
0000
0010
0000
0000
0000
0000
,  // measure 56
0000
1000
0000
0000
0001
0000
0000
0000
0000
0000
0000
0000
0000
0000
0000
0000
0010
0000
0000
0000
0000
0000
0000
0000
0000
0100
0000
0000
0000
0000
0000
1000
,  // measure 57
0000
0000
0000
0000
0000
0100
0000
0000
0000
0000
0000
0010
0000
0000
0000
0000
0000
0001
0000
0000
1000
0000
0000
0000
0000
0000
0000
0000
0000
0000
0000
0000
,  // measure 58
0010
0000
0000
0000
0000
0000
0000
0000
0000
1000
0000
0000
0000
0000
0000
0100
0000
0000
0000
0000
0000
0001
0000
0000
0000
0000
0000
0100
0000
0000
0000
0000
,  // measure 59
0000
1000
0000
0000
0010
0000
0000
0000
0000
0000
0000
0000
0000
0000
0000
0000
0100
0000
0000
0000
0000
0000
0000
0000
0000
0001
0000
0000
0000
0000
0000
0010
,  // measure 60
0000
0000
0000
0000
0000
1000
0000
0000
0000
0000
0000
0010
0000
0000
0000
0000
0000
0001
0000
0000
0100
0000
0000
0000
0000
0000
0010
0000
0000
0000
0000
0000
,  // measure 61
2002
0000
3003
0000
;
