#TITLE:Beat It;
#SUBTITLE:;
#ARTIST:Flip & Fill;
#TITLETRANSLIT:;
#SUBTITLETRANSLIT:;
#ARTISTTRANSLIT:;
#CREDIT:;
#BANNER:beatit.png;
#BACKGROUND:beatitbg.png;
#LYRICSPATH:;
#CDTITLE:ddrencorecdtitle.png;
#MUSIC:Beat It.mp3;
#OFFSET:-1.040;
#SAMPLESTART:48.950;
#SAMPLELENGTH:13.760;
#SELECTABLE:YES;
#BPMS:0.000=140.042;
#LISTSORT:9;
#STOPS:;
#BGCHANGES:;

//---------------dance-single - ----------------
#NOTES:
     dance-single:
     :
     Challenge:
     9:
     0.589,0.664,0.242,0.033,0.392:
0000
0000
0000
0000
,
0000
0000
0000
0000
,
0000
0000
0000
0000
,
0000
0000
0000
0000
,
1000
0001
0010
0000
0001
0000
1100
0000
,
0010
0100
0001
0000
0010
0000
1001
0000
,
0010
0100
1000
0000
0001
0000
0110
0000
,
0100
0010
1010
0011
,
0010
0000
0001
0100
0000
0000
0010
0000
0100
0000
0001
0010
0000
0000
0100
0000
,
1000
0000
0010
0100
0000
0000
0010
0000
1000
0001
1000
0001
0000
0000
0010
0000
,
0001
0000
0100
0010
0000
0000
1000
0000
0100
0000
1000
0001
0000
0000
0010
0000
,
0001
0000
0100
0010
0000
0000
1000
0000
0001
0010
0001
0010
0000
0000
0001
0000
,
0100
0000
0010
1000
0000
1000
0001
0000
0010
0001
0100
0001
0000
0001
1000
0000
,
0010
0000
0100
0010
0000
0010
1000
0000
0001
0010
0001
0010
0000
0010
0100
0000
,
0010
0000
0001
1000
0000
1000
0010
0000
0100
0010
0100
0010
0000
0010
1000
0000
,
1001
0000
0011
0000
0110
0000
0010
0001
,
2000
0000
0010
0000
,
3020
0000
0001
0100
,
1030
0000
0001
0010
0000
0100
0010
0001
,
0100
0000
0100
0010
0000
1000
0001
0100
,
0100
0000
0001
0010
0000
0001
0100
0010
,
1000
0000
0001
0010
0000
0100
0010
0001
,
0001
0000
0000
0001
0010
0000
0001
0000
0100
0000
0010
0000
1000
0000
0100
0000
,
0100
0000
0000
1000
0010
0000
0100
0000
0001
0000
1000
0000
0100
0000
0010
0000
,
0010
0000
0000
0001
0100
0000
0010
0000
1000
0000
0100
0000
1000
0000
0010
0000
,
1010
0000
1100
0000
0101
0000
0110
0001
,
1000
0000
0100
0000
1000
0000
0000
0010
0000
0010
0100
0000
0001
0000
0010
0000
,
0100
0000
1000
0000
0100
0000
0000
0010
0000
0010
0001
0000
1000
0010
1000
0010
,
1000
0000
0001
0000
0100
0000
0000
0010
0000
0010
1000
0000
0001
0000
0010
0000
,
0100
0000
1000
0000
0010
0000
0000
0100
0000
0100
0001
0000
0010
0000
0001
0000
,
0001
0000
1000
0000
0100
0000
0000
0010
0000
0010
0100
0000
1000
0000
0010
0000
,
0100
0000
0001
0000
0100
0000
0000
0010
0000
0010
0100
0000
0001
0000
1000
0000
,
0100
0000
1000
0000
0001
0000
0010
0001
0000
0001
0100
0000
0010
0000
1000
0000
,
0100
0000
0010
0000
0001
0000
0100
0010
0000
0010
0100
0000
0001
0000
1000
0000
,
0100
0000
0010
0000
0001
0000
1000
0100
0000
0100
0001
0000
0100
0000
0010
0000
,
0001
0000
0100
0000
0010
0000
0000
1000
0000
1000
0010
0000
0100
0000
0001
0000
,
0010
0001
0100
0010
1000
0000
0010
0100
,
0001
0000
0000
0000
1000
0000
0000
0001
0000
0000
0100
0000
0010
0000
1000
0000
,
0100
0010
0001
0000
1000
0000
0010
0000
,
1001
0000
0000
0000
0101
0000
0000
0010
0000
0010
1000
0000
0001
0000
0010
0000
,
0001
0100
0010
1000
0100
0000
0010
0100
,
0000
1000
0010
0100
0001
0010
0100
0000
,
1000
0000
0000
0000
0001
0000
0000
0100
0000
0000
0010
0000
0000
1000
0000
0000
,
0100
0000
0000
0000
0110
0000
0000
0001
0000
0001
1000
0000
0010
0000
0100
0000
,
0001
0000
1000
0100
0000
0000
1000
0010
,
0100
0000
0001
0000
1000
0010
0100
0001
,
1000
0000
0000
0000
1000
0000
0000
0001
0000
0000
0010
0000
0000
0001
0000
0000
,
0100
0000
0000
0000
0110
0000
0000
0001
0000
0001
1000
0000
0010
0000
0100
0000
,
0001
0100
1000
0100
0001
0000
0010
0001
,
0000
0010
1000
0010
0001
0100
0010
1000
,
0100
0000
0000
0000
0010
0000
0000
0001
0000
0000
0100
0000
0010
0000
1000
0000
,
0001
0000
0100
0000
0001
0000
0000
1000
0000
1000
0010
0000
0100
0000
0001
0000
,
0010
0000
0000
0000
1001
0000
0000
0010
0000
0010
0001
0000
0100
0000
0010
0000
,
1000
0000
0100
0000
0001
0000
0000
0100
0000
0100
0010
0000
0001
0000
0100
0000
,
0010
0000
0000
0000
1001
0000
0000
0001
0000
0001
0100
0000
0010
0000
1000
0000
,
0001
0000
0100
0000
1000
0000
0000
0100
0000
0100
0010
0000
1000
0000
0001
0000
,
0010
0000
0000
0000
1100
0000
0000
0010
0000
0010
0100
0000
1000
0000
0010
0000
,
0100
0000
0001
0000
0010
0000
0000
0001
0000
0001
0100
0000
0010
0000
1000
0000
,
0001
0000
0000
0000
0110
0000
0000
0001
0000
0001
0100
0000
0010
0000
1000
0000
,
1100
0000
1001
0000
0101
0000
0110
0010
,
1000
0000
0100
0000
0010
0000
0001
0100
0000
0100
1000
0000
0100
0000
0010
0000
,
1000
0000
0100
0000
0001
0000
0100
0010
0000
0010
0001
0000
0100
0000
0010
0000
,
0010
0000
0100
0000
0001
0000
0010
0100
0000
0100
0001
0000
0100
0000
0010
0000
,
1000
0000
0010
0000
0100
0000
1000
0010
0000
0010
0100
0000
0001
0010
0001
0010
,
0001
0000
0100
0000
0010
0000
1000
0100
0000
0010
0001
0000
0100
0000
0010
0000
,
1000
0000
0001
0000
0010
0000
0100
1000
0000
0010
0100
0000
0010
0000
1000
0000
,
1000
0000
0010
0000
0100
0000
0001
0010
0000
0100
1000
0000
0010
0000
0100
0000
,
0101
0000
1100
0000
1010
0000
0011
2002
,
0000
0000
0000
0000
,
0000
3003
0000
0000
;

//---------------dance-single - ----------------
#NOTES:
     dance-single:
     :
     Hard:
     7:
     0.470,0.491,0.175,0.042,0.121:
0000
0000
0000
0000
,
0000
0000
0000
0000
,
0000
0000
0000
0000
,
0000
0000
0000
0000
,
1000
0000
0001
0000
0010
0001
0100
0000
,
0010
0000
0100
0000
0001
1000
0100
0000
,
0010
0000
0100
0000
0001
0010
0100
0000
,
0110
1100
0110
0011
,
0001
1000
0100
0000
0010
0001
0100
0000
,
0010
1000
0001
0100
0010
1000
0100
0000
,
0010
0001
1000
0000
0010
0100
0001
0000
,
0010
0001
1000
0100
0010
0000
1001
0000
,
0010
0100
0001
0000
1000
0100
0010
0000
,
0001
0100
0010
1000
0100
0010
0001
0000
,
1000
0010
0100
0010
,
1100
1001
0101
0110
,
0202
0000
0000
0300
,
2000
0000
0000
3003
,
1000
0000
0000
0011
0000
0010
0100
1000
,
0010
0000
0000
0101
0000
0001
1000
0100
,
0010
0000
0000
0110
0000
0010
0001
1000
,
0010
0000
0000
0101
0000
0100
0010
1000
,
0001
0000
0000
0010
0000
0000
0100
0000
0000
0000
0010
0000
0001
0000
1000
0000
,
0010
0000
0000
0100
0000
0010
1000
0001
,
0010
0000
0000
0001
0000
0000
1000
0000
0000
0000
0010
0000
0100
0000
0001
0000
,
1000
0000
0100
0000
1100
0000
0010
0001
,
0100
0001
0010
0000
0001
0000
1000
0000
,
0010
0100
0001
0000
0010
0100
1100
0000
,
0010
0000
0001
0000
1000
0000
0000
0010
0000
0000
1000
0000
0001
0000
0010
0000
,
0100
0000
0010
0000
0100
0000
0000
1000
0000
0000
0010
0000
0100
0000
0000
0000
,
0001
0000
1000
0000
0100
0000
0000
0010
0000
0000
0100
0000
0010
0000
0001
0000
,
1000
0000
0001
0000
1000
0000
0000
0010
0000
0000
0100
0000
0001
0000
0000
0000
,
1000
0000
0100
0000
0010
0000
0000
0001
0000
0000
1000
0000
0001
0000
0010
0000
,
0100
0000
1000
0000
0010
0000
0000
0100
0000
0000
0010
0000
1000
0000
0001
0000
,
0010
0000
0001
0000
0100
0000
0000
0010
0000
0000
1000
0000
0100
0000
1000
0000
,
0010
0000
0100
0000
0001
0000
0000
0010
0000
0000
0001
0000
0100
0000
0000
0000
,
0001
1000
0100
0010
0100
0000
1000
0000
,
0001
0000
0100
0000
0010
1000
0100
0010
,
0001
0000
0100
0000
0010
0000
0000
1000
0000
0000
0010
0000
0000
0100
0000
0000
,
0001
0000
0000
0000
1000
0000
0000
0100
0000
0000
0010
0000
0001
0000
0100
0000
,
0010
0000
1000
0100
0010
0000
0001
1000
,
0000
0010
0100
0001
0010
0000
0001
0100
,
0010
0000
0000
0000
1000
0000
0000
0001
0000
0000
0010
0000
0000
0001
0000
0000
,
0100
0000
0000
0000
0010
0000
0000
1000
0000
0000
0010
0000
0100
0000
0001
0000
,
1000
0000
0000
0000
0001
0000
0100
0000
0000
0000
0010
0000
0000
1000
0000
0000
,
0001
0000
1000
0001
0000
1000
0100
0010
,
0001
0000
0000
0000
0001
0000
0000
0100
0000
0000
0010
0000
0000
1000
0000
0000
,
0100
0000
0000
0000
1000
0000
0000
0001
0000
0000
0100
0000
0010
0000
1000
0000
,
0100
1000
0010
0100
0001
0000
0010
0001
,
0000
0100
1000
0100
0010
0000
1000
0100
,
0010
0000
0000
0000
0001
0000
0000
1000
0000
0000
0010
0000
0000
0100
0000
0000
,
0001
0010
0001
0000
1000
0010
0100
0001
,
0010
0000
0001
0000
1000
0001
1000
0010
,
0100
0001
0010
0000
0001
0100
0010
1000
,
0100
0000
0010
0000
0100
1000
0010
0100
,
0001
0010
0100
0000
0010
0001
1000
0010
,
0100
0000
0001
0000
0100
0010
1000
0001
,
0010
0001
0100
0000
0010
1000
0100
1000
,
0010
0000
0100
0000
0010
1000
0001
0010
,
0001
0000
1000
0000
0010
0000
0100
0001
,
1000
0000
0100
0000
1000
0000
0000
0010
0000
0000
0100
0000
0001
0000
0010
0000
,
0100
0000
0010
0000
0100
0000
0000
1000
0000
0000
0010
0000
0100
0000
0000
0000
,
0001
0000
1000
0000
0100
0000
0000
0010
0000
0000
0100
0000
0010
0000
0001
0000
,
0100
0000
0001
0000
0100
0000
0000
0010
0000
0000
1000
0000
0100
0000
0000
0000
,
0010
0000
0001
0000
0100
0000
0000
0010
0000
0000
1000
0000
0100
0000
1000
0000
,
0010
0000
0100
0000
0001
0000
0000
0010
0000
0000
0001
0000
0100
0000
0010
0000
,
1000
0000
0100
0000
0010
0000
0000
0100
0000
0000
1000
0000
0001
0000
0100
0000
,
0101
0000
0110
0000
1010
0000
0110
2002
,
0000
0000
0000
0000
,
0000
3003
0000
0000
;

//---------------dance-single - ----------------
#NOTES:
     dance-single:
     :
     Beginner:
     1:
     0.129,0.198,0.033,0.000,0.000:
0000
0000
0000
0000
,
0000
0000
0000
0000
,
0000
0000
0000
0000
,
0000
0000
0000
0000
,
0010
0000
0000
0000
,
0010
0000
0000
0000
,
0100
0000
0000
0000
,
0100
0100
0100
0100
,
0100
0000
0000
0000
,
0100
0000
0000
0000
,
0001
0000
0000
0000
,
0001
0000
0000
0000
,
0010
0000
0000
0000
,
0010
0000
0000
0000
,
0100
0000
0000
0000
,
0100
0100
0100
0100
,
0100
0000
0000
0000
,
0000
0000
0000
0000
,
1001
0000
0000
0000
,
1001
0000
0000
0000
,
0110
0000
0000
0000
,
0110
0000
0000
0000
,
0100
0000
0001
0000
,
1000
0000
0100
0000
,
1000
0000
0001
0000
,
0010
0000
0100
0000
,
1000
0000
0000
0000
,
0010
0000
0000
0000
,
1000
0000
1000
0000
,
0001
0000
0001
0000
,
0100
0000
0100
0000
,
0001
0000
0001
0000
,
1000
0000
0010
0000
,
1000
0000
0001
0000
,
0010
0000
0001
0000
,
0100
0000
0010
0000
,
1000
0000
0000
0000
,
0001
0000
0000
0000
,
1000
0000
0100
0000
,
1000
0000
0001
0000
,
0100
0000
0000
0000
,
0010
0000
0000
0000
,
1000
0000
0001
0000
,
0010
0000
0001
0000
,
0100
0000
0000
0000
,
0010
0000
0000
0000
,
1000
0000
1000
0000
,
0001
0000
0001
0000
,
0010
0000
0000
0000
,
0001
0000
0000
0000
,
1000
0000
1000
0000
,
0010
0000
0010
0000
,
0100
0000
0010
0000
,
1000
0000
0001
0000
,
0010
0000
0001
0000
,
0100
0000
0010
0000
,
1000
0000
0100
0000
,
0010
0000
0001
0000
,
0100
0000
0010
0000
,
1000
1000
1000
1000
,
1000
0000
0000
0000
,
0001
0000
0000
0000
,
0010
0000
0000
0000
,
0001
0000
0100
0000
,
0010
0000
0000
0000
,
1000
0000
0000
0000
,
0100
0000
0000
0000
,
0010
0010
0010
0010
,
0010
0000
0000
0000
;

//---------------dance-single - ----------------
#NOTES:
     dance-single:
     :
     Easy:
     3:
     0.199,0.260,0.000,0.033,0.000:
0000
0000
0000
0000
,
0000
0000
0000
0000
,
0000
0000
0000
0000
,
0000
0000
0000
0000
,
1000
0000
0000
0001
,
0100
0000
0000
0010
,
0100
0000
0000
0001
,
0010
0001
0010
0001
,
0100
0000
0000
0010
,
0100
0000
0010
1000
,
0100
0000
0000
0010
,
0001
0000
1000
0000
,
0100
0000
0000
0010
,
0001
0000
0000
1000
,
0010
0000
0000
0100
,
0010
1000
0100
0010
,
0002
0000
0000
0000
,
1000
0000
0000
0000
,
0103
0000
0010
1000
,
0001
0000
0010
0001
,
1000
0000
0010
0100
,
0001
0000
0010
0100
,
1000
0000
0000
0100
,
0010
0000
1000
0100
,
1000
0000
0010
0000
,
0100
0001
1000
0010
,
0200
0000
0000
0000
,
0320
0000
0000
0000
,
1030
0000
0100
0000
,
1000
0000
0010
0100
,
0001
0000
0010
0000
,
0100
0000
0010
0001
,
1000
0000
0010
0000
,
0100
0000
0001
1000
,
0100
0000
1000
0000
,
0010
0000
0100
0000
,
0010
1000
0100
0000
,
0010
0001
0100
0001
,
1000
0000
0100
0000
,
0010
0001
1000
0010
,
0100
0000
0010
0000
,
1000
0000
0001
0010
,
0001
0000
0100
0000
,
0010
1000
0100
0010
,
0100
0000
1000
0000
,
0100
0000
1000
0000
,
0001
0100
0010
1000
,
0100
0010
0001
0100
,
0010
0000
0100
0000
,
0001
0000
0010
0000
,
0001
1000
0100
1000
,
0010
0000
0100
0010
,
1000
0000
0001
0000
,
0010
0000
0001
1000
,
0100
0000
1000
0000
,
0010
0000
0100
0010
,
1000
0000
0001
0000
,
0010
0000
0100
1000
,
0100
0000
0010
0000
,
0001
1000
0100
1000
,
0010
0000
0000
0100
,
0001
0000
1000
0000
,
0100
0000
0000
0010
,
0100
0000
1000
0001
,
0100
0000
0000
0010
,
1000
0000
0010
0000
,
0100
0000
0000
0001
,
0010
0100
0010
0100
,
2000
0000
0000
0000
,
0000
3000
0000
0000
;

//---------------dance-single - ----------------
#NOTES:
     dance-single:
     :
     Medium:
     6:
     0.376,0.346,0.067,0.025,0.046:
0000
0000
0000
0000
,
0000
0000
0000
0000
,
0000
0000
0000
0000
,
0000
0000
0000
0000
,
1000
0000
0001
0000
0100
0001
0100
0000
,
0010
0000
1000
0000
0100
1000
0100
0000
,
0010
0000
0100
0000
1000
0001
1000
0000
,
0010
0100
0110
1001
,
0010
1000
0010
0000
0100
0000
0001
0000
,
0010
0000
0001
0000
1000
0100
1000
0000
,
0001
0100
0001
0000
0010
0000
0100
0000
,
1000
0010
1000
0010
1000
0000
0001
0000
,
0010
0000
0001
0000
0100
0010
0100
0000
,
0010
1000
0010
0000
1000
0000
0001
0000
,
0010
0000
0001
0000
0100
0010
0100
0000
,
0010
1000
0001
0010
,
0002
0000
0000
0000
,
2003
0000
0010
0010
,
3010
0000
0000
0100
0000
0000
0010
0000
,
1000
0000
0000
0001
0000
0000
0010
0000
,
0100
0000
0000
0010
0000
0000
0001
0000
,
1000
0000
0000
0010
0000
0000
0100
0000
,
0001
0000
0000
0010
0000
0010
0100
0000
,
0010
0000
0000
0001
0000
0001
1000
0000
,
0010
0000
0000
0100
0000
0100
0010
0000
,
1000
0001
0010
0001
,
0100
0010
0100
0000
0001
0000
1000
0000
,
0100
1000
0100
0010
0001
0000
1000
0000
,
0001
0100
0001
0000
0010
0000
0100
0000
,
1000
0010
1000
0000
0001
0000
1001
0000
,
0010
0100
0010
0000
1000
0000
0001
0000
,
0010
0001
0010
0100
1000
0000
0001
0000
,
0100
0010
0100
0000
0001
0000
1000
0000
,
0100
0010
0001
0000
1000
0000
1001
0000
,
0010
1000
0010
0000
0100
0000
0001
0000
,
0010
0001
0010
0100
1000
0000
0001
0000
,
0100
0010
1000
0100
,
1000
0000
0000
0000
0001
0000
0000
0100
0000
0000
0001
0000
0000
0100
0000
0000
,
0001
0000
0000
0000
1000
0000
0000
0100
0000
0000
1000
0000
0000
0000
1000
0000
,
0001
0000
0100
0000
0001
0100
0001
0000
,
1000
0100
0010
0001
,
0100
0010
1000
0100
,
1000
0000
0000
0000
0001
0000
0000
0010
0000
0000
0001
0000
0000
0010
0000
0000
,
0001
0000
0000
0000
1000
0000
0000
0010
0000
0000
1000
0000
0000
0000
1000
0000
,
0001
0000
0010
0000
0001
0100
0010
0000
,
1000
0000
0100
1000
0100
1000
0100
0000
,
0010
0000
0000
0000
0001
0000
0000
1000
0000
0000
0001
0000
0000
1000
0000
0000
,
0001
0000
0000
0000
0100
0000
0000
0010
0000
0000
0100
0000
0000
0000
0100
0000
,
0010
0000
1000
0000
0001
0000
0010
0001
,
0010
0000
0100
0000
1000
0010
1000
0010
,
1000
0000
0000
0000
0001
0000
0000
0100
0000
0000
0001
0000
0000
0100
0000
0000
,
0001
0100
0001
0100
,
0010
1000
0010
0000
0100
0000
0001
0000
,
0010
0001
0010
0000
0001
0000
1001
0000
,
1000
0010
1000
0000
0010
0000
0100
0000
,
0001
0010
0001
0100
0010
0000
1000
0000
,
1000
0100
1000
0000
0010
0000
0100
0000
,
0001
1000
0001
0000
0100
0000
0101
0000
,
0010
0100
0010
0000
1000
0000
0001
0000
,
0010
0001
1100
1001
,
0001
0100
0001
0000
1000
0010
1000
0000
,
0001
0010
0001
0000
1000
0000
0100
0000
,
0010
0100
0010
0000
0001
0100
0001
0000
,
1000
0010
1000
0000
0001
0000
0100
0000
,
0010
1000
0010
0000
0100
0000
0010
0000
,
1000
0100
1000
0000
0001
0010
0001
0000
,
0100
0010
0100
0000
0001
0000
0010
0000
,
0001
0000
1000
0000
0010
0000
0100
0002
,
0000
0000
0000
0000
,
0000
0003
0000
0000
;

//---------------dance-double - ----------------
#NOTES:
     dance-double:
     :
     Easy:
     4:
     0.244,0.289,0.033,0.092,0.000: // measure 1
00000000
00000000
00000000
00000000
,  // measure 2
00000000
00000000
00000000
00000000
,  // measure 3
00000000
00000000
00000000
00000000
,  // measure 4
00000000
00000000
00000000
00000000
,  // measure 5
00020000
00000000
01000000
00000000
,  // measure 6
20030000
00000000
00100000
00000000
,  // measure 7
32000000
00000000
00100000
00000000
,  // measure 8
03010000
00001000
00000010
00000001
,  // measure 9
00000200
00000000
00000010
00000000
,  // measure 10
00000302
00000000
00001000
00000000
,  // measure 11
00000023
00000000
00000100
00000000
,  // measure 12
00000031
00000000
00000100
00000010
,  // measure 13
00002000
00000000
00000100
00000000
,  // measure 14
00003020
00000000
00001000
00000000
,  // measure 15
00020030
00000000
00001000
00000000
,  // measure 16
00130000
10000000
01000000
00100000
,  // measure 17
00020000
00000000
00000000
00000000
,  // measure 18
10000000
00000000
00000000
00000000
,  // measure 19
01030000
00000000
00010000
00100000
,  // measure 20
00001000
00000000
00010000
00001000
,  // measure 21
01000000
00000000
00100000
10000000
,  // measure 22
01000000
00000000
00100000
00010000
,  // measure 23
01000000
00000000
00001000
00010000
,  // measure 24
00000100
00000000
00000010
00000001
,  // measure 25
00000100
00000000
00000010
00001000
,  // measure 26
00000100
00010000
00001000
00010000
,  // measure 27
00001000
00000000
00000000
00000000
,  // measure 28
10000000
00000000
00010000
00000000
,  // measure 29
01000000
00100000
10000000
01000000
,  // measure 30
10000000
00100000
01000000
00010000
,  // measure 31
00100000
00001000
00010000
00001000
,  // measure 32
01000000
00100000
10000000
01000000
,  // measure 33
10000000
00010000
01000000
00010000
,  // measure 34
00100000
00001000
00010000
00000100
,  // measure 35
00000010
00000001
00000100
00000010
,  // measure 36
00001000
00000001
00000010
00000001
,  // measure 37
00000100
00000000
00000010
00000000
,  // measure 38
00001000
00000000
00000100
00010000
,  // measure 39
00001000
00000000
00100000
00000000
,  // measure 40
00001000
00010000
00001000
00100000
,  // measure 41
00010000
00000000
01000000
00000000
,  // measure 42
00100000
00000000
10000000
01000000
,  // measure 43
00100000
00000000
01000000
00000000
,  // measure 44
10000000
00010000
01000000
00001000
,  // measure 45
00010000
00000000
00001000
00000000
,  // measure 46
00100000
00000000
00001000
00010000
,  // measure 47
00000100
00000000
00010000
00000000
,  // measure 48
00000100
00000010
00000001
00000100
,  // measure 49
00000010
00000000
00001000
00000000
,  // measure 50
00000100
00000000
00010000
00001000
,  // measure 51
00100000
00000000
00010000
00000000
,  // measure 52
01000000
00001000
01000000
00010000
,  // measure 53
00100000
00110000
00010000
10000000
,  // measure 54
00100000
01000000
00010000
00100000
,  // measure 55
00001000
00011000
00010000
00000100
,  // measure 56
00000010
00000001
00000100
00000010
,  // measure 57
00001000
00000101
00000010
00001000
,  // measure 58
00000100
00010000
00001000
00100000
,  // measure 59
00001000
00011000
00001000
00100000
,  // measure 60
00010000
01000000
00100000
10000000
,  // measure 61
01000000
00000000
10000000
00000000
,  // measure 62
00100000
00000000
01000000
00010000
,  // measure 63
00100000
00000000
00001000
00000000
,  // measure 64
00010000
00000100
00000010
00000001
,  // measure 65
00000100
00000000
00000010
00000000
,  // measure 66
00001000
00000000
00000100
00000010
,  // measure 67
00000001
00000000
00000100
00000000
,  // measure 68
00000010
00010000
00001000
00000010
,  // measure 69
00000200
00000000
00000000
00000000
,  // measure 70
00000000
00000300
00000000
00000000
;

//---------------dance-double - ----------------
#NOTES:
     dance-double:
     :
     Hard:
     9:
     0.524,0.548,0.225,0.033,0.208:
00000000
00000000
00000000
00000000
,
00000000
00000000
00000000
00000000
,
00000000
00000000
00000000
00000000
,
00000000
00000000
00000000
00000000
,
00000010
00000000
00000100
00000000
00000010
00000001
00001000
00000000
,
00000010
00000000
00001000
00000000
00000100
00010000
00001000
00000000
,
00010000
00000000
00000100
00000000
00000010
00000100
00001000
00000000
,
00000101
00001010
00000011
00001100
,
00000100
00010000
00000100
00001000
00000010
00000000
00010000
00000000
,
00001000
00100000
00010000
00100000
01000000
00000000
00100000
00000000
,
00010000
01000000
00001000
00100000
00001000
00000000
00010000
00000000
,
00000100
00001000
00000100
00010000
00001000
00000000
00011000
00000000
,
00001000
01000000
00100000
10000000
01000000
00000000
00100000
00000000
,
00010000
01000000
00100000
00010000
00001000
00000000
00100000
00000000
,
01000000
10000000
01000000
00100000
00010000
00000000
01000000
00000000
,
00011000
00010100
00000110
00000011
,
00001002
00000000
00000100
00000000
,
00002003
00000000
00000010
00000100
,
00003001
00000000
00000000
00000101
00000000
00000001
00001000
00000100
,
00010000
00000000
00000000
01001000
00000000
00001000
00100000
00010000
,
01000000
00000000
00000000
10010000
00000000
00100000
01000000
00010000
,
00100000
00000000
00000000
00011000
00000000
00010000
00000010
00000100
,
00000001
00000000
00000000
00001000
00000000
00000000
00000110
00000000
00000000
00000000
00000001
00000000
00001000
00000000
00000100
00000000
,
00000010
00000000
00000000
00001100
00000000
00000100
00010000
00001000
,
01000000
00000000
00000000
00010000
00000000
00000000
01100000
00000000
00000000
00000000
10000000
00000000
00100000
00000000
01000000
00000000
,
00010000
00000000
00100000
00000000
00010000
00000000
01000000
00100000
,
10000000
00000000
00010000
00000000
00100000
00000000
00000000
00010000
00000000
00000000
01000000
00000000
00001000
00000000
00010000
00000000
,
00001000
00000000
01000000
00000000
00010000
00000000
00000000
00100000
00000000
00000000
00001000
00000000
00010000
00000000
00000000
00000000
,
00001000
00000000
00010000
00000000
00000100
00000000
00000010
00000001
00000000
00000001
00000010
00000000
00000100
00000000
00001000
00000000
,
00000100
00000000
00010000
00000000
00001000
00000000
00100000
00010000
00000000
00010000
00100000
00000000
00001000
00000000
00010000
00000000
,
00001000
00000000
01000000
00000000
00100000
00000000
10000000
01000000
00000000
01000000
10000000
00000000
00100000
00000000
01000000
00000000
,
00001000
00000000
00010000
00000000
00100000
00000000
01000000
00010000
00000000
00010000
01000000
00000000
00100000
00000000
00000000
00000000
,
10000000
00000000
01000000
00000000
00100000
00000000
00010000
01000000
00000000
01000000
00010000
00000000
00100000
00000000
00001000
00000000
,
00010000
00000000
00000010
00000000
00001000
00000000
00000100
00000010
00000000
00000010
00000100
00000000
00001000
00000000
00000010
00000000
,
00000100
00000000
00000010
00000000
00001000
00000000
00000100
00010000
00000000
00010000
00000100
00000000
00001000
00000000
00000010
00000000
,
00001000
00000000
00000100
00000000
00010000
00000000
00001000
00100000
00000000
00100000
00001000
00000000
01000000
00000000
00000000
00000000
,
00100000
10000000
00100000
01000000
00010000
00000000
00100000
00000000
,
00010000
00000000
00000000
00000000
01000000
00000000
00000000
00001000
00000000
00000000
00010000
00000000
00001000
00000000
00100000
00000000
,
00010000
00000000
01000000
00000000
00100000
00000000
00000000
10000000
00000000
00000000
00100000
00000000
00000000
01000000
00000000
00000000
,
00010000
00000000
00000000
00000000
00100000
00000000
00000000
00001000
00000000
00010000
00001000
00000000
00100000
00000000
00010000
00000000
,
01000000
00100000
01000000
00010000
00100000
00000000
00001000
00010000
,
00000000
00000100
00001000
00000010
00000100
00000000
00000010
00010000
,
00001000
00000000
00000000
00000000
00001000
00000000
00000000
00010000
00000000
00000000
00000100
00000000
00000000
00000010
00000000
00000000
,
00000001
00000000
00000000
00000000
00001000
00000000
00000000
00000010
00000000
00000100
00000001
00000000
00000100
00000000
00000010
00000000
,
00001000
00000000
00000100
00010000
00000000
00001000
00100000
00010000
,
01000000
00000000
00000000
00000000
00100000
00000000
00000000
10000000
00000000
00000000
00010000
00000000
00100000
00000000
01000000
00000000
,
10000000
00000000
00000000
00000000
00100000
00000000
00000000
01000000
00000000
00000000
00001000
00000000
00000000
00010000
00000000
00000000
,
01000000
00000000
00000000
00000000
00100000
00000000
00000000
00010000
00000000
01000000
00100000
00000000
10000000
00000000
00010000
00000000
,
01000000
00001000
00010000
00001000
01000000
00000000
00100000
10000000
,
00000000
01000000
00100000
00010000
01000000
00000000
00001000
00010000
,
00001000
00000000
00000000
00000000
00010000
00000000
00000000
00000010
00000000
00000000
00001000
00000000
00000000
00000100
00000000
00000000
,
00000010
00000001
00000010
00000000
00000001
00000000
00001000
00000001
,
00000100
00000000
00001001
00000000
00000010
00000100
00000001
00000010
,
00000100
00001000
00000010
00000000
00000100
00000010
00001000
00000100
,
00010000
00000000
00010100
00000000
00001000
00100000
00010000
01000000
,
00100000
10000000
01000000
00000000
00100000
01000000
10000000
00100000
,
01000000
00000000
01010000
00000000
00100000
01000000
00010000
00100000
,
00001000
00010000
00000100
00000000
00000010
00000100
00001000
00000010
,
00000100
00000000
00000101
00000000
00000010
00001000
00000100
00000000
,
00010000
00000000
00001000
00000000
00101000
00000000
00010000
00000100
,
00010000
00000000
00000010
00000000
00000100
00000000
00000010
00001000
00000000
00001000
00000010
00000000
00000100
00000000
00001000
00000000
,
00000100
00000000
00000001
00000000
00000010
00000000
00000100
00001000
00000000
00001000
00000100
00000000
00010000
00000000
00001000
00000000
,
00100000
00000000
00010000
00000000
01000000
00000000
00100000
10000000
00000000
10000000
00010000
00000000
00100000
00000000
01000000
00000000
,
00100000
00000000
00010000
00000000
01000000
00000000
00001000
01000000
00000000
01000000
00001000
00000000
00010000
00000000
00000000
00000000
,
00001000
00000000
00010000
00000000
00000100
00000000
00000010
00000100
00000000
00000100
00000010
00000000
00000100
00000000
00001000
00000000
,
00000010
00000000
00010000
00000000
00001000
00000000
00100000
00010000
00000000
00010000
00100000
00000000
00010000
00000000
01000000
00000000
,
00100000
00000000
00010000
00000000
00100000
00000000
01000000
00001000
00000000
00001000
01000000
00000000
00010000
00000000
00100000
00000000
,
00101000
00011000
00010100
00000110
,
00002002
00000000
00000000
00000000
,
00000000
00003003
00000000
00000000
;

//---------------dance-double - ----------------
#NOTES:
     dance-double:
     :
     Challenge:
     9:
     0.580,0.577,0.133,0.033,0.404:
00000000
00000000
00000000
00000000
,
00000000
00000000
00000000
00000000
,
00000000
00000000
00000000
00000000
,
00000000
00000000
00000000
00000000
,
00010000
00001000
00100000
00010000
01000000
00000000
00100000
00000000
,
01000000
00010000
00100000
00001000
00010000
00000000
00000100
00000010
,
00000001
00000100
00000010
00001000
00000100
00000000
00000010
00000100
,
00001100
00010100
00011000
00010010
,
00000010
00000000
00000100
00000001
00000000
00000000
00000010
00000000
00000001
00000000
00001000
00000100
00000000
00000000
00001000
00000100
,
00010000
00000000
00001000
00010000
00000000
00001000
00100000
00000000
00010000
01000000
00010000
01000000
00000000
00000000
00010000
00000000
,
00100000
00000000
00001000
00010000
00000000
00000000
00000100
00000000
00001000
00000000
00000010
00010000
00000000
00000000
00000100
00001000
,
00000010
00000000
00001000
00000100
00000000
00010000
00001000
00000000
00100000
00010000
00100000
00010000
00000000
00000000
00000000
00000000
,
00100000
00000000
10000000
01000000
00000000
00000000
00100000
00000000
00010000
00000000
01000000
00001000
00000000
00000000
00010000
00001000
,
00100000
00000000
00010000
01000000
00000000
00100000
01000000
00000000
00010000
00100000
00010000
00100000
00000000
00000000
00001000
00000000
,
00010000
00000000
00000100
00000010
00000000
00000000
00000001
00000000
00000100
00000000
00000010
00001000
00000000
00000000
00000100
00000000
,
00010100
00011000
00101000
00110000
,
00022000
00000000
00000000
00030000
,
02000000
00003000
00001000
00010000
,
03100000
00000000
01000000
00000000
00010000
00000000
00100000
00000000
00000000
01000000
00100000
00000000
00010000
00000000
01000000
00000000
,
00100000
00000000
10000000
00000000
01000000
00000000
00010000
00000000
00000000
01000000
00100000
00000000
00010000
00000000
01000000
00000000
,
00001000
00000000
00010000
00000000
00000010
00000000
00000100
00000000
00000000
00000010
00001000
00000000
00000010
00000000
00000100
00000000
,
00000001
00000000
00000010
00000000
00001000
00000000
00000010
00000000
00000000
00000100
00001000
00000000
00000010
00000000
00010000
00000000
,
00001000
00000000
00000000
00100000
00000000
00000000
00011000
00000000
00000000
00001000
00100000
00000000
00010000
00000000
01000000
00000000
,
00100000
00000000
10000000
00000000
01000000
00000000
00100000
00000000
00000000
01000000
10000000
00000000
00100000
00000000
01000000
00000000
,
00010000
00000000
00000000
00100000
00000000
00000000
00011000
00000000
00000000
00010000
00001000
00000000
00000010
00000000
00000001
00000000
,
00000100
00000000
00000010
00000000
00001000
00000000
00000100
00010000
,
00000100
00000000
00001000
00000000
00000010
00000000
00000000
00000100
00000000
00000000
00000010
00000000
00001000
00000000
00000100
00000000
,
00010000
00000000
00001000
00000000
00100000
00000000
00000000
00010000
00000000
00000000
01000000
00000000
00100000
10000000
00100000
10000000
,
00100000
00000000
01000000
00000000
00010000
00000000
00100000
00001000
00000000
00001000
00010000
00000000
00001000
00000000
01000000
00000000
,
00100000
00000000
10000000
00000000
00010000
00000000
00100000
00010000
00000000
00010000
00100000
00000000
00001000
00000000
00010000
00000000
,
00000100
00000000
00001000
00000000
00000100
00000000
00010000
00001000
00000000
00001000
00100000
00000000
00010000
00000000
01000000
00000000
,
00100000
00000000
00010000
00000000
00100000
00000000
01000000
00010000
00000000
00010000
00100000
00000000
00001000
00000000
00000000
00000000
,
00010000
00000000
00000010
00000000
00001000
00000000
00000010
00010000
00000000
00010000
00000100
00000000
00000010
00000000
00000001
00000000
,
00000100
00000000
00000010
00000000
00001000
00000000
00000100
00010000
00000000
00010000
00001000
00000000
00100000
00000000
00010000
00000000
,
01000000
00000000
10000000
00000000
01000000
00000000
00100000
10000000
00000000
10000000
00010000
00000000
00100000
00000000
00001000
00000000
,
00010000
00000000
00000100
00000000
00001000
00000000
00000010
00000100
00000000
00000100
00001000
00000000
00000100
00000000
00000000
00000000
,
00000010
00010000
00001000
00100000
00010000
00000000
00100000
01000000
,
10000000
00000000
00000000
00000000
00010000
00000000
00000000
01000000
00000000
00000000
00001000
00000000
00010000
00000000
00000100
00000000
,
00000010
00000000
00000001
00000000
00000100
00000000
00000000
00000010
00000000
00000000
00001000
00000000
00000000
00000100
00000000
00000000
,
00010000
00000000
00000000
00000000
00010100
00000000
00000000
00001000
00000000
00100000
00010000
00000000
00100000
00000000
00001000
00000000
,
00010000
00000100
00000010
00000100
00010000
00000000
00001000
00100000
,
00000000
00010000
01000000
00100000
00010000
00000000
00100000
01000000
,
00010000
00000000
00000000
00000000
00100000
00000000
00000000
00001000
00000000
00000000
00010000
00000000
00000000
00100000
00000000
00000000
,
01000000
00000000
00000000
00000000
00010000
00000000
00000000
00100000
00000000
01000000
10000000
00000000
00100000
00000000
01000000
00000000
,
00010000
00000000
00100000
01000000
00000000
00100000
00010000
01000000
,
00001000
00000000
00010000
00000010
00001000
00000100
00010000
00000010
,
00000100
00000000
00000000
00000000
00000010
00000000
00000000
00000100
00000000
00000000
00000001
00000000
00000000
00001000
00000000
00000000
,
00000100
00000000
00000000
00000000
00000010
00000000
00000000
00000001
00000000
00001000
00000100
00000000
00000010
00000000
00000100
00000000
,
00001000
00000010
00000100
00000001
00000010
00000000
00000100
00001000
,
00000000
00000010
00010000
00001000
00100000
00000000
00010000
01000000
,
00100000
00000000
00000000
00000000
10000000
00000000
00000000
00010000
00000000
00000000
00100000
00000000
00000000
00001000
00000000
00000000
,
00010000
00000000
00001000
00000000
00010000
00000000
00000000
00001000
00000000
00100000
00010000
00000000
01000000
00000000
00010000
00000000
,
00100000
00000000
00000000
00000000
00101000
00000000
00000000
00010000
00000000
00000100
00001000
00000000
00000010
00000000
00000100
00000000
,
00000001
00000000
00000010
00000000
00000001
00000000
00000000
00000100
00000000
00000010
00001000
00000000
00000100
00000000
00010000
00000000
,
00001000
00000000
00000000
00000000
00101000
00000000
00000000
00010000
00000000
01000000
00010000
00000000
00100000
00000000
00001000
00000000
,
00010000
00000000
00000100
00000000
00001000
00000000
00000000
00000100
00000000
00010000
00001000
00000000
00100000
00000000
00010000
00000000
,
01000000
00000000
00000000
00000000
10100000
00000000
00000000
01000000
00000000
00010000
00100000
00000000
00001000
00000000
01000000
00000000
,
00100000
00000000
10000000
00000000
01000000
00000000
00000000
00100000
00000000
00010000
01000000
00000000
00100000
00000000
01000000
00000000
,
00010000
00000000
00000000
00000000
00101000
00000000
00000000
00010000
00000000
00001000
00010000
00000000
00000100
00000000
00000010
00000000
,
00000100
00000000
00010000
00000000
00001000
00000000
00100000
00001000
,
00010000
00000000
00000100
00000000
00000010
00000000
00000100
00001000
00000000
00001000
00000010
00000000
00000100
00000000
00001000
00000000
,
00000001
00000000
00000010
00000000
00000100
00000000
00000010
00001000
00000000
00001000
00000100
00000000
00010000
00000000
00001000
00000000
,
00100000
00000000
00010000
00000000
01000000
00000000
00100000
00010000
00000000
00010000
00001000
00000000
00100000
00000000
00010000
00000000
,
01000000
00000000
00001000
00000000
00010000
00000000
00000100
00001000
00000000
00001000
00000010
00000000
00000100
00000000
00000000
00000000
,
00000010
00000000
00001000
00000000
00000100
00000000
00010000
00001000
00000000
00100000
00010000
00000000
01000000
00000000
00001000
00000000
,
00010000
00000000
00000100
00000000
00000010
00000000
00000001
00000100
00000000
00000010
00001000
00000000
00000100
00000000
00010000
00000000
,
00000100
00000000
00001000
00000000
00000010
00000000
00010000
00001000
00000000
00100000
00010000
00000000
01000000
00000000
00100000
00000000
,
10000000
00000000
00010000
00000000
00100000
00000000
00001000
02000000
,
00000000
00000000
00000000
00000000
,
00000000
03000000
00000000
00000000
;

//---------------dance-double - ----------------
#NOTES:
     dance-double:
     :
     Medium:
     6:
     0.388,0.433,0.175,0.042,0.021:
00000000
00000000
00000000
00000000
,
00000000
00000000
00000000
00000000
,
00000000
00000000
00000000
00000000
,
00000000
00000000
00000000
00000000
,
00000100
00000000
00010000
00000000
00001000
00010000
00001000
00000000
,
00100000
00000000
00010000
00000000
01000000
00100000
01000000
00000000
,
00100000
00000000
10000000
00000000
00010000
00100000
00010000
00000000
,
11000000
10100000
00110000
01010000
,
10010000
00000000
01000000
00000000
00001000
00010000
00001000
00000000
,
01000000
00000000
00100000
00000000
10000000
01000000
10000000
00000000
,
00100000
00000000
01000000
00000000
00010000
00100000
00010000
00000000
,
00100000
00001000
00010000
00000100
,
00000010
00000000
00000001
00000000
00000100
00000010
00000100
00000000
,
00000010
00000000
00001000
00000000
00000100
00001000
00000100
00000000
,
00000010
00000000
00000001
00000000
00001000
00000010
00001000
00000000
,
00001010
00010010
00011000
00101000
,
00220000
00000000
00000000
00030000
,
02000000
00000000
00000000
03300000
,
01000000
00000000
00000000
10000000
00000000
00000000
00100000
00000000
,
01000000
00000000
00000000
00100000
00000000
00000000
10000000
00000000
,
00010000
00000000
00000000
00100000
00000000
00000000
00001000
00000000
,
00010000
00000000
00000000
00001000
00000000
00000000
01000000
00000000
,
00100000
00000000
00000000
10000000
00000000
10000000
00010000
00000000
,
00100000
00000000
00000000
01000000
00000000
01000000
00100000
00000000
,
00010000
00000000
00000000
01000000
00000000
01000000
00001000
00000000
,
00010000
00000100
00010000
00001000
,
00000010
00000001
00000010
00000000
00000001
00000000
00000100
00000000
,
00000010
00001000
00000010
00000000
00010000
00000000
00011000
00000000
,
00001000
00100000
00010000
00000000
01000000
00000000
00100000
00000000
,
10000000
01000000
00100000
00000000
01000000
00000000
10000000
00000000
,
00100000
01000000
00010000
00000000
00100000
00000000
01000000
00000000
,
00100000
00010000
00100000
00000000
00001000
00000000
00010000
00000000
,
00001000
00100000
00001000
00000000
00010000
00000000
00000100
00000000
,
00000010
00000001
00000010
00000000
00000100
00001000
00000100
00000000
,
00000010
00000001
00000100
00000000
00000010
00000000
00001000
00000000
,
00000100
00010000
00001000
00000000
00100000
00000000
00001000
00000000
,
00010000
00000100
00010000
00000000
00000100
00000000
00001000
00000000
,
00000010
00000000
00000100
00000000
00000001
00000010
00000001
00000010
,
00000001
00000100
00000010
00001000
,
00000100
00000000
00000000
00000000
00010000
00000000
00000000
00001000
00000000
00000000
00100000
00000000
00001000
00000000
00000000
00000000
,
00010000
00001000
00010000
00000000
00001000
00000000
00100000
00000000
,
00010000
00000000
01000000
00000000
00100000
10000000
00100000
10000000
,
00100000
01000000
00010000
00100000
,
00001000
00000000
00000000
00000000
00010000
00000000
00000000
00000100
00000000
00000000
00001000
00000000
00000100
00000000
00000000
00000000
,
00010000
00001000
00010000
00000000
00001000
00000000
00010000
00000000
,
00100000
00000000
10000000
00010000
01000000
00010000
10000000
01000000
,
00100000
00010000
01000000
00001000
,
00011000
00000000
00000000
00000000
00001000
00000000
00000000
00100000
00000000
00000000
00010000
00000000
01000000
00000000
00000000
00000000
,
00001000
00000000
00010000
00001000
00010000
00000000
00000100
00000010
,
00000001
00000100
00000010
00001000
00000100
00000000
00000010
00000001
,
00000100
00000000
00000000
00000000
00000010
00000000
00000000
00001000
00000000
00000000
00000100
00000000
00000000
00010000
00000000
00000000
,
00001000
00010000
00001000
00000000
00100000
00000000
00010000
00000000
,
01000000
01010000
00100000
10000000
,
01000000
00100000
01000000
00000000
00100000
00000000
00010000
00000000
,
01000000
01001000
00001000
00010000
,
00000100
00001000
00000100
00000000
00000010
00000000
00000001
00000000
,
00000100
00001001
00000010
00001000
,
00000100
00010000
00000100
00000000
00001000
00000000
00000010
00000000
,
00000100
00000000
00001001
00000000
00000010
00000000
00001000
00000100
,
00010000
00001000
00100000
00010000
,
01000000
00100000
01000000
00000000
00010000
00000000
00100000
00000000
,
01000000
10000000
01000000
00000000
00100000
00010000
00100000
00000000
,
01000000
00100000
00010000
00000000
01000000
00000000
00001000
00000000
,
00010000
00000100
00001000
00000000
00000010
00000000
00000100
00000000
,
00000010
00001000
00000010
00000000
00000100
00000000
00000001
00000000
,
00000010
00000001
00000010
00000000
00000100
00001000
00000100
00000000
,
00000010
00000001
00000100
00000000
00000010
00000000
00001000
00000000
,
00001100
00010100
00011000
00101000
,
00220000
00000000
00000000
00000000
,
00000000
00330000
00000000
00000000
;
