#TITLE:Baker Street;
#SUBTITLE:(Destination Calabria Remix);
#ARTIST:Natalie Marchenko;
#TITLETRANSLIT:;
#SUBTITLETRANSLIT:;
#ARTISTTRANSLIT:;
#GENRE:;
#CREDIT:;
#MENUCOLOR:;
#BANNER:Baker Street (Destination Calabria Remix)-bn.png;
#BACKGROUND:Baker Street (Destination Calabria Remix)-bg.png;
#LYRICSPATH:;
#CDTITLE:ddrencorecdtitle.png;
#MUSIC:Baker Street (Destination Calabria Remix).mp3;
#OFFSET:-0.085;
#SAMPLESTART:13.594;
#SAMPLELENGTH:15.000;
#SELECTABLE:YES;
#LISTSORT:;
#BPMS:0.000=127.994;
#STOPS:;
#TICKCOUNT:0.000=2;
#BGCHANGES:;
#KEYSOUNDS:;
#ATTACKS:;

//---------------dance-single - ----------------
#NOTES:
     dance-single:
     :
     Beginner:
     1:
     0.092,0.131,0.064,0.018,0.000:
0000
0000
0000
0000
,
0000
0000
0000
0000
,
0000
0000
0000
0000
,
0000
0000
0000
0000
,
0001
0000
0000
0000
,
0001
0000
0000
0000
,
1000
0000
0000
0000
,
1001
0000
0000
0000
,
0010
0000
0000
0000
,
0100
0000
0000
0000
,
0001
0000
0000
0000
,
1000
0000
0000
0000
,
0100
0000
0000
0000
,
0100
0000
0000
0000
,
0010
0000
0000
0000
,
1001
0000
0000
0000
,
0001
0000
0000
0000
,
1000
0000
0000
0000
,
0001
0000
0000
0000
,
0010
0000
0000
0000
,
0001
0000
0000
0000
,
0001
0000
0000
0000
,
0100
0000
0000
0000
,
1001
0000
0000
0000
,
0010
0000
0000
0000
,
0010
0000
0000
0000
,
0100
0000
0000
0000
,
0100
0000
0000
0000
,
0001
0000
0000
0000
,
0001
0000
0000
0000
,
1000
0000
0000
0000
,
1001
0000
0000
0000
,
0010
0000
0010
0000
,
0010
0000
1000
0000
,
0001
0000
0001
0000
,
0001
0000
0010
0000
,
0100
0000
0100
0000
,
0100
0000
1000
0000
,
0010
0000
0010
0000
,
1001
0000
0000
0000
,
0001
0000
0000
0000
,
0001
0000
0000
0000
,
1000
0000
0000
0000
,
1000
0000
0000
0000
,
0010
0000
0000
0000
,
0100
0000
0000
0000
,
0001
0000
0000
0000
,
1001
0000
0000
0000
,
1000
0000
0000
0000
,
0001
0000
0000
0000
,
0010
0000
0000
0000
,
0100
0000
0000
0000
,
0010
0000
0000
0000
,
0001
0000
0000
0000
,
1000
0000
0000
0000
,
0001
0000
1000
0000
,
2002
0000
0000
0000
,
3003
0000
0000
0000
;

//---------------dance-single - ----------------
#NOTES:
     dance-single:
     :
     Easy:
     3:
     0.194,0.209,0.184,0.174,0.000:
0000
0000
0000
0000
,
0000
0000
0000
0000
,
0000
0000
0000
0000
,
0000
0000
0000
0000
,
1000
0000
0010
0000
,
1000
0000
0001
0000
,
0100
0000
0001
0000
,
2002
0000
0000
3003
,
0002
0000
0000
0103
,
0101
0000
0010
1000
,
0200
0000
0000
1300
,
1100
0000
1000
0001
,
0020
0000
0000
0031
,
1000
0000
0010
0100
,
0002
0000
1000
0003
,
1001
0000
0110
0000
,
0010
0000
1000
0000
,
0010
0000
0100
0001
,
1000
0000
0100
0000
,
1000
0000
0100
1000
,
0001
0000
0100
0000
,
0001
0000
0100
0010
,
1000
0000
0001
0000
,
2002
0000
0000
3003
,
0001
0000
0100
0000
,
0001
0000
1000
1000
,
0100
0000
0010
0000
,
0100
0000
1000
1000
,
0001
0000
0100
0000
,
0010
0000
1000
1000
,
0001
0000
0010
0000
,
0220
0000
0000
0330
,
1001
0000
0000
0000
,
0101
0000
0000
0000
,
1001
0000
0000
0000
,
1100
0000
0000
0000
,
0110
0000
0000
0000
,
0011
0000
0000
0000
,
1100
0000
0000
0000
,
2002
0000
0000
3003
,
2000
0000
0000
3010
,
1010
0000
0010
0100
,
0002
0000
0000
0013
,
0100
0000
0010
0001
,
2000
0000
0001
3000
,
1001
0000
0010
0100
,
0020
0000
0100
0030
,
1001
0000
0110
0000
,
0010
0000
1000
0001
,
0100
0000
0010
0000
,
0100
0000
0001
1000
,
0100
0000
0010
0000
,
0100
0000
1000
0000
,
0010
0000
0100
0000
,
0001
0000
1000
0010
,
0200
0000
0001
0300
,
2002
0000
0000
0000
,
3003
0000
0000
0000
;

//---------------dance-single - ----------------
#NOTES:
     dance-single:
     :
     Medium:
     5:
     0.287,0.340,0.101,0.138,0.032:
0000
0000
0000
0000
,
0000
0000
0000
0000
,
0000
0000
0000
0000
,
0000
0000
0000
0000
,
1000
0000
0000
0001
0000
0000
1000
0000
,
0001
0000
0000
0100
0000
0000
0010
0000
,
1000
0000
0000
0001
0000
0000
1000
0000
,
0200
0000
0000
0300
,
0100
0020
0000
0000
0000
0000
0031
0000
,
1100
0000
1000
0010
,
0100
0002
0000
0000
0000
0000
1003
0000
,
0110
0000
1000
0001
,
0200
0000
0000
0000
0010
0000
0000
0000
0000
0000
0001
0000
0300
0001
0000
0000
,
1000
0000
0100
1000
,
0010
0000
0100
0000
0001
0010
0100
0000
,
1001
0000
1001
0010
,
0001
0100
1000
0100
,
0010
0000
0100
0010
,
1000
0100
0001
0100
,
1000
0000
0010
0100
,
0001
0000
0000
0000
0010
0000
0000
0000
0100
0000
0010
0000
0000
0010
0000
0000
,
0001
0000
1000
0010
,
1000
0100
0010
0001
,
0200
0000
0310
1001
,
0010
0010
0010
0010
,
0010
0000
0000
0000
0000
0000
0000
1000
0000
0000
0100
0000
1000
0000
0000
0000
,
0001
0001
0001
0001
,
0001
0000
0000
0000
0000
0000
0000
0100
0000
0000
0001
0000
0010
0000
0000
0000
,
0100
0100
0100
0100
,
0100
0000
0000
0000
0000
0000
0000
0010
0000
0000
1000
0000
0001
0000
0000
0000
,
1000
1000
1000
1000
,
2000
0000
3001
0100
,
0001
0000
0010
0000
0001
1000
0001
0000
,
1000
0000
0010
0000
0100
0001
0100
0000
,
0010
0000
1000
0000
0100
0010
0100
0000
,
1000
0100
0001
0100
,
1000
0000
0001
0000
0100
0010
1000
0000
,
0001
0000
0010
0000
0001
0100
0010
0000
,
1000
0000
0100
0000
0010
0001
1000
0000
,
2002
0000
0000
3003
,
1000
0200
0000
0000
0000
0000
1300
0000
,
0110
0000
0010
0001
,
1000
0200
0000
0000
0000
0000
0000
0000
,
0310
0000
0001
1000
,
0200
0000
0000
0000
0010
0000
0000
0000
0000
0000
1000
0000
0300
1000
0000
0000
,
0001
0000
0100
0010
,
1000
0000
0001
0000
0100
0010
1000
0000
,
2002
0000
0000
3003
1001
0000
0100
0000
,
0001
0000
0100
0000
0010
0000
1000
0100
,
1000
0000
0001
0100
,
0010
0000
1000
0000
0001
0000
0010
0100
,
0010
0000
0001
1000
,
0010
0000
0000
0000
1000
0000
0000
0000
0001
0000
0100
0000
0000
0100
0000
0000
,
0010
0000
0100
0010
,
1000
0000
0001
0000
0010
0000
0001
1000
,
0001
0000
0110
0000
0001
0100
0010
0000
,
2002
0000
0000
0000
,
3003
0000
0000
0000
;

//---------------dance-single - ----------------
#NOTES:
     dance-single:
     :
     Hard:
     9:
     0.547,0.550,0.303,0.211,0.418:
0000
0000
0000
0000
,
0000
0000
0000
0000
,
0000
0000
0000
0000
,
0000
0000
0000
0000
,
1000
0100
0000
1000
0100
0000
0010
0000
0000
0000
1000
0000
0000
0000
0010
0000
,
0001
0100
0000
0001
0100
0000
0010
0000
0000
0000
0001
0000
0000
0000
0010
0000
,
1000
0001
0000
1000
0001
0000
0100
0000
0000
0000
1000
0000
0000
0000
0100
0000
,
0002
0000
0000
0000
0000
0000
1000
0000
1000
0000
1003
0000
0000
0000
0010
1000
,
0010
0100
0002
0000
0000
0000
0000
0000
0000
0000
0013
0000
0000
0100
0000
0000
,
2100
0000
0000
0000
0000
0000
0010
0000
0010
0000
3010
0000
0000
0000
0100
0001
,
0100
0010
2000
0000
0000
0000
0000
0000
0000
0000
3001
0000
0000
0001
0100
0000
,
0201
0000
0000
0000
0000
0000
0010
0000
0010
0000
0310
0000
0000
0000
0100
0001
,
0200
0000
0000
0000
1000
0000
0000
0000
0010
0000
0301
0000
0000
1000
0000
0000
,
1020
0000
0000
0000
0000
0000
0100
0000
0100
0000
0130
0000
0000
0000
0010
1000
,
0010
0100
0001
0010
1000
0010
0100
1000
,
1001
0000
0000
0000
0000
0000
0000
0000
0110
0000
1000
0000
0001
1000
0010
0000
,
0100
0001
0000
0100
0001
0000
1000
0000
0000
0000
0010
0000
0000
0000
1001
0000
,
0001
0010
0000
0000
1100
0000
0000
0010
0100
0000
1000
0000
0010
0100
0000
0000
,
0010
1000
0000
0010
1000
0000
0001
0000
0000
0000
0010
0000
0000
0000
1001
0000
,
1000
0010
0000
0000
1100
0000
0000
0010
0001
0000
1000
0000
0010
0100
0000
0000
,
0020
0000
0000
0000
0001
0000
0000
0000
0100
0000
1030
0000
0000
0001
0000
0000
,
1100
0000
0000
0000
1001
0000
0000
0001
0100
0000
0001
0000
0010
0100
0000
0000
,
0010
0001
0000
0010
0001
0000
1000
0000
0000
0000
0010
0000
0000
0000
0110
0000
,
1002
0000
0000
0000
0000
0000
1003
0010
0100
0001
0000
0000
,
1000
0100
0010
0001
0100
1000
0100
0001
,
0010
0000
0000
0000
1001
0000
0000
0001
0000
0000
0100
0000
1100
0000
0000
0000
,
0001
0010
0100
1000
0010
0001
0010
1000
,
0100
0000
0000
0000
1001
0000
0000
0100
0010
0000
1000
0000
0001
0000
0001
0000
,
1000
0010
0100
0001
0010
1000
0010
0001
,
0100
0000
0000
0000
1001
0000
0000
1000
0000
0000
0010
0000
0011
0000
0000
0000
,
0001
0100
0010
1000
0100
0001
0100
1000
,
0020
0000
0000
0000
0000
0000
1030
0001
1000
0010
0000
0000
,
1000
0010
0000
0010
1000
0000
0001
0100
0000
0001
0100
0000
0010
0000
1000
0000
,
0001
0010
0000
0010
0001
0000
1000
0100
0000
1000
0001
0000
0200
0000
0000
0000
,
0310
1000
0000
1000
0010
0000
0100
0001
0000
0100
0010
0000
1000
0000
0001
0000
,
0010
0001
0000
0001
0010
0000
0100
1000
0000
0100
0010
0000
0200
0000
0000
0000
,
1300
0010
0000
0001
0010
0000
1000
0010
0000
0001
0010
0000
1000
0000
0100
0000
,
1000
0100
0000
0001
0100
0000
1000
0100
0000
0001
0100
0000
2000
0000
0000
0000
,
3001
0100
0000
1000
0100
0000
0001
0100
0000
1000
0100
0000
0001
0000
0010
0000
,
1200
0000
0000
0000
0000
0000
0010
0000
0010
0000
0310
0000
0000
0000
0010
0001
,
0010
0100
2000
0000
0000
0000
0000
0000
0000
0000
3010
0000
0000
1000
0000
0000
,
0102
0000
0000
0000
0000
0000
0010
0000
0010
0000
0013
0000
0000
0000
0001
1000
,
0001
0100
0020
0000
0000
0000
0000
0000
0000
0000
0000
0000
1030
0000
0000
0000
,
0200
0000
0000
0000
0000
0000
1000
0000
1000
0000
1300
0000
0000
0000
0001
0100
,
0102
0000
0000
0000
0010
0000
0000
0000
1000
0000
0103
0000
0000
0010
0000
0000
,
2001
0000
0000
0000
0000
0000
0100
0000
0100
0000
3100
0000
0000
0000
1000
0001
,
1000
0010
0100
0001
0010
0100
0001
0100
,
1100
0000
0000
0000
0000
0000
0000
0000
1001
0000
0010
0000
0001
0100
0010
0000
,
1000
0100
0000
1000
0100
0000
0001
0000
0000
0000
1000
0000
0000
0000
0101
0000
,
0100
1000
0000
0000
0011
0000
0000
0001
0100
0000
0010
0000
1000
0001
0000
0000
,
0010
0001
0000
0010
0001
0000
1000
0000
0000
0000
0010
0000
0000
0000
0011
0000
,
0010
1000
0000
0000
0101
0000
0000
0100
0010
0000
1000
0000
0001
0010
0000
0000
,
0002
0000
0000
0000
0010
0000
0000
0000
0100
0000
1003
0000
0000
0010
0000
0000
,
0101
0000
0000
0000
1010
0000
0000
1000
0001
0000
0010
0000
0100
1000
0000
0000
,
0100
0010
0000
0100
0010
0000
0001
0000
0000
0000
1000
0000
0000
0000
1010
0000
,
0010
0000
0100
0000
0001
0000
0010
0000
1100
0000
0010
0000
0001
1000
0010
0000
,
2002
0000
0000
0000
,
3003
0000
0000
0000
;

//---------------dance-double - ----------------
#NOTES:
     dance-double:
     :
     Easy:
     3:
     0.189,0.209,0.064,0.110,0.000:
00000000
00000000
00000000
00000000
,
00000000
00000000
00000000
00000000
,
00000000
00000000
00000000
00000000
,
00000000
00000000
00000000
00000000
,
00001000
00000000
00100000
00000000
,
00010000
00000000
01000000
00100000
,
10000000
00000000
00010000
00000000
,
20020000
00000000
30030000
00000000
,
10000000
00000000
01000000
00000000
,
10000000
00000000
00010000
01000000
,
00001000
00000000
00010000
00000000
,
00001000
00000000
00100000
01000000
,
10000000
00000000
00010000
00000000
,
01000000
00000000
00001000
00010000
,
00000100
00000000
00000100
00000000
,
00001001
00000000
00000000
00000000
,
00000010
00000000
00000100
00000000
,
00000010
00000000
00010000
00001000
,
00100000
00000000
00010000
00000000
,
01000000
00000000
00100000
10000000
,
00010000
00000000
01000000
00000000
,
00001000
00000000
00100000
01000000
,
10000000
00000000
00010000
00000000
,
02200000
00000000
03300000
00000000
,
00100000
00000000
00100000
00000000
,
00100000
00000000
00100000
00001000
,
00010000
00000000
00010000
00000000
,
00010000
00000000
00010000
00000010
,
00000100
00000000
00000100
00000000
,
00000100
00000000
00000100
00000010
,
00001000
00000000
00001000
00000000
,
00002002
00000000
00003003
00000000
,
00000001
00000100
00000001
00000000
,
00001000
00000010
00001000
00000000
,
00000100
00010000
00000100
00000000
,
00010000
00001000
00010000
00010000
,
00001000
01000000
00001000
00000000
,
00100000
00010000
00100000
00000000
,
01000000
10000000
01000000
00000000
,
00022000
00000000
00033000
00000000
,
00001000
00000000
00010000
00000000
,
00001000
00000000
00100000
00010000
,
01000000
00000000
00100000
00000000
,
01000000
00000000
00100000
10000000
,
00010000
00000000
10000000
00000000
,
01000000
00000000
00100000
01000000
,
10000000
00000000
10000000
00000000
,
02200000
00000000
03300000
00000000
,
00010000
00000000
00100000
00000000
,
00001000
00000000
00010000
00000100
,
00000010
00000000
00000001
00000000
,
00000100
00000000
00000010
00001000
,
00000001
00000000
00000100
00000000
,
00000100
00000000
00000010
00001000
,
00000100
00000000
00010000
00000000
,
00000100
00001000
00000010
00000100
,
00002002
00000000
00000000
00000000
,
00003003
00000000
00000000
00000000
;

//---------------dance-double - ----------------
#NOTES:
     dance-double:
     :
     Medium:
     5:
     0.300,0.340,0.156,0.165,0.037:
00000000
00000000
00000000
00000000
,
00000000
00000000
00000000
00000000
,
00000000
00000000
00000000
00000000
,
00000000
00000000
00000000
00000000
,
00010000
00001000
00100000
00000000
,
00010000
01000000
00001000
00000000
,
00100000
00010000
01000000
00000000
,
20020000
00000000
30030000
00000000
,
00020000
00000000
00000000
00130000
,
00110000
00000000
00100000
00001000
,
00020000
00000000
00000000
00031000
,
00011000
00000000
00010000
00000100
,
00002000
00000000
00000000
00000000
00000000
00000000
00000000
00000000
00000000
00000000
00000001
00000000
00003000
00000001
00000000
00000000
,
00000010
00000000
00000001
00001000
,
00000200
00000010
00000010
00000310
,
00001100
00000000
00011000
00010000
,
00001000
00100000
00001000
00010000
,
00001000
00000000
01000000
00100000
,
01000000
00010000
10000000
01000000
,
00100000
00000000
01000000
10000000
,
01000000
00000000
00000000
00000000
00100000
00000000
00000000
00000000
00010000
00000000
10000000
00000000
00000000
10000000
00000000
00000000
,
00100000
00000000
01000000
00010000
,
01000000
00001000
00010000
00000100
,
00022000
00000000
00000000
00000000
00000000
00000000
00000000
00000000
00000000
00033000
00000000
00000000
00010000
00000000
00001000
00000000
00010000
00000000
00001000
00000000
00000000
00000000
00000000
00000000
,
00010000
00000100
00001000
00001100
,
00001000
00000001
00000100
00000110
,
00000010
00001000
00000100
00010100
,
00010000
00000000
00001000
00000000
00010000
00001000
00010000
00000000
,
00001000
00100000
00010000
01010000
,
01000000
00100000
10000000
10010000
,
00010000
01000000
00001000
00011000
,
00200000
00000000
00000000
00000000
00000000
00000000
00301000
00010000
00001000
00010000
00000000
00000000
,
00001000
00000000
00010000
00000000
00000100
00001000
00000100
00000000
,
00000010
00000000
00000100
00000000
00001000
00000001
00000100
00000000
,
00000010
00000000
00001000
00000000
00000001
00000100
00000001
00000000
,
00001000
00000000
00000010
00000000
00010000
00001000
00010000
00001000
,
00100000
00000000
00010000
00000000
01000000
00100000
01000000
00000000
,
00010000
00000000
10000000
00000000
01000000
00100000
00010000
00000000
,
10000000
00000000
00010000
00000000
01000000
00001000
00010000
00000000
,
00011000
00000000
00010000
00000100
,
00002000
00000000
00000000
00003010
,
00001001
00000000
00000010
00000100
,
00000002
00000000
00000000
00000103
,
00000010
00000000
00001000
00000010
,
00020000
00000000
00000000
00000000
00000000
00000000
00000000
00000000
00000000
00000000
00031000
00000000
00000000
00001000
00000000
00000000
,
00010000
00000000
00001000
00100000
,
00020000
00100000
01000000
00130000
,
00022000
00000000
00000000
00033000
00011000
00000000
00010000
00000000
,
00000100
00001000
00000001
00000100
,
00000010
00000000
00000100
00000010
,
00001000
00000100
00010000
00000100
,
00001000
00000000
00000010
00010000
,
00001000
00000000
00000000
00000000
00100000
00000000
00000000
00000000
00001000
00000000
00010000
00000000
00000000
00010000
00000000
00000000
,
00001000
00100000
00010000
01000000
,
00200000
10000000
00010000
10300000
,
10000000
01000000
00100000
00000000
01000000
00100000
00010000
00000000
,
02200000
00000000
00000000
00000000
,
03300000
00000000
00000000
00000000
;

//---------------dance-double - ----------------
#NOTES:
     dance-double:
     :
     Hard:
     9:
     0.559,0.550,0.266,0.276,0.450:
00000000
00000000
00000000
00000000
,
00000000
00000000
00000000
00000000
,
00000000
00000000
00000000
00000000
,
00000000
00000000
00000000
00000000
,
00010000
00001000
00000000
00100000
00010000
00000000
01000000
00000000
00000000
00000000
00100000
00000000
00000000
00000000
10100000
00000000
,
10000000
00100000
00000000
10000000
00010000
00000000
01000000
00000000
00000000
00000000
00001000
00000000
00000000
00000000
00011000
00000000
,
00010000
00001000
00000000
00010000
00000010
00000000
00001000
00000000
00000000
00000000
00000001
00000000
00000000
00000000
00000101
00000000
,
00000020
00000000
00000000
00000000
00000000
00000000
00000100
00000000
00000130
00000000
00000001
00000000
00000000
00000000
00000001
00001000
,
00000100
00000010
00000200
00000000
00000000
00000000
00000000
00000000
00000000
00000000
00010300
00000000
00000000
00001000
00000000
00000000
,
00210000
00000000
00000000
00000000
00000000
00000000
00010000
00000000
00310000
00000000
10000000
00000000
00000000
00000000
10000000
00010000
,
01000000
00100000
02000000
00000000
00000000
00000000
00000000
00000000
00000000
00000000
03010000
00000000
00000000
01000000
00100000
00000000
,
20100000
00000000
00000000
00000000
00000000
00000000
00010000
00000000
30010000
00000000
10000000
00000000
00000000
00000000
10000000
00010000
,
02000000
00000000
00100000
00000000
00000000
00000000
00010000
00000000
00000000
00000000
03001000
00000000
00000000
01000000
00000000
00000000
,
10200000
00000000
00000000
00000000
00000000
00000000
01000000
00000000
01300000
00000000
00010000
00000000
00000000
00000000
00010000
10000000
,
02000000
00000000
00100000
00000000
03010000
01000000
00100000
00001000
,
00011000
00000000
00000000
00000000
00000000
00000000
00000000
00000000
00011000
00000000
00000000
00010000
00001000
00000000
00000010
00000000
,
00000100
00001000
00000000
00000100
00000010
00000000
00000001
00000000
00000100
00000000
00001000
00000000
00000100
00000000
00000010
00000000
,
00010000
00001000
00000000
00000000
00011000
00000000
00000000
00001000
00100000
00000000
00010000
00000000
01000000
00100000
00000000
00000000
,
10000000
00010000
00000000
10000000
00010000
00000000
10000000
00000000
00010000
00000000
00100000
00000000
10000000
00000000
00100000
00000000
,
00010000
01000000
00000000
00000000
01010000
00000000
00000000
01000000
00001000
00000000
00010000
00000000
00000100
00000000
00010000
00000000
,
00002000
00000000
00000000
00000000
00100000
00000000
00000000
00000000
00013000
00000000
00001000
00000000
00000000
00000010
00000000
00000000
,
00000110
00000000
00000000
00000000
00001001
00000000
00000000
00001000
00000010
00000000
00000100
00000000
00000001
00001000
00000000
00000000
,
00000001
00000100
00000000
00000001
00001000
00000000
00000010
00000000
00010000
00000000
00001000
00000000
00000010
00000000
00000001
00000000
,
00000220
00000000
00000000
00000000
00000000
00000000
00000000
00000000
00000000
00000330
00000000
00000000
00000001
00000000
00000010
00000000
00000100
00000000
00001000
00000000
00000000
00000000
00000000
00000000
,
00000100
00010000
00000000
00000100
00001000
00000000
00000100
00000000
00000000
00000000
00010000
00000000
00000000
00000000
00011000
00000000
,
00002000
00000000
00000000
00000000
00100000
00000000
00000000
00010000
00003000
00000000
00001000
00000000
01000000
00000000
00000000
00000000
,
00100000
10000000
00000000
00100000
01000000
00000000
00010000
00000000
00000000
00000000
10000000
00000000
00000000
00000000
11000000
00000000
,
02000000
00000000
00000000
00000000
00100000
00000000
00000000
03100000
00010000
00000000
10000000
00000000
00100000
00000000
00000000
00000000
,
10000000
01000000
00000000
10000000
00010000
00000000
01000000
00000000
00000000
00000000
00001000
00000000
00000000
00000000
00011000
00000000
,
00020000
00000000
00000000
00000000
00000100
00000000
00000000
00031000
00000000
00000000
00010000
00000000
00000010
00000000
00000000
00000000
,
00001000
00000010
00000000
00001000
00000001
00000000
00000100
00000000
00000000
00000000
00000010
00000000
00000000
00000000
00001001
00000000
,
00000200
00000000
00000000
00000000
00000000
00000000
00000000
00000000
00000000
00000000
00000000
00000000
00000310
00000000
00010000
00000000
00001000
00000000
00100000
00000000
00000000
00001000
00000000
00000000
,
00010000
00001000
00000000
00010000
00001000
00000000
00100000
00010000
00000000
00010000
00100000
00000000
00010000
00000000
01000000
00000000
,
00100000
10000000
00000000
00100000
10000000
00000000
01000000
00100000
00000000
00100000
01000000
00000000
20000000
00000000
00000000
00000000
,
30010000
00100000
00000000
00010000
00100000
00000000
00001000
00010000
00000000
00010000
00001000
00000000
00000100
00000000
00000010
00000000
,
00001000
00000100
00000000
00001000
00000100
00000000
00000010
00001000
00000000
00001000
00000010
00000000
00000002
00000000
00000000
00000000
,
00000103
00000010
00000000
00000100
00000010
00000000
00001000
00000001
00000000
00000001
00001000
00000000
00000010
00000000
00010000
00000000
,
00001000
00010000
00000000
00001000
00010000
00000000
01000000
00100000
00000000
00100000
01000000
00000000
20000000
00000000
00000000
00000000
,
30010000
01000000
00000000
00010000
01000000
00000000
00100000
00010000
00000000
00010000
00100000
00000000
10000000
00000000
00010000
00000000
,
02000000
00000000
00000000
00000000
00000000
00000000
00010000
00000000
03010000
00000000
10000000
00000000
00000000
00000000
10000000
01000000
,
00100000
00010000
00200000
00000000
00000000
00000000
00001000
00000000
00000000
00000000
00310000
00000000
00000000
00100000
00000000
00000000
,
21000000
00000000
00000000
00000000
00000000
00000000
00010000
00000000
30010000
00000000
01000000
00000000
00000000
00000000
00001000
00010000
,
00000100
00001000
00000200
00000000
00000000
00000000
00000000
00000000
00010000
00000000
00000000
00000000
00001300
00000000
00000000
00000000
,
00002100
00000000
00000000
00000000
00000000
00000000
00000010
00000000
00003010
00000000
00001000
00000000
00000000
00000000
00000001
00000100
,
00000002
00000000
00000000
00000000
00000010
00000000
00000000
00000000
00001003
00000000
00000001
00000000
00000000
00000100
00000000
00000000
,
00000210
00000000
00000000
00000000
00000000
00000000
00000010
00000000
00000310
00000000
00001000
00000000
00000000
00000000
00000100
00001000
,
00000100
00000001
00000100
00010000
00000100
00001000
00000001
00000100
,
00000220
00000000
00000000
00000000
00000000
00000000
00000330
00000000
00000110
00000000
00001000
00000000
00000001
00000100
00000001
00000000
,
00001000
00000100
00000000
00000010
00000001
00000000
00000010
00000000
00000100
00000000
00010000
00000000
00001000
00000000
01000000
00000000
,
00010000
00100000
00000000
00000000
00110000
00000000
00000000
00010000
10000000
00000000
00100000
00000000
01000000
00010000
00000000
00000000
,
01000000
00001000
00000000
01000000
00010000
00000000
00100000
00000000
00001000
00000000
00010000
00000000
00000100
00000000
00000010
00000000
,
00000100
00001000
00000000
00000000
00001100
00000000
00000000
00000100
00000010
00000000
00000001
00000000
00001000
00000000
00000010
00000000
,
00000200
00000000
00000000
00000000
00001000
00000000
00000000
00000000
00000301
00000000
00000100
00000000
00000000
00000010
00000000
00000000
,
00000110
00000000
00000000
00000000
00001001
00000000
00000000
00000001
00000100
00000000
00000010
00000000
00001000
00000100
00000000
00000000
,
00001000
00000001
00000000
00001000
00000010
00000000
00000100
00000000
00000001
00000000
00001000
00000000
00000000
00000010
00000000
00000000
,
00011000
00000000
00001000
00000000
00100000
00000000
00010000
00000000
01100000
00000000
10000000
00000000
00010000
01000000
00010000
00000000
,
20020000
00000000
00000000
00000000
,
30030000
00000000
00000000
00000000
;
