#TITLE:Bach Is Back;
#SUBTITLE:;
#ARTIST:Hyena;
#TITLETRANSLIT:;
#SUBTITLETRANSLIT:;
#ARTISTTRANSLIT:;
#GENRE:;
#CREDIT:;
#MENUCOLOR:;
#BANNER:BachIsBack.png;
#BACKGROUND:BachIsBack-bg.png;
#LYRICSPATH:;
#CDTITLE:ddrencorecdtitle.png;
#MUSIC:Bach Is Back.mp3;
#OFFSET:-0.042;
#SAMPLESTART:43.380;
#SAMPLELENGTH:14.400;
#SELECTABLE:YES;
#LISTSORT:;
#BPMS:0.000=132.880;
#STOPS:188.000=1.355
;
#TICKCOUNT:0.000=2;
#BGCHANGES:;
#KEYSOUNDS:;
#ATTACKS:;

//---------------dance-single - ----------------
#NOTES:
     dance-single:
     :
     Hard:
     8:
     0.492,0.462,0.035,0.035,0.091:
0000
0000
0000
0000
,
0000
0000
0000
0000
,
0000
0000
0000
0000
,
0000
0000
0000
0000
,
0000
0000
0000
0000
,
0000
0000
0000
0000
,
0000
0000
0000
0000
,
0000
0000
0000
0000
,
1000
0100
1000
0000
0010
1000
0100
1000
,
0001
1000
0001
0000
0100
0010
0100
0001
,
0100
0010
0100
0000
0010
1000
0010
1000
,
0100
1000
0100
0000
0010
0001
0010
0001
,
0100
0001
0100
0000
0010
1000
0001
1000
,
0001
1000
0100
0000
0010
0001
1000
0001
,
0100
0010
0100
0000
0001
1000
0001
0000
,
0011
0100
1000
0001
,
1100
0000
0100
1000
0000
0100
1000
0000
0000
0001
0000
0000
0100
0000
0000
0000
,
0010
0000
1000
0010
0000
1000
0010
0000
0000
0100
0000
0000
0001
0000
0000
0000
,
0010
0000
0001
1000
0000
0001
1000
0000
0000
0100
0000
0000
0010
0000
0000
0000
,
0001
0000
0100
0010
0000
0100
0010
0000
0000
1000
0000
0000
0100
0000
0000
0000
,
0010
0000
0001
1000
0000
0001
1000
0000
0000
0100
0000
0000
0010
0000
0000
0000
,
0001
0000
0100
0010
0000
0100
0010
0000
0000
1000
0000
0000
0100
0000
0000
0000
,
0001
0000
0100
1000
0000
0100
1000
0000
0000
0100
0000
0000
1010
0000
0000
0000
,
1000
0100
0001
0100
1000
0100
0001
0100
,
1000
0010
0100
0001
1000
0010
0100
0001
,
1000
0100
1000
0001
1000
0100
0010
0001
,
0010
0100
0010
1000
0010
0100
0010
0001
,
0010
0100
1000
0100
0001
0100
0010
0100
,
1000
0010
1000
0001
0100
0010
0100
1000
,
0100
0010
0100
0001
0100
0010
1000
0001
,
0010
0100
1000
0001
0010
0001
1000
0001
,
0100
0010
0100
1000
0100
0001
1000
0001
,
0010
0100
1000
0001
1000
0100
0010
0001
,
1000
0001
0100
0010
1000
0001
1000
0010
,
1000
0100
1000
0001
1000
0100
0010
0001
,
0100
0010
0100
0001
1000
0001
0010
0001
,
0100
0010
0100
0001
1000
0001
0100
0010
,
0100
0001
0010
0100
1000
0001
1000
0100
,
0010
0001
1000
0001
0010
0100
1000
0010
,
1000
0100
0010
0001
1000
0001
0100
0010
,
1000
0200
0010
1300
,
0010
0000
0100
0000
0001
0000
0010
0100
,
0010
0100
2000
0000
0001
0000
3001
0000
,
1000
0100
0010
0001
,
1000
0010
0200
0000
1000
0000
0010
0000
,
0301
0000
0100
0000
0001
0000
1000
0001
,
1000
0001
0200
0000
0010
0000
0310
0000
,
1001
0000
1000
0100
1000
1000
0010
1000
,
0100
0010
0001
0100
0001
0001
0010
0100
,
1000
0001
0100
0010
1000
1000
0100
0001
,
0100
0010
0001
0010
0100
0100
0010
1000
,
0010
0100
1000
0001
1000
1000
0100
0001
,
0100
1000
0010
1000
0001
0001
1000
0010
,
1000
0100
0010
0001
1000
1000
0010
1000
,
0100
0010
0001
1000
0010
0010
1000
0100
,
0001
0100
1000
0010
0100
0100
0001
1000
,
0100
0010
0001
0100
1000
1000
0100
0001
,
0100
1000
0100
0010
0100
0100
0001
0010
,
0100
1000
0010
0100
0001
0001
0100
0010
,
0100
0010
0100
1000
0100
0100
0001
0100
,
0001
0100
0010
0001
0010
0001
0010
1000
,
0010
1000
0001
0000
0001
0000
0001
0000
,
0001
1000
1000
1000
,
1000
0000
0000
0000
;

//---------------dance-single - ----------------
#NOTES:
     dance-single:
     :
     Medium:
     7:
     0.368,0.408,0.009,0.000,0.000:
0000
0000
0000
0000
,
0000
0000
0000
0000
,
0000
0000
0000
0000
,
0000
0000
0000
0000
,
0000
0000
0000
0000
,
0000
0000
0000
0000
,
0000
0000
0000
0000
,
0000
0000
0000
0000
,
1000
0010
1000
0000
0001
0000
0100
0000
,
0010
0100
0010
0000
0100
0000
0001
0000
,
1000
0001
1000
0000
0010
0000
1000
0000
,
0001
0100
0010
0000
1000
0000
0001
0000
,
1000
0100
0001
0000
0100
0000
1000
0000
,
0001
0100
1000
0000
0100
0000
0001
0000
,
1000
0010
0001
0000
0010
0000
1000
0000
,
0001
0010
1000
0000
0010
0000
0001
0000
,
1000
0001
1000
0000
0000
0010
1000
0000
,
0001
0100
0001
0000
0000
1000
0100
0000
,
0010
0001
0010
0000
0000
0100
1000
0000
,
0010
1000
0010
0000
0000
1000
0001
0000
,
0100
0010
0100
0000
0000
0001
1000
0000
,
0010
0100
0010
0000
0000
1000
0001
0000
,
1000
0100
1000
0000
0000
0010
0100
0000
,
0001
0100
0001
0000
1000
0100
1000
0000
,
0001
0000
0001
0000
1000
0001
1000
0000
,
0010
0100
0001
0000
0010
0100
1000
0000
,
0001
0000
0001
0000
1000
0100
0010
0000
,
0001
1000
0100
0000
1000
0001
0100
0000
,
0010
0000
0010
0000
1000
0010
0100
0000
,
0001
0010
0100
0000
1000
0100
0001
0000
,
0100
0000
0010
0000
0001
1000
0100
0000
,
1000
0010
0100
0000
1000
0100
0001
0000
,
1000
0000
0001
0000
1000
0100
0010
0000
,
0001
0100
0010
0000
1000
0100
0010
0000
,
0001
0000
1000
0000
0001
0010
0100
0000
,
1000
0010
0001
0000
0001
0010
1000
0000
,
0001
0000
1000
0000
0001
0100
1000
0000
,
1000
0100
0001
0000
1000
0100
0010
0000
,
0001
0000
0100
0000
0010
1000
0001
0000
,
0010
0100
1000
0000
0010
0100
1001
0000
,
0100
1000
0010
0100
,
0001
0010
0100
1000
,
0010
1000
0001
0100
,
1000
0100
0001
0010
,
0100
1000
0010
0100
,
0001
0010
0100
1000
,
0001
0100
1000
0100
,
0000
0000
0001
0100
0001
0100
0001
0100
,
0001
0000
1000
0010
1000
0010
1000
0010
,
1000
0000
0001
1000
0001
1000
0001
1000
,
0001
0000
0100
0010
0100
0010
0100
0010
,
0100
0000
0010
1000
0010
1000
0010
1000
,
0010
0000
1000
0100
1000
0100
1000
0100
,
1000
0000
0001
0010
0001
0010
0001
0010
,
0001
0000
1000
0001
1000
0001
1000
0001
,
1000
0000
0001
0100
0001
0000
1000
0100
,
1000
0000
0001
0100
0001
0000
1000
0100
,
1000
0000
0001
0100
0001
0000
1000
0001
,
1000
0000
0100
1000
0100
0000
1000
0001
,
1000
0000
0010
1000
0010
0000
1000
0001
,
1000
0000
0001
0010
0001
0000
1000
0001
,
1000
0010
1000
0001
,
0010
0100
1000
0001
,
0100
0000
0000
0000
;

//---------------dance-single - ----------------
#NOTES:
     dance-single:
     :
     Easy:
     4:
     0.223,0.245,0.000,0.000,0.000: // measure 1
0000
0000
0000
0000
,  // measure 2
0000
0000
0000
0000
,  // measure 3
0000
0000
0000
0000
,  // measure 4
0000
0000
0000
0000
,  // measure 5
0000
0000
0000
0000
,  // measure 6
0000
0000
0000
0000
,  // measure 7
0000
0000
0000
0000
,  // measure 8
0000
0000
0000
0000
,  // measure 9
1000
0010
1000
0000
,  // measure 10
0100
0010
0001
0100
,  // measure 11
0010
0100
0001
0000
,  // measure 12
1000
0010
1000
0001
,  // measure 13
0100
0010
1000
0000
,  // measure 14
0001
0010
0001
1000
,  // measure 15
0100
0010
0001
0000
,  // measure 16
1000
0010
0100
0001
,  // measure 17
1000
0000
0001
0000
,  // measure 18
1000
0001
1000
0001
,  // measure 19
0010
0100
0010
0000
,  // measure 20
0100
0010
0100
1000
,  // measure 21
0001
1000
0001
0000
,  // measure 22
1000
0010
1000
0010
,  // measure 23
0100
0001
0100
0000
,  // measure 24
0001
0010
0100
1000
,  // measure 25
0001
0000
1000
0000
,  // measure 26
0010
0100
0001
0010
,  // measure 27
0100
0000
1000
0000
,  // measure 28
0010
1000
0001
0100
,  // measure 29
0010
0000
1000
0000
,  // measure 30
0100
0010
0001
1000
,  // measure 31
0100
0000
0010
0000
,  // measure 32
0001
0100
0010
1000
,  // measure 33
0001
0000
1000
0000
,  // measure 34
0001
1000
0010
0100
,  // measure 35
0001
0000
1000
0000
,  // measure 36
0001
0010
0100
1000
,  // measure 37
0001
0000
1000
0000
,  // measure 38
0100
0010
0001
1000
,  // measure 39
0100
0000
0010
0000
,  // measure 40
0001
1000
0010
0100
,  // measure 41
0001
0000
0010
0000
,  // measure 42
0100
0000
1000
0000
,  // measure 43
0010
0000
0100
0000
,  // measure 44
0001
0000
1000
0000
,  // measure 45
0100
0000
0010
0000
,  // measure 46
0001
0000
1000
0000
,  // measure 47
0001
0000
0100
0000
,  // measure 48
0000
0010
1000
0100
,  // measure 49
0010
0001
0100
0010
,  // measure 50
1000
0001
0010
0100
,  // measure 51
1000
0001
0100
0010
,  // measure 52
1000
0100
0010
0001
,  // measure 53
1000
0100
0010
0001
,  // measure 54
0010
0100
1000
0001
,  // measure 55
0010
1000
0010
0001
,  // measure 56
0100
0010
0100
0001
,  // measure 57
1000
0100
0010
0001
,  // measure 58
0100
1000
0100
0001
,  // measure 59
0010
0100
1000
0001
,  // measure 60
0100
0010
1000
0010
,  // measure 61
0100
0001
0010
0100
,  // measure 62
1000
0001
0100
0001
,  // measure 63
0100
1000
0100
1000
,  // measure 64
0100
0000
0000
0000
;

//---------------dance-single - ----------------
#NOTES:
     dance-single:
     :
     Beginner:
     2:
     0.157,0.163,0.000,0.000,0.000:
0000
0000
0000
0000
,
0000
0000
0000
0000
,
0000
0000
0000
0000
,
0000
0000
0000
0000
,
0000
0000
0000
0000
,
0000
0000
0000
0000
,
0000
0000
0000
0000
,
0000
0000
0000
0000
,
1000
0000
1000
0000
,
0010
0000
0100
0000
,
0001
0000
0010
0000
,
0100
0000
1000
0000
,
0001
0000
0010
0000
,
0100
0000
1000
0000
,
0010
0000
0100
0000
,
0001
0000
1000
0000
,
0001
0000
0010
0000
,
0100
0000
1000
0000
,
0001
0000
0100
0000
,
0010
0000
1000
0000
,
0100
0000
0010
0000
,
0100
0000
0010
0000
,
0001
0000
0100
0000
,
0010
0000
1000
0000
,
0001
0000
0001
0000
,
1000
0000
1000
0000
,
0010
0000
0010
0000
,
0100
0000
0100
0000
,
0001
0000
0001
0000
,
1000
0000
1000
0000
,
0100
0000
0100
0000
,
0010
0000
0010
0000
,
0001
0000
1000
0000
,
1000
0000
0010
0000
,
0010
0000
0100
0000
,
0100
0000
0001
0000
,
0001
0000
0010
0000
,
0010
0000
0100
0000
,
0100
0000
1000
0000
,
1000
0000
0001
0000
,
0001
0000
0100
0000
,
1000
0000
0100
0000
,
0001
0000
0010
0000
,
1000
0000
0010
0000
,
0001
0000
0100
0000
,
0010
0000
1000
0000
,
0001
0000
0010
0000
,
0000
0001
0001
0001
,
0000
1000
1000
1000
,
0000
0010
0010
0010
,
0000
0100
0100
0100
,
0000
0001
0001
0001
,
0000
1000
1000
1000
,
0000
0100
0100
0100
,
0000
0010
0010
0010
,
0000
0001
0001
0001
,
0000
0100
0100
0100
,
0000
0010
0010
0010
,
0000
1000
1000
1000
,
0000
0100
0100
0100
,
0000
0010
0010
0010
,
0000
0001
0001
0001
,
0000
1000
1000
1000
,
1000
0000
0000
0000
;

//---------------dance-double - ----------------
#NOTES:
     dance-double:
     :
     Hard:
     8:
     0.472,0.490,0.026,0.060,0.173:
00000000
00000000
00000000
00000000
,
00000000
00000000
00000000
00000000
,
00000000
00000000
00000000
00000000
,
00000000
00000000
00000000
00000000
,
00000000
00000000
00000000
00000000
,
00000000
00000000
00000000
00000000
,
00000000
00000000
00000000
00000000
,
00000000
00000000
00000000
00000000
,
11000000
00000000
00000000
01000000
00000000
00000000
00100000
00000000
00000000
00001000
00000000
00000000
00010000
00000000
00000000
00000000
,
00000100
00000000
00000000
00001000
00000000
00000000
00000010
00000000
00000000
00000100
00000000
00000000
00000001
00000000
00000000
00000000
,
00000010
00000000
00000000
00000100
00000000
00000000
00010000
00000000
00000000
00001000
00000000
00000000
01000000
00000000
00000000
00000000
,
00100000
00000000
00000000
10000000
00000000
00000000
01000000
00000000
00000000
00100000
00000000
00000000
00001000
00000000
00000000
00000000
,
00010000
00000000
00000000
00000100
00000000
00000000
00001000
00000000
00000000
00000010
00000000
00000000
00000001
00000000
00000000
00000000
,
00000010
00000000
00000000
00000100
00000000
00000000
00000001
00000000
00000000
00001000
00000000
00000000
00000100
00000000
00000000
00000000
,
00010000
00000000
00000000
00001000
00000000
00000000
01000000
00000000
00000000
10000000
00000000
00000000
01000000
00000000
00000000
00000000
,
00010000
00000000
00000000
10000000
00000000
00000000
00100000
00000000
00000000
00001000
00000000
00000000
00000010
00000000
00000000
00000000
,
00000110
00000000
00000100
00000001
00000000
00000100
00000001
00000000
00000000
00000010
00000000
00000000
00000100
00000000
00000000
00000000
,
00001000
00000000
00000100
00010000
00000000
00000100
00010000
00000000
00000000
00001000
00000000
00000000
01000000
00000000
00000000
00000000
,
00010000
00000000
01000000
00100000
00000000
01000000
00100000
00000000
00000000
10000000
00000000
00000000
01000000
00000000
00000000
00000000
,
00100000
00000000
00001000
00100000
00000000
00001000
00100000
00000000
00000000
00001000
00000000
00000000
00010000
00000000
00000000
00000000
,
00000100
00000000
00010000
00000100
00000000
00010000
00000100
00000000
00000000
00000010
00000000
00000000
00000100
00000000
00000000
00000000
,
00000010
00000000
00000001
00001000
00000000
00000001
00001000
00000000
00000000
00000010
00000000
00000000
00000100
00000000
00000000
00000000
,
00000001
00000000
00000100
00000010
00000000
00000100
00000010
00000000
00000000
00001000
00000000
00000000
00000100
00000000
00000000
00000000
,
00010000
00000000
00001000
01000000
00000000
00001000
01000000
00000000
00000000
00010000
00000000
00000000
10000000
00000000
00000000
00000000
,
01010000
01000000
00100000
10000000
01000000
00010000
01000000
00100000
,
00010000
01000000
00001000
01000000
00010000
01000000
00001000
00010000
,
00000100
00000010
00000001
00000100
00000010
00000100
00000001
00001000
,
00000100
00010000
00000100
00001000
00000100
00010000
00000100
00001000
,
00000010
00000100
00000001
00001000
00000010
00000100
00000001
00001000
,
00000100
00010000
00001000
01000000
00010000
10000000
01000000
10000000
,
00010000
01000000
00100000
10000000
01000000
00100000
00001000
00010000
,
00000100
00010000
00001000
00010000
00000100
00010000
00001000
00010000
,
00000100
00000010
00000100
00001000
00000100
00000010
00000100
00001000
,
00000001
00000100
00000010
00000100
00000001
00000100
00000010
00000100
,
00000001
00001000
00000100
00010000
00001000
00100000
00010000
01000000
,
00100000
10000000
00100000
01000000
00100000
10000000
00100000
01000000
,
00010000
10000000
01000000
00100000
00010000
00100000
00001000
00010000
,
00000100
00010000
00001000
00010000
00000100
00010000
00001000
01000000
,
00010000
10000000
01000000
00100000
00010000
00001000
00000100
00001000
,
00000100
00000010
00000100
00001000
00000100
00000010
00000100
00001000
,
00000010
00000200
00000001
00001000
,
00000010
00000320
00001000
00000100
,
00000100
00002030
00000100
00000010
,
00000010
00003200
00010000
00001000
,
00001000
00020300
00001000
00000100
,
00000100
00032000
00100000
00010000
,
00010000
02003000
00010000
00100000
,
03100000
00000000
10000000
00100000
10000000
01000000
00010000
01000000
,
10000000
00010000
10000000
00100000
01000000
00010000
00100000
00001000
,
00010000
00000010
00001000
00000100
00000001
00000100
00000010
00000001
,
00001000
00000100
00000010
00000100
00001000
00000001
00000010
00000100
,
00001000
00000001
00000100
00000010
00001000
00000100
00010000
00001000
,
01000000
00100000
01000000
00010000
10000000
01000000
10000000
00010000
,
01000000
00100000
10000000
01000000
00100000
00001000
00010000
00000010
,
00001000
00000001
00000100
00000010
00000100
00000001
00001000
00000100
,
00000010
00000100
00010000
00001000
01000000
00010000
00100000
01000000
,
10000000
00010000
01000000
00100000
01000000
00010000
00100000
01000000
,
10000000
00010000
01000000
00100000
10000000
01000000
00100000
00001000
,
00010000
00000100
00000010
00000001
00000100
00000010
00001000
00000100
,
00000010
00000001
00000100
00000010
00000100
00000001
00001000
00000100
,
00000010
00000001
00001000
00000010
00001000
00000100
00010000
00001000
,
01000000
00100000
10000000
00000000
01000000
00000000
00100000
00000000
,
00001000
00010000
00000100
00000010
,
00000001
00000000
00000000
00000000
;

//---------------dance-double - ----------------
#NOTES:
     dance-double:
     :
     Medium:
     7:
     0.356,0.379,0.026,0.000,0.000:
00000000
00000000
00000000
00000000
,
00000000
00000000
00000000
00000000
,
00000000
00000000
00000000
00000000
,
00000000
00000000
00000000
00000000
,
00000000
00000000
00000000
00000000
,
00000000
00000000
00000000
00000000
,
00000000
00000000
00000000
00000000
,
00000000
00000000
00000000
00000000
,
11000000
00000000
01000000
00000000
00000000
00100000
00100000
00000000
,
00001000
00000000
00010000
00000000
00000000
00000100
00000100
00000000
,
00000010
00000000
00000001
00000000
00000000
00000100
00000100
00000000
,
00000010
00000000
00001000
00000000
00000000
00000100
00000100
00000000
,
00010000
00000000
00001000
00000000
00000000
01000000
01000000
00000000
,
00100000
00000000
10000000
00000000
00000000
00010000
00010000
00000000
,
00100000
00000000
00001000
00000000
00000000
00010000
00010000
00000000
,
00000100
00000010
00000001
00000100
,
00000010
00000000
00001000
00000000
00000010
00000100
00000010
00000000
,
00010000
00000000
00001000
00000000
01000000
00100000
01000000
00000000
,
00010000
00000000
10000000
00000000
00100000
01000000
00100000
00000000
,
01000000
00000000
10000000
00000000
01000000
00010000
01000000
00000000
,
00010000
00000000
00100000
00000000
00001000
00010000
00001000
00000000
,
00010000
00000000
00000010
00000000
00000100
00000001
00000100
00000000
,
00000010
00000000
00001000
00000000
00000100
00000010
00000100
00000000
,
00000010
00000000
00000001
00000000
00001000
00000001
00001000
00000000
,
00000110
00000000
00001000
00000100
00000001
00000000
00000001
00000100
,
00001000
00000000
00010000
00100000
10000000
00000000
10000000
00100000
,
00010000
00000000
01000000
00100000
10000000
00000000
01000000
00100000
,
00001000
00000000
00100000
00001000
00010000
00000000
00000100
00000010
,
00000001
00000000
00000100
00000010
00001000
00000000
00000100
00010000
,
00001000
00000000
01000000
10000000
01000000
00000000
00010000
10000000
,
00010000
00000000
00100000
00001000
00010000
00000000
00000010
00001000
,
00000100
00000000
00000010
00000001
00000100
00000000
00000001
00000010
,
00000100
00000000
00001000
00000100
00010000
00000000
00001000
01000000
,
00100000
00000000
10000000
01000000
00010000
00000000
00010000
01000000
,
10000000
00000000
00010000
10000000
00100000
00000000
10000000
00100000
,
00010000
00000000
00100000
01000000
00010000
00000000
00100000
00001000
,
00010000
00000000
00000100
00000010
00000001
00000000
00000100
00000010
,
00000100
00000000
00000001
00001000
00000100
00000000
00000010
00000100
,
00000010
00000000
00000100
00010000
00001000
00000000
01000000
00010000
,
10000000
00000000
01000000
00100000
01000000
00000000
10000000
00100000
,
01000000
01000000
00010000
00100000
,
00001000
00010000
00001000
00010000
,
00000100
00001000
00000010
00000010
,
00000100
00000001
00000100
00000001
,
00000010
00000100
00010000
00010000
,
00001000
01000000
00001000
01000000
,
00010000
10000000
00010000
10000000
,
00000000
00000000
10010000
00000000
10000000
01000000
00010000
00000000
,
01000000
01000000
00100000
00000000
00001000
00010000
00000010
00000000
,
00000100
00000100
00000001
00000000
00001000
00000100
00000010
00000000
,
00000001
00000001
00000100
00000000
00000001
00000010
00000100
00000000
,
00001000
00001000
00000100
00000000
00010000
00001000
01000000
00000000
,
00010000
00010000
10000000
00000000
00100000
01000000
00010000
00000000
,
00100000
00100000
00001000
00000000
00010000
00000010
00000100
00000000
,
00000001
00000001
00000010
00000000
00000100
00001000
00000001
00000000
,
00000100
00000100
00000010
00000000
00001000
00000100
00010000
00000000
,
00001000
00001000
01000000
00000000
00010000
10000000
00100000
00000000
,
01000000
01000000
10000000
00000000
01000000
00100000
01000000
00000000
,
00010000
00010000
00100000
00000000
01000000
10000000
00010000
00000000
,
00100000
00100000
00001000
00000000
00010000
00000010
00000100
00000000
,
00000001
00000001
00000010
00000000
00000100
00010000
00001000
00000000
,
01000000
00010000
10000000
00100000
,
01000000
00010000
10000000
01000000
;

//---------------dance-double - ----------------
#NOTES:
     dance-double:
     :
     Easy:
     4:
     0.234,0.271,0.026,0.060,0.000:
00000000
00000000
00000000
00000000
,
00000000
00000000
00000000
00000000
,
00000000
00000000
00000000
00000000
,
00000000
00000000
00000000
00000000
,
00000000
00000000
00000000
00000000
,
00000000
00000000
00000000
00000000
,
00000000
00000000
00000000
00000000
,
00000000
00000000
00000000
00000000
,
11000000
01000000
00100000
00000000
,
00001000
00010000
00001000
00000000
,
00010000
00000100
00001000
00000000
,
00000010
00000100
00000010
00000000
,
00000100
00000001
00001000
00000000
,
00000100
00000010
00000100
00000000
,
00010000
00001000
01000000
00000000
,
00010000
10000000
00010000
00000000
,
00100000
01000000
10000000
00000000
,
00100000
01000000
00010000
00000000
,
00100000
00001000
00010000
00000000
,
00000100
00001000
00000010
00000000
,
00000100
00000001
00001000
00000000
,
00000100
00000010
00000001
00000000
,
00000100
00000001
00001000
00000000
,
00000100
00000010
00000001
00000000
,
00001001
00000010
00001000
00001000
,
00000100
00000100
00010000
00010000
,
00001000
00001000
01000000
01000000
,
00100000
00100000
10000000
10000000
,
01000000
01000000
00100000
00100000
,
00010000
00010000
01000000
01000000
,
00001000
00001000
00010000
00010000
,
00000100
00000100
00001000
00001000
,
00000010
00000010
00000100
00000100
,
00000001
00000001
00000010
00000010
,
00000100
00000100
00001000
00001000
,
00000010
00000010
00000100
00000100
,
00000001
00000001
00001000
00001000
,
00000100
00000100
00010000
00010000
,
00001000
00001000
01000000
01000000
,
00100000
00100000
10000000
00010000
,
02000000
00000000
00000000
00000000
,
03200000
00000000
00000000
00000000
,
20300000
00000000
00000000
00000000
,
30020000
00000000
00000000
00000000
,
00230000
00000000
00000000
00000000
,
00302000
00000000
00000000
00000000
,
00023000
00000000
00000000
00000000
,
00031000
00011000
00000100
00000010
,
00000010
00000001
00000100
00000001
,
00000100
00000010
00000010
00001000
,
00001000
00000100
00010000
00000100
,
00010000
00001000
00001000
01000000
,
01000000
00010000
10000000
00010000
,
10000000
00100000
00100000
01000000
,
01000000
00010000
00100000
00010000
,
00100000
00001000
00001000
00010000
,
00010000
00000100
00000010
00000100
,
00000010
00000001
00000001
00000100
,
00000100
00000010
00001000
00000010
,
00001000
00000100
00000100
00010000
,
00010000
00001000
01000000
00001000
,
01000000
00010000
00000000
00010000
,
00000000
10000000
00000000
10000000
;
