#TITLE:BABY BABY GIMMIE YOUR LOVE;
#SUBTITLE:(Cyber Electronica R+B Mix);
#ARTIST:TERRA;
#TITLETRANSLIT:;
#SUBTITLETRANSLIT:;
#ARTISTTRANSLIT:;
#GENRE:;
#CREDIT:;
#BANNER:BABY BABY GIMMIE YOUR LOVE (Cyber Electronica R+B Mix)-bn.png;
#BACKGROUND:BABY BABY GIMMIE YOUR LOVE (Cyber Electronica R+B Mix).png;
#LYRICSPATH:;
#CDTITLE:ddrencorecdtitle.png;
#MUSIC:BABY BABY GIMME YOUR LOVE (Cyber Electronica R+B Mix).mp3;
#OFFSET:-0.020;
#SAMPLESTART:46.060;
#SAMPLELENGTH:11.980;
#SELECTABLE:YES;
#BPMS:0.000=100.000
;
#STOPS:;
#BGCHANGES:;
#KEYSOUNDS:;
#ATTACKS:;

//---------------dance-single - ----------------
#NOTES:
     dance-single:
     :
     Hard:
     7:
     0.332,0.332,0.148,0.119,0.096,277.000,20.000,16.000,0.000,0.000,0.000,0.332,0.332,0.148,0.119,0.096,277.000,20.000,16.000,0.000,0.000,0.000:
0000
0000
0000
0000
,
0000
0000
0000
0000
,
0100
0000
0000
0100
0000
0000
0001
0010
,
0100
0000
0000
1000
0000
0000
0010
0000
,
0110
0000
0000
1100
0000
0000
1000
0001
,
0100
0000
0000
0101
0000
0000
0100
1000
,
0010
0000
0000
0000
0000
0000
0110
0000
0000
0000
0000
0000
0100
0001
0000
0100
,
0001
0000
0000
1000
0000
0000
0100
0000
,
0001
0100
0001
0010
0100
0000
1100
0000
,
0011
0000
0000
0110
0000
0000
0100
0000
,
0010
0100
1000
0001
0100
0000
0010
0000
,
1001
0000
0000
0001
0000
0000
1100
0000
0000
0000
0000
0000
1000
0000
0100
0000
,
1000
0100
0001
0100
1000
0000
0010
0000
,
1001
0000
0000
0110
0000
0000
0100
0000
,
0010
0100
1000
0100
0010
0000
0001
0000
,
1010
0000
0000
0101
0000
0000
1001
0000
0000
0000
0000
0000
0100
0000
0000
0000
,
1000
0000
0100
1000
0000
0000
0010
0000
0001
0000
0100
0001
0000
0000
1000
0000
,
0200
2300
3020
0230
,
0301
0000
1000
0010
0000
0000
0100
0000
0001
0000
0010
0000
0100
0000
1000
0000
,
0001
0000
0000
0000
0010
0100
0001
0100
,
0020
2030
3200
0320
,
0031
0000
0000
0000
0100
0010
1000
0100
,
0010
0000
0000
0000
0001
0100
0010
0100
,
0001
0000
0000
0000
1000
0100
1000
0010
,
0200
0320
2030
3002
,
0103
0000
0000
0000
0010
1000
0100
0010
,
0001
0000
0000
0000
0100
0001
0010
0100
,
1000
0000
0000
1000
0001
0000
0101
0000
,
0020
0000
0000
0000
0000
0000
1000
1000
0030
0000
0000
0000
0001
0000
0000
0000
,
0200
0000
0000
0000
0000
0000
0001
0001
0300
0000
0000
0000
1000
0000
0000
0000
,
0100
0010
0001
0000
0100
0010
1000
0000
,
0001
0100
0010
1000
,
0002
0000
0000
0000
0000
0000
0010
0010
0003
0000
0000
0000
0100
0000
0000
0000
,
2000
0000
0000
0000
0000
0000
0100
0100
3000
0000
0000
0000
0010
0000
0000
0000
,
0001
1000
0100
1000
0001
0100
0001
1000
,
0100
0010
0001
1000
0100
0000
1000
0000
,
0010
0100
0000
0001
,
1000
0000
0100
0000
0000
0010
0010
0000
,
1000
0001
0000
0100
,
0010
0000
1000
0000
0000
0001
0001
0100
,
0010
1000
0010
1000
0000
0000
0001
0000
0100
0000
0001
0010
0000
0000
0000
0000
,
0100
1000
0001
0100
,
0001
0100
0001
0100
0000
0000
0010
0000
1000
0000
0100
1000
0000
0000
0100
0000
,
0010
0001
0100
0010
,
0100
0001
0100
0001
0000
0000
1000
0000
0100
0000
1000
0001
0000
0000
0000
0000
,
0100
0010
1000
0100
,
1000
0100
1000
0100
0000
0000
0010
0000
0001
0000
1000
0000
0010
0000
0100
0000
,
0001
1000
0001
0100
0010
0100
0001
0000
,
1000
0100
1000
0010
,
1001
0000
0000
0100
0000
0000
0110
0000
0000
0000
0000
0000
1000
0000
0000
0000
,
0001
0100
0010
0100
0001
0000
1000
0000
,
1100
0000
0000
0001
0000
0000
0101
0000
0000
0000
0000
0000
0010
0000
0000
0000
,
1000
0100
1000
0100
1000
0001
0100
0000
,
0001
0010
0001
0010
0001
0100
0010
0000
,
0000
0000
1000
0000
0001
0100
0000
0000
0000
0000
0010
0000
1000
0001
0000
0000
,
0000
0001
1000
0010
1000
0001
0100
0000
,
0110
0000
0000
0000
;

//---------------dance-single - ----------------
#NOTES:
     dance-single:
     :
     Beginner:
     1:
     0.118,0.104,0.059,0.089,0.000,91.000,8.000,12.000,0.000,0.000,0.000,0.118,0.104,0.059,0.089,0.000,91.000,8.000,12.000,0.000,0.000,0.000:
0000
0000
0000
0000
,
0000
0000
0000
0000
,
1000
0000
0100
0000
,
1000
0000
0010
0000
,
0001
0001
0000
0000
,
0010
0010
0000
0000
,
1000
1000
0000
0000
,
0100
0100
0000
0000
,
1000
0000
0001
0000
,
0020
0000
0030
0000
,
0100
0000
1000
0000
,
0002
0000
0003
0000
,
0010
0000
0001
0000
,
2000
0000
3000
0000
,
0100
0000
0010
0000
,
1001
0000
0000
0000
,
0100
0000
1000
0000
,
0010
0010
0010
0000
,
0001
0000
0100
0000
,
1000
1000
1000
0000
,
0010
0000
0010
0000
,
0020
0000
0030
0000
,
1000
0000
1000
0000
,
2000
0000
3000
0000
,
0100
0000
0100
0000
,
0200
0000
0300
0000
,
0001
0000
0001
0000
,
0002
0000
0003
0000
,
0110
0000
0000
0000
,
1001
0000
0000
0000
,
1000
0000
0001
0000
,
0010
0000
0010
0000
,
1001
0000
0000
0000
,
0110
0000
0000
0000
,
1000
0000
1000
0000
,
0001
0000
0001
0000
,
0020
0000
0030
0000
,
0100
0000
0000
0000
,
0100
0000
0000
0000
,
0010
0000
0000
0000
,
0010
0000
1000
0000
,
0200
0000
0300
0000
,
0001
0000
0010
0000
,
0200
0000
0300
0000
,
1000
0000
1000
0000
,
0002
0000
0003
0000
,
0100
0000
0100
0000
,
0020
0000
0030
0000
,
1001
0000
0100
0000
,
0010
0000
0100
0000
,
0110
0000
1000
0000
,
0001
0000
1000
0000
,
0100
0000
0001
0000
,
0100
0000
0010
0000
,
1000
0000
0100
0000
,
1000
0000
0001
0000
,
1001
0000
0000
0000
;

//---------------dance-single - ----------------
#NOTES:
     dance-single:
     :
     Easy:
     3:
     0.204,0.208,0.059,0.148,0.000,165.000,8.000,20.000,0.000,0.000,0.000,0.204,0.208,0.059,0.148,0.000,165.000,8.000,20.000,0.000,0.000,0.000:
0000
0000
0000
0000
,
0000
0000
0000
0000
,
0000
0000
0000
0000
,
0000
0000
0000
0000
,
1000
0000
0010
0000
,
0100
0000
0010
0000
,
1000
0000
0001
0000
,
0100
0000
0010
0100
,
0100
0001
1000
0100
,
2000
0000
3002
0000
,
0103
0010
1000
0100
,
0020
0000
0230
0000
,
1300
0001
0100
0001
,
0020
0000
0230
0000
,
1300
0010
1000
1000
,
0002
0000
2003
0000
,
3010
0000
0100
0000
,
0001
0001
0001
0000
,
0100
0000
0010
0000
,
1000
1000
0100
0000
,
0110
0100
0001
1000
,
1001
0000
0010
0100
,
0010
0000
1000
0001
,
1000
0000
0100
1000
,
0010
0100
0001
1000
,
1001
0000
0100
0010
,
0100
0000
0001
1000
,
0001
0000
0100
0001
,
0002
0000
0000
1000
1003
0000
0000
0000
,
2000
0000
0000
0001
3001
0000
0000
0000
,
0200
0310
0020
1030
,
0001
1000
0100
0000
,
0020
0000
0000
0001
0031
0000
0000
0000
,
0200
0000
0000
0010
0310
0000
0000
0000
,
2000
3100
0200
0310
,
0001
0100
0001
1000
,
1001
0000
0010
0000
,
0100
0001
1000
0000
,
0100
0010
0100
0010
,
0001
1000
0001
0000
,
0110
0001
1000
0100
,
0010
0000
0001
0001
0001
0000
0000
0000
,
1001
0010
1000
0100
,
1000
0010
0100
0001
,
1000
0100
0010
0001
,
0100
0000
0010
0010
0010
0000
0000
0000
,
0110
1000
0100
0010
,
0001
0100
0010
1000
,
1001
0100
0010
1000
,
0200
0000
0320
0000
,
0031
0100
0001
1000
,
0200
0000
2300
0000
,
3010
0100
0001
0100
,
0000
0010
1000
0100
,
0000
0010
0000
0001
,
0000
1000
0001
1000
,
0010
0000
0000
0000
;

//---------------dance-single - ----------------
#NOTES:
     dance-single:
     :
     Medium:
     5:
     0.265,0.291,0.119,0.067,0.000,225.000,16.000,9.000,0.000,0.000,0.000,0.265,0.291,0.119,0.067,0.000,225.000,16.000,9.000,0.000,0.000,0.000:
0000
0000
0000
0000
,
0000
0000
0000
0000
,
0000
0000
0000
0000
,
0000
0000
0000
0000
,
0010
0000
0000
0100
0000
0000
0001
0000
,
1000
0000
0000
0100
0000
0000
0010
0000
,
0001
0000
0000
0100
0000
0000
0010
0000
,
1000
0000
0000
0001
0000
0000
0100
0000
,
0001
1000
0100
1000
0010
0000
0100
0000
,
0101
0000
0000
1100
0000
0000
0010
0000
,
0001
1000
0100
1000
0001
0000
0100
0000
,
0020
0000
1030
0000
,
0010
1000
0010
0100
0001
0000
1000
0000
,
1100
0000
0000
0011
0000
0000
0100
0000
,
0010
0100
0001
1000
0100
0000
0010
0000
,
0002
0000
1003
0000
,
0200
0000
0310
0000
0000
0001
0100
0000
,
0010
1000
0100
1000
,
0020
0000
0130
0000
0000
0001
1000
0000
,
0100
0000
0000
0010
0001
0010
0100
0000
,
1000
0001
0101
1100
,
1001
0000
0000
0000
0100
1000
0001
1000
,
0100
0000
0010
0000
0001
0100
0001
1000
,
0100
0000
0000
0000
0001
0010
0001
1000
,
0100
1000
1001
0101
,
0110
0000
0000
0000
1000
0100
1000
0010
,
0100
0000
0000
0000
0001
1000
0100
0010
,
0001
0000
0000
0100
1000
0000
0001
0000
,
0200
0000
0000
0010
0310
0000
0000
0000
,
0002
0000
0000
1000
1003
0000
0000
0000
,
0100
1000
0100
0000
1000
0001
1000
0000
,
0010
0100
0001
0000
,
2000
0000
0000
0010
3010
0000
0000
0000
,
0200
0000
0000
0001
0301
0000
0000
0000
,
0010
0100
0001
0100
0010
1000
0100
1000
,
0001
0100
0001
1000
0001
0000
0100
0000
,
0110
0000
0000
0100
0001
0000
1000
0000
,
0100
1000
0100
0000
0000
0010
0001
0000
,
0100
0000
0001
0000
0000
1000
0100
0000
,
1000
0000
0010
0000
0000
0100
0001
0100
,
0001
0000
1000
0000
0000
0100
0010
0000
,
0001
0100
0001
1000
0001
0000
0110
0000
,
0100
1000
0100
0000
0000
0010
0001
0000
,
0100
0010
1000
0000
,
0001
0010
0001
0000
0000
1000
0100
0000
,
0010
0001
0100
0000
,
0001
1000
0001
0000
0000
0100
0010
0000
,
1000
0100
1000
0010
,
0100
0001
0100
0010
0100
0000
0001
0000
,
1100
0000
0000
0011
0000
0000
0100
0000
,
1000
0010
0100
0010
1000
0000
0001
0000
,
0002
0000
0103
0000
,
0010
1000
0100
0000
1000
0000
1100
0000
,
0010
0001
0100
0000
0010
0000
0110
0000
,
0000
0001
1000
0000
0000
1000
0001
0000
,
0010
1000
0100
0001
,
0100
0000
0000
0000
;

//---------------dance-double - ----------------
#NOTES:
     dance-double:
     :
     Easy:
     2:
     0.170,0.166,0.052,0.074,0.000,143.000,7.000,10.000,0.000,0.000,0.000,0.170,0.166,0.052,0.074,0.000,143.000,7.000,10.000,0.000,0.000,0.000:
00000000
00000000
00000000
00000000
,
00000000
00000000
00000000
00000000
,
00000000
00000000
00000000
00000000
,
00000000
00000000
00000000
00000000
,
00100000
00000000
01000000
00010000
,
01000000
00000000
00001000
00010000
,
00001000
00000000
00010000
00000000
,
00000100
00000000
00001000
00000010
,
00000100
00000001
00000100
00000001
,
00001000
00000000
00000100
00000000
,
00000010
00000001
00000010
00000100
,
00001000
00000000
00000001
00000000
,
00000100
00000010
00010000
00001000
,
00010000
00000000
00001000
00000000
,
01000000
00010000
01000000
00010000
,
00100000
00000000
01000000
00000000
,
20000000
00000000
30020000
00000000
,
01030000
00000000
00000000
00000000
,
00200000
00000000
20300000
00000000
,
30010000
00000000
01000000
00001000
,
00010000
00000000
00001000
00000000
,
00011000
00000000
00000100
00000100
,
00000010
00000000
00000001
00000001
,
00001000
00000000
00000100
00010000
,
00001000
00000000
00010000
00000000
,
00011000
00000000
01000000
01000000
,
00100000
00000000
10000000
10000000
,
00010000
00000000
10000000
00100000
,
02000000
00000000
03010000
00000000
,
00200000
00000000
00301000
00000000
,
00010000
00001000
00010000
00000100
,
00001000
00000100
00000000
00000000
,
00000020
00000000
00000130
00000000
,
00000002
00000000
00001003
00000000
,
00000100
00010000
00001000
01000000
,
00010000
00100000
00010000
00000000
,
10010000
00000000
01100000
00000000
,
20000000
01000000
31000000
00000000
,
01100000
00000000
10010000
00000000
,
02000000
00001000
03001000
00000000
,
00000100
00000010
00000000
00000001
,
00000000
00001000
00000100
00000000
,
00000010
00000001
00000000
00001000
,
00000000
00000100
00010000
00000000
,
00001000
01000000
00000000
00010000
,
00000000
10000000
00100000
00000000
,
01000000
00000000
00010000
00100000
,
00001000
00010000
00000100
00001000
,
00000010
00000100
00000001
00001000
,
00000100
00000000
00000010
00000000
,
00000001
00001000
00000100
00010000
,
00001000
00000000
01000000
00000000
,
00010000
01000000
00010000
00100000
,
00010000
00000000
10000000
00000000
,
00010000
01000000
00010000
00100000
,
00001000
00000000
00010000
00000000
,
00011000
00000000
00000000
00000000
;

//---------------dance-double - ----------------
#NOTES:
     dance-double:
     :
     Medium:
     5:
     0.237,0.270,0.022,0.126,0.000,204.000,3.000,17.000,0.000,0.000,0.000,0.237,0.270,0.022,0.126,0.000,204.000,3.000,17.000,0.000,0.000,0.000:
00000000
00000000
00000000
00000000
,
00000000
00000000
00000000
00000000
,
00000000
00000000
00000000
00000000
,
00000000
00000000
00000000
00000000
,
10000000
00000000
00000000
00100000
00000000
00000000
01000000
00000000
,
00010000
00000000
00000000
00100000
00000000
00000000
00001000
00000000
,
00010000
00000000
00000000
00000100
00000000
00000000
00001000
00000000
,
00000010
00000000
00000000
00000100
00000000
00000000
00000001
00000000
,
00001000
00000100
00000010
00000100
,
00002000
00000000
00000000
00003001
00000000
00000000
00000100
00000000
,
00000010
00001000
00000100
00010000
,
00002000
00000000
00000000
00103000
00000000
00000000
00000000
00000000
,
00010000
10000000
01000000
00100000
,
00010000
00000000
01000000
00010000
00000000
00000000
00100000
00000000
,
01000000
10000000
00010000
01000000
,
00001000
00000000
00010000
00002000
00000000
00000000
00013000
00000000
,
00000100
00000000
00000000
00001000
00000100
00000000
00000010
00000000
,
00000002
00000100
00000103
00000010
,
00001000
00000100
00001000
00000000
00000100
00000000
00010000
00000000
,
00001000
00000000
00000000
01000000
00010000
00000000
00100000
00000000
,
02000000
13000000
20000000
30010000
,
01000000
00000000
00000000
00000000
00100000
00000000
01000000
00010000
,
01000000
00000000
00000000
00000000
00001000
00000000
00010000
00001000
,
00010000
00000000
00000000
00000100
00001000
00000000
00000010
00000000
,
00000200
00000301
00000002
00001003
,
00000100
00000000
00000010
00000000
00000001
00000100
00000001
00000000
,
00001000
00000000
00000000
00000000
00000100
00010000
00000100
00000000
,
00001000
00000000
00000000
00000010
00001000
00000000
00000100
00000000
,
00020000
00000000
00031000
00000000
,
00002000
00000000
00013000
00000000
,
00001000
01000000
00010000
00000000
00100000
00000000
00010000
00000000
,
10000000
01000000
10000000
00000000
00010000
00000000
01000000
00000000
,
00200000
00000000
01300000
00000000
,
02000000
00000000
03001000
00000000
,
00010000
00001000
00010000
00000000
00000100
00000000
00001000
00000000
,
00000010
00000100
00000010
00000000
00001000
00000000
00000001
00000000
,
00000110
00000000
00000000
00000100
00000000
00000001
00000000
00001000
,
00000100
00000000
00000010
00000000
00000000
00000001
00000000
00001000
,
00000100
00010000
00000000
00001000
00000000
00010000
00000000
00001000
,
01000000
00100000
10000000
00010000
,
02000000
00000000
03010000
00000000
00100000
00001000
00100000
00000000
,
00010000
01000000
00010000
00000000
10000000
00000000
01000000
00000000
,
10000000
00010000
10000000
00000000
00010000
00000000
01000000
00000000
,
00001000
00010000
00000100
00001000
,
00000100
00000010
00000100
00000000
00001000
00000001
00001000
00000000
,
00000001
00000000
00000100
00000000
00000010
00000000
00000000
00001000
,
00000100
00010000
00000100
00000000
00001000
00000000
00000010
00000000
,
00000200
00000302
00002003
00003200
,
00010300
00001000
01000000
00100000
,
10000000
00000000
00000000
00010000
00000000
00000000
01000000
00000000
,
00100000
10000000
01000000
00100000
,
00010000
00000000
00000000
00100000
00000000
00000000
00001000
00000000
,
00010000
00000100
00001000
00000010
,
00000100
00000000
00000000
00001001
00000000
00000000
00000100
00000000
,
00000010
00001000
00000100
00010000
,
00001000
00000000
00000000
00011000
00000000
00000000
00001000
01000000
,
00010000
00000000
00000000
00000000
;

//---------------dance-double - ----------------
#NOTES:
     dance-double:
     :
     Hard:
     8:
     0.392,0.374,0.133,0.119,0.200,336.000,18.000,16.000,0.000,0.000,0.000,0.392,0.374,0.133,0.119,0.200,336.000,18.000,16.000,0.000,0.000,0.000:
00000000
00000000
00000000
00000000
,
00000000
00000000
00000000
00000000
,
00000000
00000000
00000000
00000000
,
00000000
00000000
00000000
00000000
,
00000001
00000000
00000100
00000010
00000000
00001000
00000100
00000000
,
00001000
00000000
00000001
00000100
00000000
00001000
00000100
00000000
,
00010000
00000000
00001000
01000000
00000000
00010000
00100000
01000000
,
10000000
00000000
00010000
01000000
00000000
00000000
00100000
00000000
,
10000000
00000000
00010000
01000000
00100000
00000000
10000000
00000000
01000000
00000000
00100000
00000000
00010000
00000000
01000000
00000000
,
00001000
00000000
00000000
00011000
00000000
00000000
00010100
00000000
00000000
00000000
00000000
00000000
00001000
00000100
00001000
00000010
,
00000100
00000001
00000010
00000100
00001000
00000000
00000100
00000000
,
00010000
00000000
00000000
00011000
00000000
00000000
01001000
00000000
00000000
00000000
00010000
00000000
00100000
00000000
00000000
00000000
,
01000000
10000000
00010000
00000000
01000000
00000000
00100000
00000000
10000000
00000000
00010000
00000000
01000000
00000000
00000000
00000000
,
00100000
00000000
00000000
01001000
00000000
00000000
00010000
00000000
00000000
00000000
00000000
00000000
00000100
00010000
00000010
00000100
,
00000001
00001000
00000100
00010000
00001000
00100000
00010000
01000000
,
00100000
00000000
00000000
01010000
00000000
00000000
00100000
00000000
00000000
00000000
00000000
00000000
00001000
00000000
00000000
00000000
,
00010000
00000100
00001000
00000100
00000000
00000000
00001000
00000000
00000010
00000000
00000100
00000001
00000000
00000000
00001000
00000000
,
00000100
00000000
00000000
00000000
00010000
00000000
00001000
00000000
00000000
00010000
00000000
00000000
01000000
00000000
10000000
00000000
,
01000000
00100000
01000000
00100000
00000000
00000000
00010000
00000000
01000000
00000000
00100000
10000000
00000000
00000000
00010000
00000000
,
02000000
00000000
00000000
00000000
03001000
00010000
00000020
00000000
,
00000230
00000000
00000001
00000000
00001300
00000001
00000010
00000000
,
00000100
00000000
00000000
00010000
00001000
00000100
00001000
00010000
,
01000000
00000000
10000000
01000000
00010000
01000000
10000000
00100000
,
01000000
00000000
00010000
00100000
00001000
00010000
00001000
01000000
,
00020000
00130000
02000000
00010000
,
13000000
00000000
00000000
00000000
00000000
00000000
00000000
00100000
00010000
00000000
01000000
00000000
00100000
00000000
01000000
00000000
,
00001000
00000000
00000000
00000000
00000000
00000000
00000000
00010000
00001000
00000000
00000100
00000000
00000010
00000000
00000100
00000000
,
00000001
00000000
00000000
00001100
00000100
00000000
00001000
00000000
,
00000020
00000000
00000000
00000000
00000000
00000000
00000130
00000001
00000000
00000000
00000000
00000000
00001000
00000000
00000000
00000000
,
00000200
00000000
00000000
00000000
00000000
00000000
00010300
00001000
00000000
00000000
00000000
00000000
01000000
00000000
00010000
00000000
,
00100000
00010000
00000000
01000000
00001000
00100000
00010000
00000000
,
01000000
00001000
00010000
00000100
00001000
00000000
00000010
00000000
,
00000202
00000000
00000000
00000000
00000003
00000000
00000310
00001000
00000000
00000000
00000000
00000000
00000100
00000000
00010000
00000000
,
00022000
00000000
00000000
00000000
00003000
00000000
00031000
01000000
00000000
00000000
00000000
00000000
00100000
00000000
00000000
00000000
,
01000000
00010000
00100000
01000000
00001000
00000100
00000010
00000100
,
00010000
00001000
00000100
00000010
00001000
00000000
00000001
00000100
,
00000110
00000000
00000000
00000000
00000101
00000000
00000000
00000000
00001000
00000100
00000000
00010000
00000000
00001000
00000000
00000000
,
01000000
00000000
00010000
00000000
00100000
00000000
00001000
00010000
00000000
01000000
00000000
10000000
00000000
00000000
00100000
00010000
,
00100000
00010000
01000000
00000000
00100000
10000000
00000000
00010000
00000000
01000000
00000000
00100000
00000000
00000000
01000000
00000000
,
00001000
00000000
00010000
00000000
00000100
00000000
00001000
00000000
00000010
00000100
00000000
00000001
00000000
00000000
00000000
00000000
,
00001000
00000100
00001000
00000010
00000000
00000000
00000100
00000000
00000001
00000000
00001000
00000100
00000000
00000000
00010000
00000000
,
00002000
00000000
00000000
00000000
00103000
00000000
00010000
01000000
00000000
00000000
00000000
00000000
00100000
00000000
00000000
00000000
,
10000000
01000000
00100000
01000000
00000000
00000000
10000000
00000000
00010000
00000000
01000000
00100000
00000000
00000000
01000000
00000000
,
00002000
00000000
00103000
00010000
02000000
00000000
03001000
00000000
,
00010000
00000100
00001000
00000100
00000000
00000000
00001000
00000000
00000010
00000000
00000100
00000001
00000000
00000000
00001000
00000000
,
00000200
00000000
00000310
00000001
00000200
00000000
00000310
00000000
,
00010000
00001000
00100000
00010000
00000000
00000000
01000000
00000000
00010000
00000000
00100000
01000000
00000000
00000000
10000000
00000000
,
00010000
01000000
00100000
01000000
00001000
00010000
01000000
10000000
,
00010000
01000000
00100000
01000000
00001000
00010000
00000100
00000000
,
00001000
00000000
00000000
00000010
00000000
00000000
00000101
00000000
00000000
00000000
00001000
00000000
00000100
00000000
00010000
00000000
,
00000100
00001000
00000010
00010000
00001000
01000000
00100000
00000000
,
01000000
00000000
00000000
01001000
00000000
00000000
00100000
00000000
00000000
00000000
00000000
00000000
00010000
00000000
00000000
00000000
,
01000000
00100000
10000000
01000000
00100000
00010000
01000000
00001000
,
00011000
00000000
00000000
00010010
00000000
00000000
00010100
00000000
00000000
00000000
00001000
00000000
00000010
00000000
00000100
00000000
,
00000001
00001000
00000100
00010000
00001000
00100000
00010000
01000000
,
00100000
00000000
00000000
01001000
00000000
00000000
00100000
00000000
00001000
00000000
00010000
00000000
00000100
00000000
00001000
00000000
,
00001010
00000000
00000000
00000000
;
