#TITLE:As Long As You Love Me;
#SUBTITLE:(Factory Team Remix);
#ARTIST:Bakerstreet;
#TITLETRANSLIT:;
#SUBTITLETRANSLIT:;
#ARTISTTRANSLIT:;
#CREDIT:;
#BANNER:As Long As You Love Me (Factory Team Remix)-bn.png;
#BACKGROUND:As Long As You Love Me (Factory Team Remix)-bg.png;
#LYRICSPATH:;
#CDTITLE:ddrencorecdtitle.png;
#MUSIC:As Long As You Love Me (Factory Team Remix).mp3;
#OFFSET:-0.070;
#SAMPLESTART:50.932;
#SAMPLELENGTH:14.548;
#SELECTABLE:YES;
#BPMS:0.000=132.002,251.000=131.502;
#STOPS:;
#BGCHANGES:;

//---------------dance-single - ----------------
#NOTES:
     dance-single:
     :
     Beginner:
     1:
     0.122,0.185,0.034,0.000,0.000:
0000
0000
0000
0000
,
0000
0000
0000
0000
,
0000
0000
0000
0000
,
0000
0000
0000
0000
,
0010
0000
0010
0000
,
0100
0000
0100
0000
,
0001
0000
0001
0000
,
1000
0000
1000
0000
,
0100
0000
0000
0000
,
1000
0000
0001
0000
,
0100
0000
0000
0000
,
0010
0000
0000
0000
,
0100
0000
0000
0000
,
0001
0000
0010
0000
,
0100
0000
0000
0000
,
1000
0000
0000
0000
,
0001
0000
1000
0000
,
0001
0000
0100
0000
,
0010
0000
1000
0000
,
0001
0000
0000
0000
,
1000
0000
0100
0000
,
1000
0000
0010
0000
,
0100
0000
0001
0000
,
1000
0000
0000
0000
,
0100
0000
1000
1000
,
1000
0000
0001
0001
,
0001
0000
1000
1000
,
1000
0000
0001
0000
,
0100
0000
0010
0010
,
0010
0000
0100
0100
,
0100
0000
0010
0010
,
0010
0000
1000
0000
,
0001
0000
0000
0000
,
0010
0000
0000
0000
,
0001
0000
1000
0000
,
0100
0000
0000
0000
,
1000
0000
0000
0000
,
0010
0000
0000
0000
,
0100
0000
0001
0000
,
0010
0000
0000
0000
,
0001
0000
1000
0000
,
0001
0000
0000
0000
,
1000
0000
0100
0000
,
0010
0000
0000
0000
,
0100
0000
1000
0000
,
0100
0000
0000
0000
,
0010
0000
0001
0000
,
1000
0000
0000
0000
,
0001
0000
0000
0000
,
0100
0000
0000
0000
,
0010
0000
0000
0000
,
1001
0000
0000
0000
,
0010
0000
0000
0000
,
0001
0000
0000
0000
,
1000
0000
0000
0000
,
1001
0000
0000
0000
,
0010
0000
0100
0000
,
0010
0000
1000
0000
,
0001
0000
1000
0000
,
1001
0000
0000
0000
,
0010
0000
0001
0000
,
1000
0000
0010
0000
,
0100
0000
0001
0000
,
1001
0000
0000
0000
;

//---------------dance-single - ----------------
#NOTES:
     dance-single:
     :
     Easy:
     3:
     0.172,0.215,0.000,0.059,0.000:
0000
0000
0000
0000
,
0000
0000
0000
0000
,
0000
0000
0000
0000
,
0000
0000
0000
0000
,
0010
0000
1000
0000
,
0001
0000
0010
0001
,
1000
0000
0001
0000
,
0100
0000
0010
0000
,
1000
0000
0100
0000
,
1000
0000
0001
0100
,
0010
0000
0100
0000
,
0001
0000
1000
0000
,
0100
0000
1000
0000
,
0010
0000
0100
0001
,
0010
0000
0001
0000
,
1000
0000
0100
0010
,
0001
0000
0000
1000
,
0010
0000
0000
0100
,
0001
0000
0000
0010
,
0100
0000
0010
0000
,
0001
0000
0000
0010
,
0100
0000
0000
1000
,
0001
0000
0000
0100
,
0010
0000
1000
0000
,
0010
0000
0010
0100
,
0001
0000
0001
1000
,
0100
0000
0100
0010
,
0001
0000
1000
0000
,
0001
0000
0001
0100
,
0010
0000
0010
1000
,
0001
0000
0001
0010
,
0100
0000
1000
0000
,
0010
0000
0010
0000
,
0100
0000
0100
0000
,
0001
0000
1000
0000
,
0100
0000
0000
0000
,
0010
0000
0001
0000
,
1000
0000
0010
0000
,
0100
0000
0001
0000
,
0010
0000
0000
0000
,
0001
1000
0100
0010
,
0100
0000
1000
0000
,
0010
0000
0100
0001
,
0010
0000
0000
0000
,
0010
0001
1000
0010
,
0100
0000
0010
0000
,
1000
0000
0001
0010
,
0100
0000
0000
0010
,
0001
0000
1000
0000
,
0010
0000
0100
0000
,
0001
0000
0010
0000
,
0100
1000
0001
0000
,
0010
0000
0001
0000
,
0100
0000
0010
0000
,
1000
0000
0001
0000
,
0010
0100
1000
0000
,
0002
0000
0103
0000
,
2000
0000
3100
0000
,
0020
0000
0130
0000
,
0010
0001
0100
0001
,
0020
0000
0130
0000
,
2000
0000
3010
0000
,
0200
0000
0301
1000
,
0002
0000
0000
0000
,
0003
0000
0000
0000
;

//---------------dance-single - ----------------
#NOTES:
     dance-single:
     :
     Medium:
     5:
     0.295,0.295,0.050,0.109,0.000:
0000
0000
0000
0000
,
0000
0000
0000
0000
,
0000
0000
0000
0000
,
0000
0000
0000
0000
,
0000
1000
0000
0001
,
0000
0000
0010
0000
0000
0100
1000
0000
,
0000
0010
0000
0001
,
0000
0000
1000
0000
0000
0100
0010
0000
,
0001
0000
0001
0000
0001
0000
0001
0100
,
0010
0010
0010
1001
,
0100
0000
0100
0000
0100
0000
0100
1000
,
0001
0001
0001
0010
,
1000
0000
1000
0000
1000
0000
1000
0010
,
0100
0100
0100
1001
,
0010
0000
0010
0000
0010
0000
0010
0001
,
1000
1000
1000
0100
,
0002
0000
0000
1000
0000
0003
1000
0000
,
0020
0000
0000
0100
0000
0030
0100
0000
,
0200
0000
0000
0001
0000
0300
0001
0000
,
1000
0010
0100
1001
,
2000
0000
0000
0010
0000
3000
0010
0000
,
0200
0000
0000
0001
0000
0300
0001
0000
,
0002
0000
0000
1000
0000
0003
1000
0000
,
0001
0010
0100
1001
,
1000
0000
0010
0000
0100
0000
0001
0010
,
0100
0000
1000
0000
0001
0000
1000
0010
,
0100
0000
0001
0000
1000
0000
0100
1000
,
0001
0010
0001
1001
,
1000
0000
0010
0000
0100
0000
0001
0010
,
0100
0000
1000
0000
0001
0000
0010
0001
,
0100
0000
0010
0000
1000
0000
0001
0100
,
0010
1000
0001
1001
,
1000
0100
1000
0000
0001
0100
0001
0000
,
1000
0010
0100
0000
,
0010
1000
0001
0010
,
0100
0000
1000
0000
,
0010
0100
0010
0000
1000
0001
1000
0000
,
0001
0100
0010
0000
,
1000
0001
0010
0001
,
1000
0000
0010
0000
,
0100
0001
0100
0001
0100
0000
0001
0000
,
1000
0010
0100
0000
,
0010
1000
0010
0000
1000
0000
0001
0000
,
0010
0000
0001
0000
,
1000
0100
1000
0100
1000
0000
0010
0000
,
0100
0001
0010
0000
,
0100
1000
0001
0010
,
0001
0000
1000
0001
,
0200
0000
0000
0310
,
2000
0000
0000
3001
,
0020
0000
0000
0031
,
1000
0010
0100
0001
,
2000
0000
0000
3001
,
0020
0000
0000
0031
,
0200
0000
0000
0310
,
1000
0001
0010
0100
,
1000
0000
0001
0000
0100
0010
0100
0010
,
0000
0000
1000
0000
0001
0010
0001
0010
,
0000
0000
0100
0000
1000
0010
0100
0001
,
0000
1000
0010
0100
,
0001
0000
1000
0000
0010
0100
0010
0100
,
0000
0000
0001
0000
1000
0100
1000
0100
,
0000
0000
0010
0000
0001
1000
0001
0200
,
0000
0000
0000
0000
,
0300
0000
0000
0000
;

//---------------dance-double - ----------------
#NOTES:
     dance-double:
     :
     Easy:
     3:
     0.207,0.268,0.059,0.235,0.000:
00000000
00000000
00000000
00000000
,
00000000
00000000
00000000
00000000
,
00000000
00000000
00000000
00000000
,
00000000
00000000
00000000
00000000
,
00100000
00000000
01000000
00000000
,
00010000
00000000
00100000
00001000
,
01000000
00000000
00010000
00000000
,
00100000
00000000
00010000
00000000
,
10000000
00000000
00010000
00000000
,
01000000
00000000
00100000
01000000
,
00001000
00000000
00010000
00000000
,
00000100
00000000
00000010
00000000
,
00000001
00000000
00000100
00000000
,
00000010
00000000
00001000
00000010
,
00010000
00000000
00000100
00000000
,
00001000
00000000
00000010
00000000
,
00000200
00000000
00000310
00010000
,
00002000
00000000
01003000
00100000
,
20000000
00000000
30010000
00100000
,
00020000
00000000
02030000
00000000
,
03002000
00000000
00013000
00000100
,
00002000
00000000
00003010
00010000
,
00000200
00000000
00010300
00001000
,
00100000
00000000
01000000
00000000
,
10000000
00010000
01000000
00100000
,
10000000
00010000
00100000
00001000
,
00010000
00000100
00001000
00000010
,
00000100
00000010
00001000
00000001
,
00000100
00000010
00010000
00001000
,
00100000
00001000
00010000
00000100
,
00000010
00000001
00001000
00000100
,
00001000
00000000
00000010
00000000
,
00000100
00000000
00000001
00000000
,
00001000
00000000
00000100
00000000
,
00010000
00000000
00001000
00000000
,
01000000
00000000
00000000
00000000
,
00100000
00000000
10000000
00000000
,
00010000
00000000
00100000
00000000
,
00001000
00000000
00010000
00000000
,
00000100
00000000
00000000
00000000
,
00000001
00001000
00000100
00000010
,
00000001
00001000
00000010
00000000
,
00010000
00000000
00001000
00000000
,
00100000
00000000
00000000
00000000
,
01000000
10000000
00010000
10000000
,
00100000
01000000
00001000
00000000
,
00010000
00000000
00000100
00000000
,
00001000
00000000
00000000
00000000
,
00000202
00000000
00000303
00000000
,
00002002
00000000
00003003
00000000
,
00020200
00000000
00030300
00000000
,
00001000
00000000
00100000
00000000
,
20020000
00000000
30030000
00000000
,
02002000
00000000
03003000
00000000
,
00022000
00000000
00033000
00000000
,
00001000
00000000
00010000
00000000
,
00000200
00000000
00001300
00000000
,
00000020
00000000
00000130
00000000
,
00000002
00000000
00001003
00000000
,
00000100
00000000
00010000
00000000
,
00002000
00000000
01003000
00000000
,
00020000
00000000
00130000
00000000
,
02000000
00000000
13000000
00000000
,
20020000
00000000
00000000
00000000
,
30030000
00000000
00000000
00000000
;

//---------------dance-double - ----------------
#NOTES:
     dance-double:
     :
     Medium:
     5:
     0.291,0.295,0.034,0.176,0.000: // measure 1
00000000
00000000
00000000
00000000
,  // measure 2
00000000
00000000
00000000
00000000
,  // measure 3
00000000
00000000
00000000
00000000
,  // measure 4
00000000
00000000
00000000
00000000
,  // measure 5
00010000
00000000
01000000
00000000
,  // measure 6
00010000
00000000
10000000
01000000
,  // measure 7
00100000
00000000
00010000
00000000
,  // measure 8
01000000
00000000
00001000
00010000
,  // measure 9
00001000
00000000
00001000
00000000
00001000
00000000
00010000
00000100
,  // measure 10
00010000
00000100
00000100
00001000
,  // measure 11
00000010
00000000
00000010
00000000
00000010
00000000
00000100
00000001
,  // measure 12
00000100
00000001
00000001
00001000
,  // measure 13
00000100
00000000
00000100
00000000
00000100
00000000
00010000
00001000
,  // measure 14
00010000
00001000
00001000
00100000
,  // measure 15
00010000
00000000
00010000
00000000
00010000
00000000
01000000
00100000
,  // measure 16
01000000
00100000
00100000
10000000
,  // measure 17
00020000
00000000
10030000
00100000
,  // measure 18
02000000
00000000
03010000
00100000
,  // measure 19
00002000
00000000
00013000
00000100
,  // measure 20
00000020
00000000
00000031
00001001
,  // measure 21
00002000
00000000
00003010
00010000
,  // measure 22
00000200
00000000
00001300
00000001
,  // measure 23
00000020
00000000
00000130
00001000
,  // measure 24
00000002
00000000
00001003
00000110
,  // measure 25
00000010
00010000
00001000
00100000
,  // measure 26
00010000
01000000
00001000
00010000
,  // measure 27
00001000
01000000
00100000
10000000
,  // measure 28
00010000
00000000
00100000
00000000
01000000
10000000
01000000
10000000
,  // measure 29
00010000
00100000
00001000
00010000
,  // measure 30
00000100
00001000
00000010
00000100
,  // measure 31
00000001
00001000
00000100
00010000
,  // measure 32
00000100
00000000
00001000
00000000
00000010
00000100
00000010
00000100
,  // measure 33
00000001
00000000
00001000
00000000
00000100
00000000
00010000
00001000
,  // measure 34
00010000
00000100
00001100
00000000
,  // measure 35
00001000
00000010
00001000
00000000
00000010
00000100
00000010
00000000
,  // measure 36
00001000
00000100
00010000
00001000
,  // measure 37
00100000
00000000
00010000
00000000
01000000
00000000
00100000
01000000
,  // measure 38
00100000
10000000
10010000
00000000
,  // measure 39
00100000
10000000
00100000
00000000
01000000
00010000
01000000
00000000
,  // measure 40
00100000
10000000
00010000
00100000
,  // measure 41
00001000
00010000
00001000
00010000
00001000
00000000
00010000
00000000
,  // measure 42
00000100
00000010
00000001
00000000
,  // measure 43
00000100
00000010
00001000
00000100
,  // measure 44
00010000
00000000
00000010
00000000
,  // measure 45
00000100
00000001
00000100
00000001
00000100
00000000
00000010
00000000
,  // measure 46
00001000
00000100
00010000
00000000
,  // measure 47
00001000
00100000
00010000
01000000
,  // measure 48
00100000
00000000
10000000
00010000
,  // measure 49
02000000
00000000
00000000
03100000
,  // measure 50
20000000
00000000
00000000
30010000
,  // measure 51
00200000
00000000
00000000
00310000
,  // measure 52
01000000
00001000
00010000
00000100
,  // measure 53
00000020
00000000
00000000
00000031
,  // measure 54
00002000
00000000
00000000
00003010
,  // measure 55
00000200
00000000
00000000
00000310
,  // measure 56
00001000
00000000
00000100
00000000
00010000
00001000
00010000
00001000
,  // measure 57
00200000
00000000
00310000
01000000
,  // measure 58
00002000
00000000
00013000
00000010
,  // measure 59
00000200
00000000
00000310
00001000
,  // measure 60
00000001
00000100
00000010
00001000
,  // measure 61
00000200
00000000
00010300
00001000
,  // measure 62
00200000
00000000
00310000
10000000
,  // measure 63
02000000
00000000
00000000
00000000
13000000
00000000
00010000
02000000
,  // measure 64
00000000
00000000
00000000
00000000
,  // measure 65
03000000
00000000
00000000
00000000
;

//---------------dance-double - ----------------
#NOTES:
     dance-double:
     :
     Hard:
     8:
     0.444,0.429,0.109,0.369,0.159:
00000000
00000000
00000000
00000000
,
00000000
00000000
00000000
00000000
,
00000000
00000000
00000000
00000000
,
00000000
00000000
00000000
00000000
,
10000000
00000000
00010000
00000000
,
01000000
00000000
00000000
00000000
00001000
00000000
00010000
00000100
,
00001000
00000000
00000010
00000000
,
00000100
00000000
00000010
00001001
,
00000100
00000000
00000001
00000000
00001000
00000000
00000100
00010000
,
00000100
00000000
00000000
00000000
00001000
00000000
00000000
00000000
00000010
00000000
00000000
00000000
00000100
00000001
00000100
00000001
,
00000100
00000000
00000010
00000000
00001000
00000000
00000100
00010000
,
00000100
00010000
00001000
00011000
,
00010000
00000000
01000000
00000000
00100000
00000000
00010000
01000000
,
00010000
00000000
00000000
00000000
10000000
00000000
00000000
00000000
00100000
00000000
00000000
00000000
10000000
01000000
10000000
01000000
,
10000000
00000000
00100000
00000000
01000000
00000000
00010000
00100000
,
00010000
01000000
00001000
00011000
,
00010000
00000000
00000000
00000100
00000000
00000000
00001000
00000000
00000000
00000010
00000000
00000000
00000100
00000000
00000001
00000000
,
00000100
00000000
00000000
00000010
00000000
00000000
00001000
00000000
00000000
00000100
00000000
00000000
00010000
00000000
00000000
00000000
,
00000100
00000000
00000000
00001000
00000000
00000000
00000010
00000000
00000000
00000100
00000000
00000000
00000001
00000000
00000010
00000000
,
00000100
00000000
00000000
00000010
00000000
00000000
00000001
00000000
00001000
00000000
00000100
00000000
00010000
00000000
00001000
00000000
,
01000000
00000000
00000000
00010000
00000000
00000000
10000000
00000000
00000000
01000000
00000000
00000000
10000000
00000000
00100000
00000000
,
01000000
00000000
00000000
00010000
00000000
00000000
00100000
00000000
00000000
00001000
00000000
00000000
00010000
00000000
00000000
00000000
,
00001000
00000000
00000000
01000000
00000000
00000000
00010000
00000000
00000000
00100000
00000000
00000000
01000000
00000000
10000000
00000000
,
00010000
00000000
00000000
01000000
00000000
00000000
00100000
00000000
10000000
00000000
00010000
00000000
01000000
00000000
00001000
00000000
,
00010000
00000000
00000000
00010100
00000000
00000000
00001000
00000000
00000000
00000010
00000000
00000000
00000100
00000000
00000001
00000000
,
00000010
00000000
00000000
00001100
00000000
00000000
00000010
00000000
00000000
00000001
00000000
00000000
00000100
00000000
00000000
00000000
,
00000010
00000000
00000000
00001001
00000000
00000000
00000010
00000000
00000000
00001000
00000000
00000000
00000100
00000000
00010000
00000000
,
00001000
00000000
00000000
00110000
00000000
00000000
00010000
00000000
01000000
00000000
00100000
00000000
10000000
00000000
00010000
00000000
,
01000000
00000000
00000000
10010000
00000000
00000000
01000000
00000000
00000000
10000000
00000000
00000000
00100000
00000000
01000000
00000000
,
00010000
00000000
00000000
00110000
00000000
00000000
00100000
00000000
00000000
00001000
00000000
00000000
00010000
00000000
00000000
00000000
,
00001000
00000000
00000000
00011000
00000000
00000000
00010000
00000000
00000000
01000000
00000000
00000000
10000000
00000000
00100000
00000000
,
01000000
00000000
00000000
01010000
00000000
00000000
00010000
00000000
00100000
00000000
01000000
00000000
10000000
00000000
00010000
00000000
,
01000000
00001000
01000000
00010000
00100000
01000000
10000000
00000000
,
00010000
00000000
00000000
01000000
00000000
00000000
00002000
00000000
00000000
00000000
00000000
00000000
00013000
00000000
00000000
00000000
,
00000200
00001000
00000010
00000301
,
00000100
00001000
00000010
00000000
00000100
00000001
00000010
00000000
,
00000100
00001000
00000100
00010000
00001000
00100000
00010000
00000000
,
01000000
00000000
00000000
00100000
00000000
00000000
20000000
00000000
00000000
00000000
00000000
00000000
30010000
00000000
00000000
00000000
,
02000000
10000000
00100000
03010000
,
10000000
00010000
01000000
00000000
00010000
00100000
00001000
00000000
,
00010000
00000100
00001000
00000010
00000100
00000001
00000010
00000000
,
00000100
00000000
00000000
00001000
00000000
00000000
00000020
00000000
00000000
00000000
00010000
00000000
00010030
00000000
00000000
00000000
,
00001000
00100000
00001000
00010000
00000000
00000100
00001000
00000010
,
00000200
00000010
00001000
00000301
,
00000010
00000001
00000010
00000100
00001000
00000010
00010000
00000000
,
00001000
00000000
00000000
01000000
00000000
00000000
00020000
00000000
00000000
00000000
10000000
00000000
10030000
00000000
00000000
00000000
,
10000000
00010000
01000000
00100000
00000000
10000000
00010000
00100000
,
00001000
00000000
00010000
00001000
00010000
00001000
00000000
00200000
,
00000000
00320000
00000000
02030000
00000000
03000000
00001000
00020000
,
00000000
00030020
00000000
00002030
00000000
00003000
00000001
00000020
,
00000000
00000230
00000000
00002300
00000000
00003010
00010000
00000100
,
00000000
00001000
00000001
00000100
00000000
00001001
00000000
00000020
,
00000000
00002030
00000000
00003200
00000000
00000300
00010000
00002000
,
00000000
02003000
00000000
03020000
00000000
00130000
00001000
00020000
,
00000000
00030200
00000000
00002300
00000000
00003010
00000100
00000001
,
00000000
00000000
00000010
00000000
00000100
00000000
00001000
00000000
00000001
00001000
00000001
00001000
00000001
00000000
00000200
00000000
,
00000000
00000320
00000000
00002030
00000000
00003100
00010000
00000200
,
00000000
00002300
00000000
00003020
00000000
00010030
00001000
00200000
,
00000000
00320000
00000000
02030000
00000000
03100000
10000000
00010000
,
00000000
00100000
00010000
01000000
00000000
10010000
00000000
00200000
,
00000000
20300000
00000000
30020000
00000000
00130000
00001000
00020000
,
00000000
00032000
00000000
02003000
00000000
03010000
00100000
00002000
,
00000000
00023000
00000000
00030200
00000000
00000300
00001000
00000020
,
00000000
00000000
00000000
00000000
,
00000030
00000000
00000000
00000000
;

//---------------dance-single - ----------------
#NOTES:
     dance-single:
     :
     Hard:
     9:
     0.555,0.560,0.126,0.218,0.427:
0000
0000
0000
0000
,
0000
0000
0000
0000
,
0000
0000
0000
0000
,
0000
0000
0000
0000
,
1000
0000
0001
0000
0010
0000
0001
1000
,
0100
0000
0000
0000
0010
0000
0000
0000
0001
0000
0100
0000
0010
1000
0010
1000
,
0001
0000
0010
0000
0001
0000
1000
0010
,
0100
0000
0000
0000
0010
0000
0000
0000
1000
0001
1000
0001
1000
0000
0000
0000
,
0011
0000
0000
0001
0000
0000
1000
0000
0000
0010
0000
0000
0100
0000
0001
0000
,
1100
0000
0000
0100
0000
0000
1000
0000
0000
0010
0000
0000
0100
0001
0100
0001
,
0100
0000
0000
0010
0000
0000
1000
0000
0000
0001
0000
0000
0010
0000
0100
0000
,
1000
0000
0000
0100
0000
0000
0001
0000
0000
0100
0000
0000
1000
0000
0000
0000
,
1001
0000
0000
0010
0000
0000
0100
0000
0000
0001
0000
0000
0010
0000
0001
0000
,
1100
0000
0000
1000
0000
0000
0001
0000
0000
0010
0000
0000
0100
1000
0100
1000
,
0100
0000
0000
1000
0000
0000
0010
0000
0000
0100
0000
0000
0001
0000
0010
0000
,
0100
0000
0000
0001
0000
0000
0100
0000
0000
1000
0000
0000
0001
0000
0000
0000
,
2000
0000
0000
0010
0000
0000
0010
0000
0000
0010
3000
0000
1000
0000
0001
0000
,
0200
0000
0000
0001
0000
0000
0001
0000
0000
0001
0300
0000
0100
0000
0001
0000
,
0020
0000
0000
1000
0000
0000
1000
0000
0000
1000
0030
0000
0010
0000
0001
0000
,
0200
0000
0000
0010
0000
0000
0301
0000
1000
0000
1100
0000
0001
0000
0101
0000
,
0002
0000
0000
0010
0000
0000
0010
0000
0000
0010
0003
0000
0001
0000
0100
0000
,
0020
0000
0000
0100
0000
0000
0100
0000
0000
0100
0030
0000
0010
0000
1000
0000
,
0200
0000
0000
0001
0000
0000
0001
0000
0000
0001
0300
0000
0100
0000
1000
0000
,
0020
0000
0000
0100
0000
0000
1030
0000
0001
0000
0011
0000
1000
0000
1010
0000
,
0010
0000
1000
0001
0000
0001
0010
0000
0000
0100
0000
0010
0001
0000
1000
0000
,
0010
0000
1000
0100
0000
0100
0010
0000
0000
0001
0000
0010
0100
0000
0010
0000
,
0001
0000
0010
0100
0000
0100
1000
0000
0000
0001
0000
1000
0100
0000
0010
0000
,
0001
0000
0100
0010
0000
0010
1000
0000
0001
0000
0101
0000
1000
0000
1100
0000
,
1000
0000
0001
0010
0000
0010
0100
0000
0000
1000
0000
0010
0100
0000
0001
0000
,
0010
0000
0001
1000
0000
1000
0010
0000
0000
0100
0000
0001
0010
0000
0100
0000
,
1000
0000
0010
0100
0000
0100
0001
0000
0000
0010
0000
0001
0100
0000
0010
0000
,
1000
0000
0100
0010
0000
0010
0001
0000
1000
0000
1010
0000
0001
0000
0011
0000
,
0001
0100
0010
1000
0100
1000
0010
0100
,
0001
0000
0000
0010
0000
0000
0200
0000
0000
0000
0000
0000
1300
0000
0000
0000
,
0100
0010
0001
0100
1000
0100
0001
0010
,
0100
0000
1000
0001
1000
0000
0010
0000
0100
0000
0001
1000
0001
0000
1000
0000
,
0100
0010
0001
1000
0100
1000
0010
0100
,
0001
0000
0000
1000
0000
0000
0002
0000
0000
0000
0000
0000
0013
0000
0000
0000
,
0100
1000
0010
0001
0010
1000
0100
0010
,
0001
0000
1000
0100
1000
0000
0010
0000
0100
0000
0001
0010
0001
0000
1000
0000
,
0100
0000
0000
1000
0000
0000
0010
0000
0000
0100
0000
0000
0001
0000
0010
0000
,
0100
0000
0000
1000
0000
0000
0020
0000
0000
0100
0000
0000
0130
0000
0000
0000
,
0010
1000
0001
0010
0000
1000
0010
0001
,
0100
0000
0010
1000
0010
0000
0100
0000
0001
0000
0010
0100
0010
0000
0001
0000
,
1000
0000
0000
0010
0000
0000
1000
0000
0000
0001
0000
0000
0010
0000
0001
0000
,
0100
0000
0000
0010
0000
0000
2000
0000
0000
0001
0000
0000
3001
0000
0000
0000
,
1000
0100
0001
0100
1000
0000
0010
0100
,
0001
0000
0010
0001
0100
0010
0000
1000
,
0100
0000
1000
0010
0000
0010
0200
0000
0000
0000
0000
0000
0301
0000
1000
0000
,
0100
0000
0010
0001
0000
0001
2000
0000
0000
0000
0000
0000
3010
0000
0100
0000
,
0010
0000
1000
0100
0000
0100
0020
0000
0000
0000
0000
0000
0031
0000
0200
0000
,
0000
0310
1000
0001
0000
0110
0000
0010
,
0001
0000
1000
0010
0000
0010
0200
0000
0000
0000
0000
0000
0310
0000
1000
0000
,
0001
0000
0100
0001
0000
0001
2000
0000
0000
0000
0100
0000
3100
0000
0010
0000
,
0001
0000
1000
0010
0000
0010
0200
0000
0000
0000
0000
0000
0301
0000
0020
0000
,
0000
0000
0031
0000
1000
0000
0100
0000
1000
0001
1000
0001
1000
0000
0010
0000
,
0100
0000
0001
1000
0001
0000
0200
0000
0000
0000
0010
0000
0310
0000
1000
0000
,
0100
0000
0010
0001
0010
0000
0002
0000
0000
0000
1000
0000
1003
0000
0010
0000
,
1000
0000
0100
0010
0100
0000
2000
0000
0000
0000
0010
0000
3010
0000
0100
0000
,
0000
0001
0010
0100
0000
1001
0001
0010
,
0100
0000
1000
0010
1000
0000
0020
0000
0000
0000
0100
0000
0130
0000
0001
0000
,
1000
0000
0100
0001
0100
0000
0020
0000
0000
0000
0100
0000
0130
0000
1000
0000
,
0001
0000
0100
1000
0100
0000
0002
0000
0000
0000
0000
0000
0013
0000
0100
0000
,
0000
0010
0001
1000
0000
1001
0000
0000
;
