#TITLE:Anisakis;
#SUBTITLE:Somatic Mutation Type "Forza";
#ARTIST:Suzaku;
#TITLETRANSLIT:;
#SUBTITLETRANSLIT:;
#ARTISTTRANSLIT:;
#CREDIT:;
#BANNER:Anisakis-bn.png;
#BACKGROUND:Anisakis-bg.png;
#LYRICSPATH:;
#CDTITLE:ddrencorecdtitle.png;
#MUSIC:Anisakis.mp3;
#OFFSET:-1.375;
#SAMPLESTART:23.615;
#SAMPLELENGTH:14.500;
#SELECTABLE:YES;
#DISPLAYBPM:185.000;
#LISTSORT:36;
#BPMS:0.000=185.000,378.000=369.998;
#STOPS:32.000=2.280
,161.000=4.860
,378.000=0.160
;
#BGCHANGES:;

//---------------dance-single - ----------------
#NOTES:
     dance-single:
     :
     Beginner:
     2:
     0.216,0.241,0.138,0.000,0.000:
1000
0000
0000
0000
,
0001
0000
0000
0000
,
1000
0000
0000
0000
,
0001
0000
0000
0000
,
0010
0000
0000
0000
,
0100
0000
0000
0000
,
0010
0000
0000
0000
,
0100
0000
0000
0000
,
0000
1000
1000
1000
,
0000
0001
0001
0001
,
0000
1000
1000
1000
,
0000
0001
0001
0001
,
0000
1000
1000
1000
,
0000
0001
0001
0001
,
0000
1000
1000
1000
,
0000
0001
0001
0001
,
0000
1000
0000
1000
,
0000
1000
0000
1000
,
0000
0001
0000
0001
,
0000
0001
0000
0001
,
0000
1000
0000
1000
,
0000
1000
0000
1000
,
0000
0010
0000
0010
,
0000
0010
0000
0010
,
0000
1000
1000
1000
,
0000
1000
1000
1000
,
0000
0001
0001
0001
,
0000
0001
0001
0001
,
0000
1000
1000
1000
,
0000
1000
1000
1000
,
0000
0001
0001
0001
,
0000
0001
0001
0001
,
0000
1000
0000
1000
,
0000
1000
0000
1000
,
0000
0001
0000
0001
,
0000
0001
0000
0001
,
0000
1000
0000
1000
,
0000
1000
0000
1000
,
0000
0001
0000
0001
,
0000
0001
0000
0001
,
0000
0000
1000
0000
,
1000
0000
1000
0000
,
0000
0000
0001
0000
,
0001
0000
0001
0000
,
0001
0000
1000
0000
,
1000
0000
1000
0000
,
0000
0000
0010
0000
,
0010
0000
0010
0000
,
0010
0000
1001
0000
,
0000
0000
1001
0000
,
0000
0000
1001
0000
,
0000
0000
1001
0000
,
0000
0000
0110
0000
,
0000
0000
0110
0000
,
0000
0000
0110
0000
,
0000
0000
1001
0000
,
0000
0000
1001
0000
,
0000
0000
0000
0000
,
0000
0000
1000
0000
,
1000
0000
0001
0000
,
0001
0000
1001
0000
,
0000
0000
0000
0000
,
0000
0000
1000
1000
,
1000
0000
0001
0001
,
0001
0000
1000
1000
,
1000
0000
0001
0001
,
0001
0000
0010
0010
,
0010
0000
0100
0100
,
0100
0000
1000
0000
,
1000
0000
0001
0000
,
0001
0000
1000
1000
,
1000
0000
0001
0001
,
0001
0000
1000
1000
,
1000
0000
0001
0001
,
0001
0000
0100
0100
,
0100
0000
0010
0010
,
0010
0000
0001
0000
,
0001
0000
1000
0000
,
1000
0000
1001
0000
,
0000
0000
1001
0000
,
0000
0000
0110
0000
,
0000
0000
0110
0000
,
0000
0000
1001
0000
,
0000
0000
0110
0000
,
0000
0000
1001
0000
,
0000
0000
0110
0000
,
0000
0000
0010
0010
,
0010
0000
0100
0100
,
0100
0000
0010
0010
,
0010
0000
0100
0100
,
0100
0000
1000
0000
,
1000
0000
0001
0000
,
0001
0000
0100
0000
,
0100
0000
0010
0000
,
0010
0000
0110
0000
;

//---------------dance-single - ----------------
#NOTES:
     dance-single:
     :
     Easy:
     4:
     0.285,0.310,0.160,0.145,0.000: // measure 1
1000
0000
0001
0000
,  // measure 2
1000
0000
0001
0000
,  // measure 3
1000
0000
0001
0000
,  // measure 4
1000
0000
0001
0000
,  // measure 5
0100
0000
0010
0000
,  // measure 6
0100
0000
0010
0000
,  // measure 7
0100
0000
0010
0000
,  // measure 8
1000
0000
0001
0000
,  // measure 9
1001
1000
0001
1000
,  // measure 10
0000
0001
1000
0001
,  // measure 11
0000
1000
0100
1000
,  // measure 12
0000
0001
0100
0001
,  // measure 13
0000
1000
0010
1000
,  // measure 14
0000
0001
0010
0001
,  // measure 15
0000
0010
0100
0010
,  // measure 16
0000
1001
0000
0000
,  // measure 17
0000
1000
0001
1000
,  // measure 18
0001
1000
0000
1001
,  // measure 19
0000
0001
1000
0001
,  // measure 20
1000
0001
0000
1001
,  // measure 21
0000
0010
0100
0010
,  // measure 22
0100
0010
1000
0001
,  // measure 23
1000
0001
0010
0100
,  // measure 24
0010
0200
0000
0000
,  // measure 25
0000
0310
0001
0010
,  // measure 26
0001
0010
0001
0020
,  // measure 27
0000
0031
1000
0001
,  // measure 28
1000
0001
1000
0002
,  // measure 29
0000
0103
0010
0100
,  // measure 30
0010
0100
0010
0200
,  // measure 31
0000
0310
1000
0010
,  // measure 32
1000
0020
0000
0000
,  // measure 33
0000
1030
0001
1000
,  // measure 34
0001
1000
0000
1001
,  // measure 35
0000
0001
1000
0001
,  // measure 36
1000
0001
0000
1001
,  // measure 37
0000
1000
0001
1000
,  // measure 38
0001
0010
0100
0010
,  // measure 39
0100
1000
0001
1000
,  // measure 40
0001
1000
0000
1001
,  // measure 41
0000
1001
1000
0000
,  // measure 42
0010
0000
0100
0000
,  // measure 43
0000
0000
0010
0000
,  // measure 44
0100
0000
0001
0000
,  // measure 45
1000
0000
0100
0000
,  // measure 46
0010
0000
0001
0000
,  // measure 47
0000
0000
1000
0000
,  // measure 48
0010
0000
0100
0000
,  // measure 49
0001
0000
1001
0000
,  // measure 50
0000
0000
0110
0000
,  // measure 51
0000
0000
1001
0000
,  // measure 52
0000
0000
0110
0000
,  // measure 53
0000
0000
1001
0000
,  // measure 54
1000
0000
1001
0000
,  // measure 55
0001
0000
2000
0000
,  // measure 56
3002
0000
0203
0000
,  // measure 57
0000
0000
0320
0000
,  // measure 58
0000
0000
0000
0000
,  // measure 59
0000
0000
0130
0000
,  // measure 60
0001
0000
2000
0000
,  // measure 61
3002
0000
0203
0000
,  // measure 62
0000
0000
0320
0000
,  // measure 63
0000
0000
1030
0100
,  // measure 64
1000
0000
0001
0010
,  // measure 65
0001
0000
0100
0001
,  // measure 66
0100
0000
0010
1000
,  // measure 67
0010
0000
1000
0001
,  // measure 68
1000
0001
1000
0001
,  // measure 69
1000
0000
2001
0000
,  // measure 70
3020
0000
2030
0000
,  // measure 71
0000
0000
3001
0100
,  // measure 72
0001
0000
0001
0010
,  // measure 73
0001
0000
1000
0010
,  // measure 74
1000
0000
1000
0100
,  // measure 75
1000
0000
0010
0100
,  // measure 76
0010
0100
0010
0100
,  // measure 77
0010
0000
0120
0000
,  // measure 78
2030
0000
3002
0000
,  // measure 79
0000
0000
1003
0000
,  // measure 80
0100
0000
0010
0000
,  // measure 81
0001
0000
0100
0000
,  // measure 82
0010
0000
1000
0000
,  // measure 83
0001
0000
0100
0000
,  // measure 84
0010
0000
1000
0000
,  // measure 85
0100
0000
0010
0000
,  // measure 86
0001
0000
2000
0000
,  // measure 87
0000
0000
3010
0100
,  // measure 88
0010
0000
0100
0010
,  // measure 89
0100
0000
0001
1000
,  // measure 90
0001
0000
1000
0001
,  // measure 91
1000
0000
0001
0100
,  // measure 92
0001
0000
1000
0010
,  // measure 93
1000
0000
0110
0000
,  // measure 94
1001
0000
0110
0000
,  // measure 95
1001
0000
1001
1001
;

//---------------dance-single - ----------------
#NOTES:
     dance-single:
     :
     Medium:
     7:
     0.474,0.599,0.073,0.400,0.004:
0010
0000
0100
0000
,
0001
0000
1000
0000
,
0100
0000
0010
0000
,
0001
0000
0010
0000
,
1000
0000
0010
0000
,
0001
0000
0100
0000
,
1000
0000
0100
0000
,
0001
0000
0010
0000
,
0100
1000
0001
1000
,
0001
0000
1000
0000
0001
0100
0001
0100
,
0001
0100
0001
0000
0010
0000
0100
0000
,
1000
0000
0010
0000
0100
0010
0100
0010
,
0100
0010
0100
0000
0001
0000
1000
0000
,
0100
0000
0010
0000
0100
1000
0100
1000
,
0100
1000
0100
0000
0010
0000
0001
0000
,
0100
0010
0000
0010
,
1000
0000
0100
0010
0100
0000
0010
0100
,
0010
0110
0000
1001
,
0000
0000
0001
1000
0001
0000
1000
0001
,
1000
1001
0000
0110
,
0000
0000
0010
1000
0010
0000
0100
0001
,
0100
0000
0001
0010
0001
0000
1000
0100
,
1000
0000
0100
0010
0100
0000
0010
0100
,
0010
0100
0020
0000
0000
0000
0000
0000
,
0000
0000
0031
0100
0001
0000
0100
0001
,
0100
0000
0001
1000
0001
0000
2000
0000
,
0001
0000
3010
0100
0010
0000
0100
0001
,
0100
0002
0010
2003
,
0100
0000
3010
0100
0010
0000
0100
0010
,
0100
0000
0010
1000
0010
0000
2000
0000
,
0100
0000
3001
1000
0001
0000
1000
0001
,
1000
0000
0010
0100
0010
0100
0010
0100
,
0010
0100
0010
1000
0010
0000
0100
0001
,
0100
0101
0000
1010
,
0000
0000
1000
0100
1000
0000
0001
0010
,
0001
0011
0000
1001
,
0000
0000
1000
0001
1000
0000
0001
0100
,
0001
0000
0100
0010
0100
0000
0010
1000
,
0010
0000
1000
0001
1000
0000
0001
0010
,
0001
0000
0010
0100
0010
0000
0100
1000
,
0100
1001
1000
0010
,
0100
0001
0010
0000
,
0000
0000
0010
0001
,
0100
0010
0100
0001
,
1000
0000
0100
1000
,
0010
0100
0001
0000
,
0000
0000
0001
1000
,
0100
0010
0100
1000
,
0001
0000
0002
0100
,
0103
0000
0200
0010
,
0310
0000
0020
1000
,
1030
0000
2000
0001
,
3001
0000
0001
0001
,
0100
0100
0010
0010
,
1000
1000
0100
0010
,
0001
1000
0100
0010
,
0001
0100
0010
0010
,
0010
0010
0010
0010
,
0010
0010
0020
2030
,
3002
0203
0320
0000
,
0030
0000
2000
0000
0000
0000
3200
0000
0000
0000
0000
0000
,
0000
0000
2300
0000
,
0000
0000
0000
0000
3001
0100
0001
0000
,
1000
0010
1000
0000
0020
0000
0230
0000
,
0302
0000
0023
0000
0130
1000
0100
0000
,
0010
0001
0010
0000
0002
0000
0203
0000
,
0320
0000
2030
0000
3100
0010
0100
0000
,
0010
0100
0010
0000
0001
1000
0001
0000
,
1000
0001
1000
0000
0020
0000
2030
0000
,
3200
0320
0032
0100
,
0010
0000
1000
0000
0103
0010
0100
0000
,
0010
0100
0010
0000
2000
0000
3020
0000
,
0230
0000
0302
0000
0013
0100
0010
0000
,
0100
1000
0100
0000
0020
0000
0032
0000
,
0203
0000
0320
0000
1030
0100
1000
0100
,
1000
0100
1000
0000
0001
0100
0001
0100
,
0001
0100
0001
0000
0200
0000
0320
0000
,
2030
3002
2003
0010
,
0001
0100
3010
0000
,
0100
0000
0001
0000
,
1000
0100
1000
0000
,
0010
0000
0100
0000
,
0001
0010
0001
0000
,
0000
0100
0010
0000
,
0000
1000
0001
0000
,
0010
0000
0200
0000
,
0000
0000
0000
0000
0310
0001
0010
0000
,
0001
0010
0001
0000
0010
0100
0010
0000
,
0100
0010
0100
0000
1000
0100
1000
0000
,
0100
1000
0100
0000
2000
0000
3020
0000
,
0230
0000
0302
0000
0013
0100
1000
0000
,
0010
0100
0001
0000
1000
0100
0010
0000
,
0001
0100
0010
0000
2000
0000
3200
0000
,
0320
0032
2003
0010
,
0001
0100
3010
2002
,
0000
0000
0000
0000
,
0000
0000
0000
0000
,
0000
0000
0000
0000
,
0000
0000
0000
0000
,
0000
0000
0000
0000
,
0000
0000
0000
0000
,
0000
0000
0000
0000
,
0000
0000
0000
0000
,
3003
0000
0000
0000
;

//---------------dance-single - ----------------
#NOTES:
     dance-single:
     :
     Hard:
     9:
     0.620,0.674,0.182,0.036,0.185:
1000
0000
0100
0000
,
0010
0000
0001
0100
,
0010
0000
0100
0000
,
0001
0000
1000
0010
,
0100
0000
0001
0000
,
0010
0100
1000
0001
,
0100
0000
0010
1000
,
0100
0000
0010
0000
,
1001
0000
1000
0100
1000
0010
1000
0100
,
1000
0010
1000
0100
1000
0100
0010
0001
,
0100
0010
1000
0100
1000
0010
1000
0100
,
1000
0010
1000
0100
0010
0100
1000
0001
,
0010
0100
1000
0100
0010
0100
1000
0100
,
0010
0100
1000
0001
0010
0100
1000
0010
,
0100
0001
0010
0001
0100
0001
0010
0001
,
0100
0001
0010
0001
0000
0001
0010
0100
,
1000
0010
0100
0010
1000
0100
0010
0001
,
1000
0010
0100
0000
0010
0000
0110
0000
,
0000
0000
0010
1000
0100
0010
0001
1000
,
0100
0010
0100
0000
1000
0000
1100
0000
,
0000
0000
0100
0010
0001
0100
0010
1000
,
0010
0100
0001
0010
0100
1000
0001
0010
,
0100
1000
0010
0100
0001
0010
0001
1000
,
0100
0010
0001
1000
0000
0000
0010
0000
,
1001
0000
1000
0100
1000
0100
0010
0001
,
0010
0001
1000
0010
1000
0010
0100
0001
,
0010
0100
1000
0010
1000
0010
0100
0001
,
0100
0001
1000
0100
0010
0001
1000
0100
,
0010
0001
0100
0010
0100
0010
1000
0001
,
1000
0001
0010
0100
0010
0100
1000
0010
,
0100
0001
0010
0001
0010
0001
1000
0100
,
1000
0100
0010
0001
0000
0000
0100
0000
,
0110
0000
0010
1000
0100
0010
0001
0100
,
0010
1000
0001
0000
0100
0000
1001
0000
,
0000
0000
0001
0100
0010
0100
0001
1000
,
0100
0010
0001
0000
0100
0000
0110
0000
,
0000
0000
0010
0100
0001
0010
0100
0010
,
0001
1000
0100
0010
0100
1000
0001
0100
,
0010
1000
0100
0010
0001
0100
0010
1000
,
0001
1000
0010
0100
0001
0010
0100
0010
,
0001
1000
1001
0000
1000
0100
0010
0001
,
1000
0010
0100
0000
,
0000
0000
0000
0000
0010
0100
0001
0010
,
0100
1000
0010
1000
,
0001
0000
0000
0000
1000
0010
0100
0001
,
1000
0001
0010
0000
,
0000
0000
0100
1000
,
0001
0000
0100
0000
0010
1000
0010
0100
,
0001
0000
0010
0001
,
0011
0000
0100
1000
,
1100
0000
0010
0100
,
0110
0000
0001
1000
,
1001
0000
1000
0010
,
1010
1000
0001
0010
,
0011
0000
0000
0100
0000
0000
1000
0100
0000
0010
0001
0000
,
0100
0010
0000
1000
0100
0000
0010
0100
0000
1000
0001
0000
,
0100
0010
0000
1000
0001
0000
0100
0000
0000
0100
0000
0000
,
0100
0100
0100
0100
,
0100
0100
0100
0010
,
1000
0000
0000
0001
0000
0000
0100
0001
0100
0001
0100
0001
,
0100
0000
0010
1000
0010
1000
0200
0000
0000
0000
0000
0000
,
0000
0000
0320
0000
,
0000
0000
0000
0000
0031
1000
0100
1000
,
0010
0000
0100
0000
0001
0000
0010
0000
0100
1000
0000
0000
1000
0010
0000
0000
,
0010
0100
0000
0000
0100
0001
0000
0000
0001
0000
0010
0000
0100
0000
1000
0000
,
0010
0000
0100
0000
0001
0000
0100
0000
0010
1000
0000
0000
1000
0001
0000
0000
,
0001
0100
0000
0000
0100
0010
0000
0000
0010
0000
1000
0000
0100
0000
1000
0000
,
0010
0100
0001
0010
0001
0100
0010
1000
,
0100
0000
0010
0000
0001
0000
0100
0000
0010
0100
0000
0000
0100
0001
0000
0000
,
0001
0010
0000
0000
0010
0100
0000
0000
0100
0000
1000
0000
0001
0000
0100
0000
,
0010
0100
0000
0100
0010
0000
1000
0000
0100
0000
0010
0000
0001
0000
0010
0000
,
0100
0000
1000
0000
0010
0000
0100
0000
0001
0010
0000
0000
0010
0100
0000
0000
,
0100
1000
0000
0000
1000
0010
0000
0000
0010
0000
0100
0000
0001
0000
0010
0000
,
0001
0000
1000
0000
0010
0000
0100
0000
0001
1000
0000
0000
1000
0100
0000
0000
,
0100
1000
0000
0000
1000
0001
0000
0000
0001
0000
0100
0000
0001
0000
0010
0000
,
0001
1000
0001
0010
0001
1000
0100
1000
,
0010
0000
1000
0000
0001
0000
1000
0000
0100
0010
0000
0000
0010
0001
0000
0000
,
0001
0100
0000
0000
0100
0010
0000
0000
0010
0000
0100
0000
0001
0000
0010
0000
,
0100
1000
0000
1000
0100
0000
0010
0000
0001
0000
0000
0000
0100
0000
0000
0000
,
0010
0100
0001
0010
,
0100
1100
1010
0010
,
0100
0001
0101
0010
,
1010
1001
0011
0010
,
0100
0110
1100
0100
,
0010
0011
0101
0000
,
0001
0010
0200
0000
,
0000
0000
0000
0000
0310
0001
0100
0010
,
0100
0001
1000
0100
0010
0001
0100
0010
,
1000
0010
0100
0001
1000
0001
0100
0010
,
1000
0000
0001
0000
1000
0000
0100
0000
0010
0001
0000
0000
0001
0100
0000
0000
,
0100
0010
0000
0000
0010
1000
0000
0000
1000
0000
0100
0000
0010
0000
0001
0000
,
0100
0010
1000
0001
0010
0100
1000
0010
,
0100
0000
0001
0000
0010
0000
0100
0000
1000
0100
0000
0000
0100
0010
0000
0000
,
0010
0001
0000
0000
0001
1000
0000
0000
1000
0000
0010
0000
0100
0000
0010
0000
,
1000
0100
0010
0001
0010
0000
2002
0000
,
0000
0000
0000
0000
,
0000
0000
0000
0000
,
0000
0000
0000
0000
,
0000
0000
0000
0000
,
0000
0000
0000
0000
,
0000
0000
0000
0000
,
0000
0000
0000
0000
,
0000
0000
0000
0000
,
3003
0000
0000
0000
;

//---------------dance-single - ----------------
#NOTES:
     dance-single:
     :
     Challenge:
     10:
     0.781,1.000,0.167,0.393,0.385:
1000
0100
0010
0001
,
0100
0010
0100
0001
,
1000
0100
0010
0100
,
1000
0010
0100
0001
,
0010
0100
1000
0010
,
0100
0010
1000
0001
,
1000
0000
1000
0001
,
0100
0001
0010
0100
,
1001
0000
1000
0010
0100
0001
0010
0100
,
0010
0001
1000
0100
0010
0001
0100
0010
,
1000
0100
0001
0100
0010
0001
0010
1000
,
0010
0100
1000
0010
0001
0010
0100
0010
,
1000
0010
0100
1000
0100
0010
0100
0001
,
1000
0100
0010
0100
1000
0001
0100
0010
,
0100
0001
0010
0100
1000
0010
0100
0001
,
1000
0100
0110
0011
0000
0000
0001
0100
,
0010
1000
1001
0100
0010
0001
0100
0010
,
1000
0010
0110
0000
0010
0000
1001
0000
,
1000
0000
1100
0100
0010
0001
1000
0010
,
0100
0010
1010
0000
0010
0000
0110
0000
,
0100
0000
0101
0001
0100
0010
0100
0001
,
1000
0100
0010
0100
1000
0001
0010
0100
,
1000
0010
0100
0001
0010
0001
1000
0100
,
0010
0001
2000
3200
0320
2030
3002
0203
,
2300
0000
3200
0000
1300
0100
1000
0100
1000
0000
0100
0010
0100
0010
0100
0000
,
0010
0001
0010
0001
0010
0000
0001
0100
0001
0100
0001
0000
1000
0010
1000
0000
,
0001
0100
0001
0000
1000
0010
1000
0010
1000
0000
0010
1000
0010
1000
0010
0000
,
0100
0001
0100
0001
0100
0000
0010
1000
0010
0000
0100
0001
0100
0001
0100
0000
,
0001
1000
0001
0000
0100
0010
0100
0010
0100
0000
0010
1000
0010
1000
0010
0000
,
0100
0001
0100
0001
0100
0000
0001
0010
0001
0010
0001
0000
0010
0100
0010
0000
,
0100
1000
0100
0000
0010
0001
0010
0001
0010
0000
0001
0100
0001
0100
0001
0000
,
1000
0010
1000
0010
2000
0000
3020
0000
0230
0000
0302
0000
0203
0000
0320
0000
,
2030
3002
1003
0100
0010
0001
0010
0100
,
1000
0010
0110
0000
0100
0000
0101
0000
,
0001
0000
0011
0100
1000
0100
0010
0001
,
1000
0100
0110
0000
0010
0000
0011
0000
,
1000
0000
1100
1000
0010
0100
0010
1000
,
0001
0100
0010
1000
0010
0001
0010
1000
,
0001
0100
0010
1000
0001
0010
0100
1000
,
0100
0001
0100
1000
0001
0010
1000
0010
,
0001
0100
0110
0000
0010
1000
0100
0001
,
0100
1000
0001
0000
,
0000
0000
0000
0000
0001
0100
1000
0100
,
0010
1000
0001
0010
,
0100
0000
0000
0000
0001
0100
1000
0010
,
0100
0001
0010
0000
,
0000
0000
0010
0100
,
1000
0000
0001
0000
0010
1000
0010
0001
,
1000
0000
0010
0100
,
0101
0000
0001
0010
,
0011
0000
0001
1000
,
1100
0000
0100
0010
,
0110
0000
0100
1000
,
0010
0100
0001
0100
,
0010
0000
0000
0100
0000
0000
0001
0010
0100
1000
0100
0010
,
0001
0010
0100
1000
0100
0010
0001
0100
0010
1000
0100
0010
,
0001
0100
0010
1000
0010
0100
0001
0000
0000
0001
0000
0000
,
0001
0001
0001
0001
,
0001
0001
0002
2003
,
3020
0000
0000
0230
0000
0000
0301
0100
0010
1000
0100
0010
,
0001
0000
1000
0100
0001
0100
2000
0000
0000
0000
0000
0000
,
0000
0000
0000
0000
3020
0230
0302
0023
,
2030
3002
0203
0320
0031
0100
0010
1000
,
0001
0000
0010
0000
0100
0000
1000
0000
0100
1000
0100
0000
0010
0001
0010
0000
,
0001
0100
0001
0000
0100
0010
0100
0000
0001
0000
0010
0000
0001
0000
0100
0000
,
0010
0000
0100
0000
0001
0000
0010
0000
0100
1000
0100
0000
0010
0001
0010
0000
,
0001
0100
0001
0000
1000
0100
1000
0000
0100
0000
0010
0000
0001
0000
0100
0000
,
0001
1000
0001
0010
0001
1000
0100
1000
,
0010
0000
1000
0000
0001
0000
1000
0000
0010
0100
0000
0000
0001
1000
0000
0000
,
0100
0010
0000
0000
0100
1000
0000
0000
0002
0000
0203
0000
2300
0000
3200
0000
,
0302
2003
3020
0230
0310
1000
0001
0100
,
0010
0000
1000
0000
0100
0000
0010
0000
0001
0010
0001
0000
0010
0100
0010
0000
,
0100
1000
0100
0000
0010
0001
0010
0000
0001
0000
1000
0000
0010
0000
0100
0000
,
0010
0000
1000
0000
0001
0000
0010
0000
0100
0010
0100
0000
0010
0001
0010
0000
,
0001
0100
0001
0000
0100
0010
0100
0000
0001
0000
0010
0000
0100
0000
0010
0000
,
0001
0010
0100
0010
0001
1000
0100
0010
,
0100
0000
1000
0000
0100
0000
0010
0000
0100
0010
0000
0000
0001
0100
0000
0000
,
0010
1000
0000
0000
0100
0010
0000
0000
0002
0000
0023
0000
0230
0000
0302
0000
,
2003
3020
0032
0203
0310
0000
0100
0000
,
0001
0010
0100
1000
,
0010
0100
0001
1000
,
0100
0010
0001
0100
,
0010
1000
0001
0100
,
0010
1000
0100
0010
,
0001
0100
0010
1000
,
0100
0000
0010
0000
0002
0203
0320
0032
,
2003
0000
3200
0000
0302
0000
0000
0000
0013
0100
1000
0000
0010
0000
0100
0010
,
1000
0000
0001
0010
0100
0000
0010
0000
0001
0100
0010
0000
0100
0000
0001
1000
,
0100
0000
0010
0001
1000
0000
0010
0000
0100
0000
0010
0000
1000
0000
0001
0000
,
0010
0000
0100
0000
1000
0000
0010
0000
0100
0001
0100
0000
0010
1000
0010
0000
,
1000
0100
1000
0000
0100
0010
0100
0010
0001
0000
0010
0000
0100
0000
1000
0000
,
0001
0100
0010
1000
0010
1000
0100
0010
,
0001
0000
0100
0000
0010
0000
1000
0000
0001
0100
0000
0000
1000
0100
0000
0000
,
0010
0000
0000
1000
0000
0000
0000
0000
0000
0000
0000
0000
0100
0000
0000
0010
0000
0000
0000
0000
0000
0000
0000
0000
0010
0000
0000
0000
0001
0000
0000
0000
0010
0000
0000
0000
0001
0000
0000
0000
0100
0000
0000
0000
0001
0000
0000
0000
,
1000
0010
0100
0001
0010
0100
1001
0000
0000
2002
0000
0000
,
0000
0000
0000
0000
,
0000
0000
0000
0000
,
0000
0000
0000
0000
,
0000
0000
0000
0000
,
0000
0000
0000
0000
,
0000
0000
0000
0000
,
0000
0000
0000
0000
,
0000
0000
0000
0000
,
3003
0000
0000
0000
;

//---------------dance-double - ----------------
#NOTES:
     dance-double:
     :
     Easy:
     4:
     0.289,0.310,0.051,0.196,0.000:
01000000
00000000
00000000
00000000
,
00010000
00000000
00000000
00000000
,
00100000
00000000
00000000
00000000
,
00001000
00000000
00000000
00000000
,
00010000
00000000
00000000
00000000
,
00000100
00000000
00000000
00000000
,
00001000
00000000
00000000
00000000
,
00000001
00000000
00000000
00000000
,
00000100
00000010
00000100
00000010
,
00000000
00001000
00000010
00001000
,
00000000
00000100
00010000
00000100
,
00000000
00100000
00001000
00100000
,
00000000
00010000
10000000
00010000
,
00000000
00100000
01000000
00100000
,
00000000
00001000
00010000
00001000
,
00000000
00010000
00000000
00000010
,
00000100
00000001
00001000
00000010
,
00010000
00001000
00000000
00010000
,
00000000
00001000
00100000
00010000
,
01000000
00100000
00000000
10000000
,
00000000
00100000
01000000
00100000
,
01000000
00010000
00100000
00010000
,
00100000
00001000
00010000
00001000
,
00010000
00000200
00000000
00000000
,
00000000
00000320
00000000
00000000
,
00000032
00000000
00000000
00002003
,
00000000
00003020
00000000
00000000
,
00000000
00020030
00000000
00032000
,
00000000
00203000
00000000
00000000
,
02300000
00000000
00000000
23000000
,
00000000
30200000
00000000
00000000
,
02300000
00000000
00000000
03020000
,
00000000
00130000
00001000
00100000
,
00001000
00010000
00000000
00000100
,
00000000
00000010
00000100
00000010
,
00000100
00010000
00000000
00001000
,
00000000
01000000
00010000
01000000
,
00010000
00100000
00001000
00100000
,
00001000
00000010
00000001
00000010
,
00000001
00000100
00000010
00010000
,
00001000
00011000
00001000
00000000
,
00010000
00000100
00000010
00000000
,
00000000
00000000
00000001
00000000
,
00000100
00000010
00010000
00001000
,
00100000
00000000
00010000
00000000
,
01000000
00001000
00100000
00000000
,
00000000
00000000
00010000
00000000
,
10000000
00000000
01000000
00100000
,
00001000
00000000
00011000
00000000
,
00000000
00000000
00010100
00000000
,
00000000
00000000
00011000
00000000
,
00000000
00000000
00101000
00000000
,
00000000
00000000
00011000
00010000
,
00001000
00100000
00010000
01000000
,
00001000
00010000
00000010
00001000
,
00000100
00010000
00001000
00100000
,
00010000
01000000
00100000
00000000
,
00000000
00000000
00000000
00000000
,
00000000
00000000
10000000
00000000
,
01000000
00000000
00200000
00000000
,
00302000
00000000
00023000
00000000
,
00000000
00000000
00000000
00000000
,
00000000
00000000
00030010
00000100
,
00000010
00000100
00000002
00000000
,
00002003
00000000
00003100
00010000
,
00000100
00010000
00002000
00000000
,
00203000
00000000
01300000
10000000
,
01000000
10000000
00010000
00100000
,
00010000
00100000
00001000
00010000
,
00000100
00000010
00000002
00000000
,
00002003
00000000
00003001
00000100
,
00000001
00000100
00000020
00000000
,
00020030
00000000
00031000
00100000
,
00001000
00100000
00020000
00000000
,
20030000
00000000
30100000
01000000
,
00100000
01000000
00010000
10000000
,
00010000
10000000
01000000
00100000
,
00001000
00010000
00000100
00000010
,
00000001
00001000
00000010
00000000
,
00000000
00000000
00010000
00000000
,
00000000
00000000
00000100
00000000
,
00000000
00000000
00010000
00000000
,
00000000
00000000
00001000
00010000
,
00001000
00000000
00010000
00001000
,
00010000
00000000
00001000
00000000
,
01000000
00000000
00200000
00000000
,
00000000
00000000
10300000
01000000
,
10000000
01000000
00100000
00001000
,
00100000
00001000
00010000
00000100
,
00010000
00000100
00000010
00000001
,
00000100
00000010
00001000
00000100
,
00010000
00001000
00100000
00010000
,
01000000
00100000
10000000
01000000
,
00100000
00010000
00001000
00000100
,
00000010
00000001
00000000
00001001
;

//---------------dance-double - ----------------
#NOTES:
     dance-double:
     :
     Medium:
     7:
     0.385,0.551,0.095,0.255,0.000:
00001000
00000000
00010000
00000000
,
00001000
00000000
00100000
00000000
,
00001000
00000000
00010000
00000000
,
00000100
00000000
00010000
00000000
,
00001000
00000000
00100000
00000000
,
01000000
00000000
10000000
00000000
,
00100000
00000000
01000000
00000000
,
00001000
00000000
00010000
00000000
,
00011000
00000100
00000010
00000001
,
00000100
00000000
00000010
00000000
00010000
00000000
00001000
00010000
,
00001000
00010000
00001000
01000000
,
00100000
00000000
10000000
00000000
01000000
00100000
01000000
00100000
,
01000000
10000000
00010000
01000000
,
00100000
00000000
01000000
00000000
00001000
00000000
00010000
00001000
,
00010000
00000010
00000100
00000001
,
00000010
00000000
00000100
00001000
00000000
00000000
00001100
00000000
,
00000011
00000010
00000001
00000100
,
00000010
00001000
00000000
00010100
,
00000000
00001000
00100000
01000000
,
00100000
00010000
00000000
00101000
,
00000000
00010000
00100000
00001000
,
00010000
00000100
00000010
00000001
,
00001000
00000010
00000100
00000010
,
00010000
00002000
00000000
00000000
,
00000000
00000000
00103000
00010000
00100000
00000000
01000000
00000000
,
10000000
00000000
00100000
00000000
01000000
00000000
00001000
00010000
,
00001000
00010000
00001000
00000000
00100000
00000000
00010000
00000000
,
01000000
00002000
00010000
00023000
,
00000100
00000000
00030100
00001000
00000100
00000000
00001000
00000000
,
00000010
00000000
00000100
00000000
00000001
00000000
00001000
00000010
,
00001000
00000010
00001000
00000000
00000100
00000000
00010000
00000000
,
00001000
02000000
00000000
00000000
,
00000000
03100000
10000000
00010000
,
00100000
01000000
00000000
01100000
,
00000000
01000000
00100000
00010000
,
00001000
00000100
00000000
00000011
,
00000000
00000001
00001000
00000100
,
00000010
00000100
00010000
00000010
,
00000100
00001000
00010000
00100000
,
01000000
00010000
00100000
00001000
,
00010000
00011000
00010000
00000000
,
00000100
00001000
00000001
00000000
,
00000000
00000000
00000100
00000000
,
00000010
00001000
00000100
00010000
,
01000000
00000000
10000000
00000000
,
00100000
01000000
00001000
00000000
,
00000000
00000000
00010000
00000000
,
00001000
00000000
00100000
01000000
,
10000000
00000000
00200000
00000000
,
00300000
01000000
02000000
00000000
,
03000000
00001000
00002000
00000000
,
00003000
00010000
00020000
00000000
,
00030000
00000100
00000200
00000000
,
00000320
00000000
00000032
00000000
,
00002003
00000000
00003200
00000000
,
00020300
00000000
00032000
00000000
,
02003000
00000000
03100000
00000000
,
00000000
00000000
00000000
00000000
,
00000000
00000000
01000000
00001000
,
00100000
00010000
20000000
00000000
,
32000000
00000000
03020000
00000000
,
00000000
00000000
00032000
00000000
,
00000000
00000000
00000000
00000000
00013000
00000100
00000010
00000000
,
00000001
00001000
00000100
00010100
,
00010000
00000000
00011000
00000000
00001000
01000000
00100000
00000000
,
10000000
00010000
00100000
00110000
,
00010000
00000000
10010000
00000000
10000000
00100000
01000000
00000000
,
00100000
01000000
00001000
00000000
00010000
00000100
00000010
00000000
,
00000100
00000010
00000001
00000000
00000001
00000000
00001000
00000000
,
00010000
10000000
00200000
00000000
,
02300000
00000000
00000000
00000000
03010000
00100000
00001000
00000000
,
00010000
01000000
10000000
00000000
00100000
00000000
01000000
00000000
,
00001000
00000000
00010000
00000000
00000010
00000100
00000001
00000000
,
00001000
00000100
00010000
00000000
00002000
00000000
00000000
00000000
,
02003000
00000000
00000000
00000000
03100000
10000000
00100000
00000000
,
10000000
01000000
10000000
00000000
01000000
00100000
01000000
00000000
,
00100000
00001000
00100000
00000000
00001000
00000000
00010000
00000000
,
00000100
00000010
00000002
00000000
,
00002003
00000000
00003010
00000000
,
00010000
00000000
00001000
00000000
,
00100000
01000000
10000000
00000000
,
00010000
00000000
01000000
00000000
,
00001000
00010000
00000100
00000000
,
00000000
00010000
00001000
00000000
,
00000000
01000000
00010000
00000000
,
10000000
00000000
02000000
00000000
,
00000000
00000000
00000000
00000000
03100000
00001000
00010000
00000000
,
00000010
00001000
00000100
00000000
00000010
00000001
00000100
00000000
,
00000010
00010000
00001000
00000000
00010000
00001000
00100000
00000000
,
00010000
10000000
00100000
00000000
02000000
00000000
03020000
00000000
,
00230000
00000000
00302000
00000000
00013000
00001000
00010000
00000000
,
00001000
00100000
00001000
00000000
00100000
01000000
00100000
00000000
,
01000000
10000000
01000000
00000000
00200000
00000000
00302000
00000000
,
00023000
00000000
00030020
00000000
00010030
00000100
00000010
00000001
,
00000100
00000010
00010000
00001000
00010000
00000000
00011000
00000000
;

//---------------dance-double - ----------------
#NOTES:
     dance-double:
     :
     Hard:
     9:
     0.570,0.637,0.145,0.044,0.171:
10000000
00000000
01000000
00000000
,
00100000
00000000
00001000
00000000
,
00010000
00000000
00100000
00000000
,
01000000
00000000
00010000
00000000
,
00001000
00000000
00000010
00000000
,
00010000
00000000
00001000
00000000
,
00000100
00000000
00001000
00000000
,
00100000
00000000
01000000
00000000
,
11000000
00000000
10000000
01000000
00100000
00000000
00100000
00010000
,
01000000
00000000
01000000
00001000
00010000
00000000
00010000
00000100
,
00000010
00000000
00000010
00000001
00000100
00000000
00000100
00000010
,
00010000
00000000
00010000
00001000
00100000
00000000
00100000
01000000
,
10000000
00000000
10000000
00100000
00010000
00000000
00010000
00100000
,
01000000
00000000
01000000
00010000
00100000
00000000
00100000
00001000
,
00000100
00000000
00000100
00000001
00000010
00000000
00000010
00000100
,
00001000
00000000
00000000
00011000
00000000
00000000
00110000
00000000
,
11000000
00000000
10000000
01000000
00100000
00010000
01000000
00100000
,
00010000
00001000
00000100
00000000
00000000
00000000
00000110
00000000
,
00000000
00000000
00000010
00001000
00000100
00010000
00001000
00000100
,
00000010
00001000
00000100
00000000
00000000
00000000
00001100
00000000
,
00000000
00000000
00001000
00000100
00010000
00001000
00100000
00010000
,
01000000
00100000
10000000
00100000
01000000
00010000
00100000
00001000
,
00000010
00000100
00000001
00000100
00000010
00001000
00010000
01000000
,
10000000
00100000
02000000
00000000
00000000
00000000
00000000
00000000
,
00000000
00000000
03100000
10000000
00100000
10000000
01000000
00100000
,
01000000
00100000
00001000
00010000
00001000
00010000
00000010
00000100
,
00000001
00001000
00000100
00000010
00000100
00000010
00001000
00010000
,
00001000
00010000
01000000
10000000
00010000
00100000
01000000
10000000
,
00100000
01000000
00010000
01000000
00010000
01000000
00001000
00100000
,
00001000
00100000
00000100
00000010
00000100
00000010
00000001
00000100
,
00001000
00010000
00100000
10000000
00100000
10000000
00100000
00010000
,
00001000
00010000
00000000
00001100
00000000
00000000
00000101
00000000
,
00000110
00000000
00000010
00001000
00000100
00010000
00001000
00100000
,
00001000
00000100
00000010
00000000
00000000
00000000
00001010
00000000
,
00000000
00000000
00001000
00000010
00000100
00001000
00010000
00100000
,
10000000
01000000
00100000
00000000
00000000
00000000
00110000
00000000
,
00000000
00000000
00100000
01000000
00010000
00001000
00000010
00000100
,
00001000
00000001
00000100
00000010
00001000
00000100
00010000
00000010
,
00001000
00000100
00010000
00001000
00100000
01000000
10000000
00010000
,
00100000
00001000
00000100
00000010
00001000
00000001
00000010
00000100
,
00010000
00000010
00000110
00000000
10000000
00100000
01000000
00001000
,
00010000
01000000
10000000
00000000
,
00000000
00000000
00000000
00000000
00010000
00100000
00001000
00010000
,
00000100
00000010
00000001
00000100
,
00010000
00000000
00000000
00000000
01000000
00100000
10000000
01000000
,
00100000
00010000
01000000
00000000
,
00000000
00000000
00010000
00100000
,
00001000
00000000
00010000
00000000
00000100
00000010
00000001
00000100
,
00000010
00000000
00001000
00000100
,
00010000
00000000
00001000
00100000
,
01000000
00000000
10000000
00100000
,
01000000
00000000
00001000
00010000
,
00000100
00000000
00000010
00000001
,
00000100
00000010
00001000
00000100
,
00010000
00000000
00000000
00001000
00000000
00000000
00100000
00010000
00000000
00010000
01000000
00000000
,
01000000
00001000
00000000
00001000
00010000
00000000
00010000
00000100
00000000
00000100
00000010
00000000
,
00000010
00000001
00000000
00000001
00000100
00000000
00000010
00000000
00000000
00000010
00000000
00000000
,
00000010
00000010
00000010
00000010
,
00000010
00000010
00000100
00001000
,
00010000
00000000
00000000
01000000
00000000
00000000
10000000
01000000
10000000
01000000
10000000
01000000
,
10000000
00000000
00100000
00010000
00100000
00010000
02000000
00000000
00000000
00000000
00000000
00000000
,
00000000
00000000
03002000
00000000
,
00000000
00000000
00000000
00000000
00013000
00000100
00000010
00000001
,
00000100
00000000
00000010
00000000
00010000
00000000
00001000
00000000
00100000
00010000
00000000
00000000
00010000
01000000
00000000
00000000
,
01000000
00001000
00000000
00000000
00001000
00010000
00000000
00000000
00010000
00000000
01000000
00000000
10000000
00000000
00100000
00000000
,
01000000
00000000
00001000
00000000
00010000
00000000
00000100
00000000
00000010
00000001
00000000
00000000
00000001
00000100
00000000
00000000
,
00000100
00000010
00000000
00000000
00000010
00010000
00000000
00000000
00010000
00000000
00000100
00000000
00001000
00000000
00000010
00000000
,
00010000
00001000
00100000
00010000
01000000
00001000
00100000
00010000
,
10000000
00000000
01000000
00000000
00010000
00000000
00001000
00000000
00000010
00000001
00000000
00000000
00000001
00001000
00000000
00000000
,
00001000
00000100
00000000
00000000
00000100
00010000
00000000
00000000
00010000
00000000
00000010
00000000
00001000
00000000
00000100
00000000
,
00010000
00001000
00010000
00000100
00000010
00000001
00000100
00000010
,
00001000
00000000
00000100
00000000
00000010
00000000
00000001
00000000
00000100
00000010
00000000
00000000
00000010
00001000
00000000
00000000
,
00001000
00010000
00000000
00000000
00010000
01000000
00000000
00000000
01000000
00000000
00100000
00000000
00010000
00000000
00001000
00000000
,
00100000
00000000
00010000
00000000
01000000
00000000
00001000
00000000
00010000
00000100
00000000
00000000
00000100
00001000
00000000
00000000
,
00001000
00000010
00000000
00000000
00000010
00000100
00000000
00000000
00000100
00000000
00000010
00000000
00001000
00000000
00000100
00000000
,
00010000
00001000
00100000
00010000
01000000
00100000
10000000
01000000
,
00100000
00000000
00001000
00000000
00010000
00000000
00000100
00000000
00000010
00000001
00000000
00000000
00000001
00000100
00000000
00000000
,
00000100
00000010
00000000
00000000
00000010
00001000
00000000
00000000
00001000
00000000
00000100
00000000
00000010
00000000
00000100
00000000
,
00001000
00010000
10000000
01000000
00100000
00000000
00000000
00000000
,
10000000
00000000
01000000
00000000
,
00100000
00001000
00011000
00000000
,
00000010
00000000
00000110
00000000
,
00000101
00000010
00001100
00000000
,
00000000
00001000
00010100
00000000
,
00000000
00100000
01001000
00000000
,
00100000
10000000
02000000
00000000
,
00000000
00000000
00000000
00000000
03100000
00001000
00010000
00001000
,
00000100
00000010
00001000
00000001
00000010
00000100
00000001
00000100
,
00001000
00000010
00010000
00001000
00100000
00010000
01000000
00100000
,
10000000
00000000
01000000
00000000
00010000
00000000
01000000
00000000
00100000
00010000
00000000
00000000
00010000
01000000
00000000
00000000
,
01000000
00001000
00000000
00000000
00001000
00010000
00000000
00000000
00010000
00000000
00000100
00000000
00000010
00000000
00000001
00000000
,
00000100
00000010
00001000
00000100
00010000
00001000
00100000
00010000
,
01000000
00000000
00100000
00000000
10000000
00000000
01000000
00000000
00100000
00010000
00000000
00000000
00010000
10000000
00000000
00000000
,
10000000
00100000
00000000
00000000
00100000
01000000
00000000
00000000
01000000
00000000
00001000
00000000
00010000
00000000
00000100
00000000
,
00000010
00000001
00000100
00000000
00001001
00000000
00000220
00000000
,
00000000
00000000
00000000
00000000
,
00000000
00000000
00000000
00000000
,
00000000
00000000
00000000
00000000
,
00000000
00000000
00000000
00000000
,
00000000
00000000
00000000
00000000
,
00000000
00000000
00000000
00000000
,
00000000
00000000
00000000
00000000
,
00000000
00000000
00000000
00000000
,
00000330
00000000
00000000
00000000
;

//---------------dance-double - ----------------
#NOTES:
     dance-double:
     :
     Challenge:
     10:
     0.717,0.899,0.247,0.182,0.382:
00001000
00010000
00001000
00100000
,
01000000
10000000
00010000
00100000
,
00001000
00000010
00000100
00001000
,
00000010
00000100
00010000
01000000
,
00100000
10000000
00010000
01000000
,
00001000
00100000
01000000
00010000
,
00001000
00000000
00000010
00000001
,
00000100
00001000
00000100
00000010
,
00000110
00000000
00010000
00001000
01000000
00100000
10000000
00010000
,
00100000
00001000
00010000
00000000
00010000
00000100
00000010
00000100
,
00000001
00000100
00000000
00000100
00001000
00000010
00000100
00001000
,
00010000
00100000
01000000
00000000
01000000
00010000
00100000
00001000
,
01000000
00100000
00000000
00100000
10000000
01000000
00010000
00001000
,
00000010
00000001
00001000
00000000
00001000
00000010
00000100
00001000
,
00000001
00000010
00000000
00000010
00000100
00000001
00000100
00001000
,
00010000
00001000
01000000
01001000
00000000
00000000
01010000
00000000
,
10100000
10000000
10010000
01000000
00100000
00010000
01000000
00001000
,
00010000
00100000
01100000
00000000
00100000
00000000
10100000
00000000
,
10000000
00000000
10010000
01000000
00100000
00010000
00001000
00000100
,
00010000
00001000
00001010
00000000
00000010
00000000
00000110
00000000
,
00000100
00000000
00000101
00000001
00001000
00000100
00000010
00010000
,
00100000
00001000
01000000
00100000
10000000
00010000
01000000
00001000
,
00010000
00000100
00000010
00000001
00001000
00000010
00010000
00001000
,
01000000
00100000
00020000
00032000
00203000
00320000
00032000
00003200
,
00020300
00000000
00032000
00000000
00013000
00000100
00010000
00000000
00000010
00000000
00000100
00000001
00000100
00000000
00000010
00000000
,
00001000
00000010
00001000
00000000
00000100
00000000
00010000
00001000
00010000
00000000
00001000
00000000
01000000
00010000
01000000
00000000
,
00100000
10000000
00100000
00000000
10000000
01000000
10000000
00000000
00010000
00000000
01000000
00100000
01000000
00000000
00001000
00000000
,
00010000
00000100
00010000
00000000
00001000
00000000
00100000
00000000
00010000
00000000
00001000
00000000
00000100
00000010
00000100
00000010
,
00000100
00000000
00001000
00000000
00000001
00000010
00000001
00000000
00000100
00000000
00000010
00001000
00000010
00000000
00001000
00000000
,
00000100
00000010
00000100
00000000
00010000
00000000
00001000
00010000
00001000
00000000
01000000
00000000
00100000
01000000
00100000
00000000
,
01000000
00010000
01000000
00000000
00001000
00100000
00001000
00000000
00010000
00000000
00000100
00001000
00000100
00000000
00001000
00000000
,
00000001
00000100
00000001
00000000
00000100
00000000
00000110
00000000
00000000
00000000
00000000
00000000
00010010
00000000
00000000
00000000
,
00011000
00001000
01001000
01000000
00100000
00010000
00001000
00100000
,
01000000
10000000
10010000
00000000
00010000
00000000
01001000
00000000
,
01000000
00000000
01100000
00100000
10000000
00010000
00100000
00001000
,
01000000
00001000
00101000
00000000
00001000
00000000
00011000
00000000
,
00010000
00000000
00010100
00000100
00000010
00000001
00001000
00000100
,
00010000
00000010
00000100
00000001
00010000
00000100
00100000
00010000
,
01000000
00001000
00100000
01000000
10000000
00001000
00010000
01000000
,
00100000
00010000
00001000
00000100
00010000
00000010
00001000
00010000
,
00100000
01000000
10010000
00000000
00000001
00010000
00000100
00000010
,
00000001
00001000
00000010
00000000
,
00000000
00000000
00000000
00000000
00010000
00001000
00100000
01000000
,
10000000
00010000
00001000
00000001
,
00000100
00000000
00000000
00000000
00000010
00010000
00001000
00100000
,
00010000
01000000
00001000
00000000
,
00000000
00000000
10000000
00010000
,
00001000
00000000
00000001
00000000
00010000
00000010
00000100
00000001
,
00001000
00000000
00000010
00000100
,
00000001
00000000
00001000
00000100
00000000
00000000
00010000
00000000
00000000
00001000
00000000
00000000
,
01000000
00000000
00100000
10000000
00000000
00000000
00010000
00000000
00000000
00100000
00000000
00000000
,
00001000
00000000
00010000
00000100
00000000
00000000
00001000
00000000
00000000
00000010
00000000
00000000
,
00010000
00000000
00001000
01000000
00000000
00000000
00100000
00000000
00000000
01000000
00000000
00000000
,
00001000
00010000
00000100
00000010
,
00000001
00000000
00000000
00001000
00000000
00000000
00001000
00000010
00010000
00000100
00001000
00000010
,
00010000
00000100
00001000
00000010
00000100
00000001
00001000
00000100
00010000
00001000
00100000
00010000
,
01000000
00100000
10000000
01000000
00100000
00010000
20000000
00000000
00000000
01000000
00000000
00000000
,
01000000
01000000
01000000
01000000
,
01000000
01000000
32000000
03200000
,
00302000
00000000
00000000
00023000
00000000
00000000
00030100
00000010
00000001
00001000
00000100
00010000
,
00001000
00000000
00010000
00000010
00001000
00000100
00000020
00000000
00000000
00000000
00000000
00000000
,
00000000
00000000
00000000
00000000
00000032
00000203
00002300
00003002
,
00000023
00000000
00020030
00000000
00032000
00000000
00203000
00000000
00310000
01000000
00010000
00000000
10000000
00000000
01000000
00000000
,
00100000
00010000
00100000
00000000
00001000
00000000
00010000
00000000
00001000
00100000
00000000
00000000
00001000
01000000
00000000
00000000
,
00010000
10000000
00000000
00000000
00001000
00010000
00000000
00000000
00001000
00100000
00001000
00000000
00010000
00000000
00000100
00000000
,
00000010
00000001
00000010
00000000
00000001
00000000
00000100
00000000
00000010
00010000
00000000
00000000
00000100
00010000
00000000
00000000
,
00001000
01000000
00000000
00000000
00001000
00100000
00000000
00000000
00010000
00000000
01000000
00000000
00100000
00000000
10000000
00000000
,
00010000
01000000
00001000
00100000
00010000
00001000
00000100
00010000
,
00001000
00000000
00100000
00000000
00000100
00000000
00010000
00000000
00000010
00001000
00000000
00000000
00000100
00010000
00000000
00000000
,
00000001
00001000
00000000
00000000
00000010
00010000
00000000
00000000
00000100
00000000
00010000
00000000
00001000
00000000
00000100
00000000
,
00000010
00000000
00001000
00000000
00010000
00000000
01000000
00000000
00100000
00010000
00100000
00000000
01000000
00000000
10000000
00000000
,
00100000
01000000
00100000
00000000
01000000
00000000
00001000
00000000
00010000
00000010
00000000
00000000
00010000
00000100
00000000
00000000
,
00001000
00000001
00000000
00000000
00010000
00001000
00000000
00000000
00010000
00000100
00010000
00000000
00000010
00000000
00000100
00000000
,
00000001
00000100
00000001
00000000
00000010
00000000
00000100
00000000
00010000
00001000
00000000
00000000
00100000
00001000
00000000
00000000
,
01000000
00001000
00000000
00000000
10000000
00010000
00000000
00000000
01000000
00000000
00100000
00000000
00010000
00000000
00001000
00000000
,
00100000
00010000
00001000
00000100
00010000
00001000
00000100
00000010
,
00001000
00000000
00000100
00000000
00000010
00000000
00000001
00000000
00000100
00000010
00000000
00000000
00010000
00000100
00000000
00000000
,
00100000
00001000
00000000
00000000
01000000
00010000
00000000
00000000
01000000
00100000
01000000
00100000
01000000
00000000
00010000
00000000
,
00100000
00001000
00100000
00001000
00100000
00000000
00001000
00000000
00010000
00000000
00000000
00000000
00000000
00000000
00000000
00000000
,
00001000
00000000
01000000
00000000
,
00100000
10100000
01100000
00000000
,
01000000
00000000
00011000
00000000
,
00010100
00001100
00000110
00000000
,
00000000
00000011
00000101
00000000
,
00000000
00000110
00010010
00000000
,
00010000
00001000
00200000
00000000
,
00000000
00000000
00000000
00000000
00000000
00000000
00000000
00000000
00301000
01000000
00100000
00000000
10000000
00000000
00010000
00100000
,
01000000
00000000
10000000
00100000
01000000
00000000
00001000
00000000
00010000
00000100
00001000
00000000
00000010
00000000
00000100
00000001
,
00000010
00000000
00000100
00010000
00001000
00000000
00010000
00000000
00000010
00000000
00000100
00000000
00000001
00000000
00001000
00000000
,
00000100
00000000
00010000
00000000
00001000
00000000
01000000
00000000
00100000
10000000
00000000
00000000
00010000
01000000
00000000
00000000
,
00000010
00001000
00000000
00000000
00000001
00000100
00000000
00000000
00000010
00000000
00000100
00000000
00001000
00000000
00010000
00000000
,
00000100
00001000
00010000
00100000
00001000
00010000
00100000
01000000
,
00010000
00000000
00100000
00000000
01000000
00000000
10000000
00000000
00001000
01000000
00000000
00000000
00001000
00100000
00000000
00000000
,
00010000
00000000
00000000
10000000
00000000
00000000
00000000
00000000
00000000
00000000
00000000
00000000
00001000
00000000
00000000
00010000
00000000
00000000
00000000
00000000
00000000
00000000
00000000
00000000
00001000
00000000
00000000
00000000
00100000
00000000
00000000
00000000
00010000
00000000
00000000
00000000
01000000
00000000
00000000
00000000
00001000
00000000
00000000
00000000
00010000
00000000
00000000
00000000
,
00000100
00000010
00000001
00001000
00000010
00010000
00011000
00000000
00000000
00022000
00000000
00000000
,
00000000
00000000
00000000
00000000
,
00000000
00000000
00000000
00000000
,
00000000
00000000
00000000
00000000
,
00000000
00000000
00000000
00000000
,
00000000
00000000
00000000
00000000
,
00000000
00000000
00000000
00000000
,
00000000
00000000
00000000
00000000
,
00000000
00000000
00000000
00000000
,
00033000
00000000
00000000
00000000
;
