#TITLE:Alone;
#SUBTITLE:;
#ARTIST:Mario Lopez;
#TITLETRANSLIT:;
#SUBTITLETRANSLIT:;
#ARTISTTRANSLIT:;
#GENRE:;
#CREDIT:;
#MENUCOLOR:;
#METERTYPE:DDR;
#BANNER:alone-bn.png;
#BACKGROUND:alone-bg.png;
#LYRICSPATH:Alone.lrc;
#CDTITLE:DDREncore2.png;
#MUSIC:Alone.mp3;
#OFFSET:-0.443;
#SAMPLESTART:81.288;
#SAMPLELENGTH:12.000;
#SELECTABLE:YES;
#LISTSORT:;
#BPMS:0.000=140.001;
#STOPS:;
#BGCHANGES:;
#ATTACKS:;

//---------------dance-single - ----------------
#NOTES:
     dance-single:
     :
     Hard:
     8:
     0.433,0.518,0.194,0.194,0.169: // measure 1
0000
0000
0000
0000
,  // measure 2
0000
0000
0000
0000
,  // measure 3
0000
0000
0000
0000
,  // measure 4
0000
0000
0000
0000
,  // measure 5
0000
0000
0000
0000
,  // measure 6
0000
0000
0000
0000
,  // measure 7
0000
0000
0000
0000
,  // measure 8
0000
0000
0000
0000
0000
0000
0000
0000
0000
0000
0000
0000
1000
0000
0000
0001
,  // measure 9
0000
0000
0100
0000
0010
0000
0000
1000
0000
0000
0100
0000
0001
0000
0000
0100
,  // measure 10
0000
0000
1000
0000
0001
0000
0000
0100
0000
0000
1000
0000
0100
0000
0000
0001
,  // measure 11
0000
0000
0010
0000
0001
0000
0000
1000
0000
0000
0100
0000
0020
0000
0000
0000
,  // measure 12
0032
0000
0000
0000
1003
0000
0001
0000
0200
0000
0000
0000
0310
0000
0000
1000
,  // measure 13
0000
0000
0100
0000
1000
0000
0000
0001
0000
0000
0010
0000
0001
0000
0000
0100
,  // measure 14
0000
0000
0010
0000
1000
0000
0000
0100
0000
0000
0010
0000
0001
0000
0000
1000
,  // measure 15
0000
0000
0010
0000
0100
0000
0000
0001
0000
0000
1000
0000
0100
0000
0000
1000
,  // measure 16
0000
0000
0001
0000
0010
0000
0000
0001
0000
0000
0100
0000
0010
0000
0000
1001
,  // measure 17
0000
0000
0100
0000
0010
0000
0000
1100
0000
0000
1000
0000
0001
0000
0000
0101
,  // measure 18
0000
0000
0001
0000
1000
0000
0000
1010
0000
0000
0010
0000
0100
0000
0000
1001
,  // measure 19
0000
0000
0100
0000
0001
0000
0000
0101
0000
0000
1000
0000
0100
0000
0000
1100
,  // measure 20
0000
0000
0001
0000
0010
0000
0000
0011
0000
0000
0001
0000
2002
0000
0000
0000
,  // measure 21
0000
0000
0003
0200
,  // measure 22
0000
0000
3300
1000
,  // measure 23
0101
0000
0001
1000
0100
0000
0010
0001
,  // measure 24
0100
0000
0010
1000
0100
0000
0020
0000
,  // measure 25
0001
0100
0031
0200
,  // measure 26
0010
0000
1000
0000
0310
0000
1000
0100
,  // measure 27
0010
0000
0001
0000
1001
0000
1000
0001
,  // measure 28
0100
0000
0010
0000
0110
0000
0001
0010
,  // measure 29
0100
0000
1000
0100
0010
0000
0001
0100
,  // measure 30
0010
0000
1000
0100
0010
0000
0001
0000
,  // measure 31
1100
0000
0010
0001
0100
0000
0010
0000
,  // measure 32
0101
0000
1000
0100
0010
0000
0001
0100
,  // measure 33
0001
0000
1000
0010
1000
0000
0100
0010
,  // measure 34
0001
1000
0100
0000
0010
0001
0100
0001
,  // measure 35
1000
0000
0001
0000
0101
0000
1000
0100
,  // measure 36
1000
0010
1001
0200
,  // measure 37
0000
0310
0002
0020
,  // measure 38
0000
0000
0000
0000
,  // measure 39
0000
0000
0033
1000
,  // measure 40
1001
0000
0001
0100
0010
1000
0100
0000
,  // measure 41
1000
0001
0100
0000
0010
0100
0001
0000
,  // measure 42
1100
0000
0001
0010
0001
1000
0000
0100
,  // measure 43
1000
0010
0100
0001
1000
0100
1000
0000
,  // measure 44
0101
0000
0010
0001
0100
0020
0000
1030
,  // measure 45
0100
2000
0000
3001
0100
0002
0000
0000
,  // measure 46
1003
0000
0100
1000
0100
0000
0010
0001
,  // measure 47
0010
0000
0001
1000
0001
0100
0010
0000
,  // measure 48
1001
0000
1000
0100
0010
0001
0000
0010
,  // measure 49
0100
1000
0000
0001
0100
0010
1000
0000
,  // measure 50
1001
0000
0100
0010
1000
0100
0000
1000
,  // measure 51
0001
0100
0010
0100
0001
1000
0001
0000
,  // measure 52
0110
0000
1000
0100
0010
0200
0000
1300
,  // measure 53
0001
0200
0000
1300
0100
0002
0000
0000
,  // measure 54
0013
0000
0001
1000
0100
0000
1000
0001
,  // measure 55
0010
0000
0001
0100
0010
1000
0002
0000
,  // measure 56
0203
0000
0000
0000
2300
0000
0000
0000
3020
0000
0000
0000
0031
0000
0000
1000
,  // measure 57
0000
0000
0001
0000
0100
0000
0000
0010
0000
0000
1000
0000
0100
0000
0000
0001
,  // measure 58
0000
0000
0100
0000
1000
0000
0000
0001
0000
0000
0100
0000
0010
0000
0000
0100
,  // measure 59
0000
0000
0001
0000
1000
0000
0000
0100
0000
0000
0010
0000
0001
0000
0000
0100
,  // measure 60
0000
0000
0010
0000
1000
0000
0000
0001
0000
0000
0100
0000
0010
0000
1000
0001
,  // measure 61
0000
0001
1000
0000
0100
0000
0010
0001
0000
0001
0010
0000
0100
0000
1000
0000
,  // measure 62
0010
0000
0100
0000
0001
0000
1000
0010
0000
0010
1000
0000
0001
0000
0010
0100
,  // measure 63
0000
0100
0010
0000
0001
0000
1000
0010
0000
0010
1000
0000
0001
0000
0100
0000
,  // measure 64
1000
0100
0001
1000
0100
0010
0220
0000
,  // measure 65
0000
0000
0330
0000
;

//---------------dance-single - ----------------
#NOTES:
     dance-single:
     :
     Beginner:
     1:
     0.095,0.162,0.034,0.076,0.000:
0000
0000
0000
0000
,
0000
0000
0000
0000
,
0000
0000
0000
0000
,
0000
0000
0000
0000
,
0000
0000
0000
0000
,
0000
0000
0000
0000
,
0000
0000
0000
0000
,
0000
0000
0000
1000
,
0000
0000
0000
1000
,
0000
0000
0000
0001
,
0000
0000
0000
0110
,
0000
0000
0000
0100
,
0000
0000
0000
0100
,
0000
0000
0000
0010
,
0000
0000
0000
0010
,
0000
0000
0000
1000
,
0000
0100
0000
1000
,
0000
0100
0000
0010
,
0000
0001
0000
0010
,
0000
0001
0000
2002
,
0000
0000
0000
0000
,
0000
0000
3003
1000
,
0000
0000
0000
0100
,
0000
0000
0000
0010
,
0000
0000
0000
0000
,
0000
0000
0000
0001
,
0000
0000
0000
1000
,
0000
0000
0001
0001
,
0000
0000
0000
0000
,
0000
0000
0000
0001
,
0000
0000
0000
0100
,
0000
0000
0000
0010
,
0000
0000
0000
0000
,
0000
0000
0000
1000
,
0000
0000
0000
1000
,
0000
0000
0000
0001
,
0000
0000
1000
2000
,
0000
0000
0000
3000
,
0000
0000
0000
0001
,
0000
0010
0000
0001
,
0000
0000
0000
1000
,
0000
0010
0000
1000
,
0000
0000
0000
0020
,
0000
0000
0030
0000
,
0000
0000
0000
0200
,
0000
0000
0300
0001
,
0000
1000
0000
0001
,
0000
0000
0000
0010
,
0000
0001
0000
0100
,
0000
0000
0000
0010
,
0000
1000
0000
0200
,
0000
0000
0300
0000
,
0000
0000
0000
0020
,
0000
0000
0030
0001
,
0000
1000
0000
2002
,
0000
0000
3003
0001
,
0000
0000
0000
0001
,
0000
0000
0000
1000
,
0000
0000
0000
1000
,
0000
0000
0000
0001
,
0000
0100
0000
0001
,
0000
0001
0000
1000
,
0000
0010
0000
1000
,
0000
1000
0000
1001
;

//---------------dance-single - ----------------
#NOTES:
     dance-single:
     :
     Medium:
     6:
     0.343,0.350,0.042,0.169,0.000:
0000
0000
0000
0000
,
0000
0000
0000
0000
,
0000
0000
0000
0000
,
0000
0000
0000
0000
,
0000
0000
0000
0000
,
0000
0000
0000
0000
,
0000
0000
0000
0000
,
0000
0000
0000
0000
0000
0000
0001
0100
,
0001
0000
1000
0000
0100
0000
0010
0001
,
0010
0000
0100
0000
1000
0000
0001
0100
,
0001
1000
0100
2000
,
0001
0000
0010
0000
3010
0000
0100
0001
,
0100
0010
1000
0200
,
1000
0000
1000
0000
1300
0000
0001
0010
,
0001
0100
0010
0200
,
0001
0000
0001
0000
0301
0000
1000
0001
,
1000
0010
0100
0002
,
0010
0010
0013
0100
,
1000
0000
0001
0000
0100
0000
0010
1000
,
0010
0000
0100
0001
0100
0000
2002
0000
,
0000
0000
0000
0000
,
0000
0000
3003
1000
,
1001
0000
0001
0100
0001
0000
0010
0000
,
0100
1000
0001
0200
,
0310
0020
1030
2000
,
3100
0000
1000
0001
1000
0000
0010
0000
,
0100
0001
0010
0100
,
1000
0000
0001
0000
0100
0000
0010
1000
,
0010
0000
0100
0001
0100
0000
0001
1000
,
0001
1000
0010
0000
0100
0000
0001
0000
,
1000
0000
0100
0010
0001
0000
1000
0000
,
0010
0000
0100
0001
1000
0000
0100
0000
,
1001
0000
0010
0000
1001
0000
0100
1000
,
0100
0000
1000
0001
1000
0000
0001
0000
,
0100
0000
0010
0000
1000
0000
0001
0010
,
0100
0000
1000
0100
0010
0000
1000
0000
,
0001
0100
0010
2000
,
0000
3002
0000
0023
,
0000
0000
0230
0000
0000
0000
1300
0100
,
1000
0000
0001
0100
0010
1000
0000
0000
,
0100
1000
0000
0001
0000
0100
0001
0000
,
1000
0000
0100
0010
0100
0010
0000
0001
,
0100
0000
0001
1000
0100
1000
0001
0000
,
0100
0000
0001
1000
0001
0100
0000
0000
,
0010
1000
0000
0001
1000
0000
0002
0000
,
0100
0000
1003
0000
0001
0000
0100
0010
,
0100
0000
0010
0100
0010
0000
2000
0000
,
3100
0000
1000
0001
1000
0010
0000
0000
,
0100
0001
0000
0100
0001
1000
0000
0000
,
0010
0000
0100
0001
0100
0010
0000
0010
,
1000
0100
1000
0000
0001
0000
0200
0000
,
0301
0000
1000
0100
1000
0010
0000
0000
,
0100
0001
0000
0000
1000
0100
2000
0000
,
3100
0000
0200
0000
0310
0000
0001
0100
,
0001
0000
1000
0010
1000
0000
0200
0000
,
0000
0320
0000
0031
,
0100
0001
1000
0100
,
1000
0000
0010
1000
0010
0000
0100
0000
,
0001
0010
0001
1000
,
0100
0000
0010
0001
0010
0000
0100
0000
,
0010
0000
0001
0100
0001
0000
1000
0000
,
0010
0000
0100
0001
0100
0000
0010
0000
,
1000
0000
0100
1000
0001
0000
0010
0001
,
0010
0000
0100
1000
0100
0000
0110
0000
;

//---------------dance-single - ----------------
#NOTES:
     dance-single:
     :
     Easy:
     4:
     0.252,0.269,0.076,0.177,0.000:
0000
0000
0000
0000
,
0000
0000
0000
0000
,
0000
0000
0000
0000
,
0000
0000
0000
0000
,
0000
0000
0000
0000
,
0000
0000
0000
0000
,
0000
0000
0000
0000
,
0000
0000
0000
0002
,
0000
0000
0103
0020
,
0000
0000
1030
0200
,
0000
0320
0000
0031
,
0100
0010
1001
0001
,
0000
0100
0010
1000
,
0000
1000
0100
1000
,
0000
0001
0010
0001
,
0000
1000
0100
1000
,
0000
0001
0000
0100
,
0000
0010
1000
0010
,
0000
0100
0000
0001
,
0000
1000
0000
2002
,
0000
0000
0000
0000
,
0000
0000
3003
0100
,
0001
1000
0100
0020
,
0000
0031
1000
0200
,
1000
0000
1300
0002
,
0100
0000
0103
0010
,
1000
0001
1000
0001
,
0100
1000
0100
0002
,
0000
1003
0100
2000
,
0000
3010
0100
0010
,
0000
1000
0001
0100
,
0000
0010
1000
0001
,
0100
0001
1000
0100
,
0000
1000
0000
0010
,
0000
0100
0000
0001
,
0010
0001
0000
1000
,
0100
1000
0010
0200
,
0000
0302
0000
2003
,
0000
3200
0000
1300
,
1001
0100
0010
1000
,
0100
0010
0001
1000
,
0110
0001
1000
0100
,
0010
0100
1000
0010
,
1001
0100
0001
1000
,
0100
0010
0001
2000
,
0010
0000
3010
0200
,
0001
0000
0301
1000
,
1001
0001
0010
0100
,
1000
0001
0100
0010
,
0110
0100
0001
1000
,
0100
0010
0100
1000
,
1001
0001
0100
0010
,
0100
0001
0010
0002
,
0000
0203
0000
0310
,
1000
0100
0001
0200
,
0000
2300
0000
3001
,
0010
0001
0100
0010
,
0010
1000
1000
0100
,
1000
0001
0010
0001
,
0001
0100
0100
0010
,
1000
0100
0010
0001
,
0001
1000
1000
0010
,
0100
0010
1000
0001
,
0010
0100
0001
0110
;

//---------------dance-double - ----------------
#NOTES:
     dance-double:
     :
     Hard:
     9:
     0.467,0.545,0.059,0.254,0.190:
00000000
00000000
00000000
00000000
,
00000000
00000000
00000000
00000000
,
00000000
00000000
00000000
00000000
,
00000000
00000000
00000000
00000000
,
00000000
00000000
00000000
00000000
,
00000000
00000000
00000000
00000000
,
00000000
00000000
00000000
00000000
,
00000000
00000000
00000000
00000000
00000000
00000000
00000000
00000000
00000000
00000000
00000000
00000000
10000000
00000000
00000000
01000000
,
00000000
00000000
00010000
00000000
00001000
00000000
00000000
00100000
00000000
00000000
00001000
00000000
00000100
00000000
00000000
00000010
,
00000000
00000000
00001000
00000000
00000100
00000000
00000000
00000010
00000000
00000000
00000001
00000000
00001000
00000000
00000000
00000100
,
00000000
00000000
00010000
00000000
00000010
00000000
00000000
00000100
00000000
00000000
00000001
00000000
00002000
00000000
00000000
00000000
,
00003200
00000000
00000000
00000000
00020300
00000000
00000000
00000000
00030020
00000000
00000000
00000000
00000130
00000000
00000000
00000001
,
00000000
00000000
00001000
00000000
00000100
00000000
00000000
00010000
00000000
00000000
00001000
00000000
00100000
00000000
00000000
00010000
,
00000000
00000000
01000000
00000000
00010000
00000000
00000000
10000000
00000000
00000000
01000000
00000000
00100000
00000000
00000000
01000000
,
00000000
00000000
00010000
00000000
01000000
00000000
00000000
10000000
00000000
00000000
00100000
00000000
01000000
00000000
00000000
00010000
,
00000000
00000000
01000000
00000000
00001000
00000000
00000000
00100000
00000000
00000000
00010000
00000000
01000000
00000000
00100000
01000000
,
00000000
00000000
00100000
00000000
10000000
00000000
01000000
00000000
00100000
00000000
00010000
00000000
00100000
00000000
00001000
00010000
,
00000000
00000000
00000100
00000000
00001000
00000000
00000010
00000000
00000100
00000000
00000001
00000000
00001000
00000000
00000001
00000100
,
00000000
00000000
00000010
00000000
00001000
00000000
00000100
00000000
00010000
00000000
00000100
00000000
00001000
00000000
00000010
00000100
,
00000000
00000100
00000010
00000000
00001000
00000000
00000100
00000010
00000000
00000010
00000100
00000000
00002000
00000000
00000000
00000000
,
00000000
00000000
00000000
00000200
,
00000000
00000000
00003300
00010000
,
00011000
00000000
00000010
00001000
00000100
00000000
00010000
00000000
,
01000000
10000000
00100000
01000000
,
01001000
00000000
00100000
00001000
00010000
00000000
00000100
00001000
,
00000010
00000000
00000100
00000001
00001000
00000000
00000001
00000100
,
00000010
00000100
00000001
00001000
00000100
00000000
00010000
00001000
,
00100000
00001000
01000000
00010000
00100000
00000000
00010000
10000000
,
01000000
00000000
00100000
00010000
01000000
00000000
10000000
01000000
,
00010000
00000000
00100000
01000000
00010000
00000000
00001000
00000100
,
00000010
00001000
00000100
00000010
00000001
00000000
00001000
00000100
,
00010000
00000000
00000010
00010000
00000100
00000000
00001000
00000001
,
00000100
00000010
00000001
00000010
00001000
00000000
00000100
00010000
,
00000010
00000000
00001000
00000100
00010000
00000000
00001000
01000000
,
00100000
10000000
01000000
00010000
01000000
00000000
10000000
00010000
,
00100000
00000000
10000000
00100000
00010000
00000000
01000000
00001000
,
00100000
00001000
00010000
00000100
00001000
00000010
00002002
00000000
,
00000000
00000000
00000003
00000020
,
00000000
00000000
00003000
00000031
,
00000101
00000000
00001000
00000010
00000001
00000020
00000000
00010030
,
00001000
00000200
00000000
00000310
00001000
00000200
00000000
00000000
,
00010300
00000000
00001000
00100000
01000000
20000000
00000000
30010000
,
01000000
10000000
01000000
00100000
10000000
02000000
00000000
00000000
,
13000000
00000000
00010000
00100000
01000000
00010000
00000000
00001000
,
00000100
00000010
00000000
00001000
00000100
00000001
00000100
00001000
,
00000010
00000000
00000100
00000010
00000001
00000000
00000001
00000010
,
00001000
00000000
00000100
00010000
00001000
00000000
01000000
00000000
,
00101000
00000000
01000000
10000000
00100000
00020000
00000000
00130000
,
10000000
02000000
00000000
03010000
01000000
00100000
00001000
00000000
,
00011000
00000000
00000100
00001000
00000010
00000002
00000000
00000013
,
00001000
00000100
00010000
00001000
01000000
00010000
00200000
00000000
,
00301000
00000000
00010000
00000100
00001000
00000020
00000000
00000130
,
00000001
00002000
00000000
00003100
00000001
00000100
00020000
00000000
,
00031000
00000200
00000301
00000020
,
00000130
00020000
00031000
02000000
,
03200000
00000000
00000000
00000000
20300000
00000000
00000000
00000000
32000000
00000000
00000000
00000000
13000000
00000000
00010000
01000000
,
00000000
01000000
00010000
00000000
00100000
00000000
00001000
00010000
00000000
00010000
00001000
00000000
00100000
00000000
00001000
00000100
,
00000000
00000100
00000010
00000000
00001000
00000000
00000100
00000000
00000010
00000000
00000001
00000000
00001000
00000000
00000001
00000010
,
00000000
00000010
00000001
00000000
00001000
00000000
00000100
00010000
00000000
00010000
00001000
00000000
00010000
00000000
00000100
00010000
,
00000000
00010000
00001000
00000000
01000000
00000000
00010000
00000000
10000000
00000000
01000000
00000000
00010000
00000000
00001000
00000100
,
00000000
00000100
00000001
00000000
00001000
00000000
00000010
00000001
00000000
00000001
00000010
00000000
00001000
00000000
00000100
00010000
,
00000000
00010000
01000000
00000000
10000000
00000000
00100000
01000000
00000000
01000000
00001000
00000000
00010000
00000000
00000100
00010000
,
00000000
00001000
00010000
00000000
00001000
00000000
01000000
00010000
00000000
10000000
01000000
00000000
00100000
00000000
00010000
00000000
,
10000000
01000000
10000000
00010000
00100000
00001000
00022000
00000000
,
00000000
00000000
00033000
00000000
;

//---------------dance-double - ----------------
#NOTES:
     dance-double:
     :
     Medium:
     7:
     0.374,0.409,0.068,0.237,0.059:
00000000
00000000
00000000
00000000
,
00000000
00000000
00000000
00000000
,
00000000
00000000
00000000
00000000
,
00000000
00000000
00000000
00000000
,
00000000
00000000
00000000
00000000
,
00000000
00000000
00000000
00000000
,
00000000
00000000
00000000
00000000
,
00000000
00000000
00000000
00000000
00000000
00000000
00000000
00000000
00000000
00000000
00000000
00000000
00000001
00000000
00000000
00001000
,
00000000
00000000
00000100
00000000
00001000
00000000
00000000
00000010
00000000
00000000
00000100
00000000
00000001
00000000
00000000
00001000
,
00000000
00000000
00000100
00000000
00010000
00000000
00000000
00001000
00000000
00000000
00100000
00000000
00010000
00000000
00000000
01000000
,
00000000
00000000
00100000
00000000
10000000
00000000
00000000
01000000
00000000
00000000
10000000
00000000
00020000
00000000
00000000
00000000
,
00230000
00000000
00301000
00010000
00001000
00000000
01000000
00000000
,
00010000
00000000
00100000
00001000
00100000
00000000
00010000
00000000
,
01000000
00100000
10000000
01000000
,
00100000
00000000
00010000
10000000
00010000
00000000
01000000
00000000
,
00100000
10000000
01000000
00100000
,
00001000
00000000
00010000
00001000
00010000
00000000
00000100
00000000
,
00001000
00000010
00000100
00000001
,
00000010
00000000
00000100
00001000
00000100
00000000
00001000
00000000
,
00000001
00000010
00000100
00021000
,
00000000
00000000
00000000
00002000
,
00000000
00000000
00033000
01000000
,
00010000
00000000
00100000
00001000
00100000
00000000
00001000
00010000
,
00001000
00000000
00010000
00000100
00010000
00000000
00000020
00000000
,
00000130
00000002
00001003
00000200
,
00020300
00032000
02003000
03100000
,
10000000
00000000
01000000
00100000
01000000
00000000
10000000
00000000
,
00010000
00000000
00100000
01000000
00100000
00000000
00002000
00000000
,
00013000
00000200
00001300
00000020
,
00000230
00000302
00002003
00003100
,
00010000
00000000
00000010
00001000
00000010
00000000
00000100
00000000
,
00000001
00000000
00001000
00000100
00001000
00000000
00000001
00000010
,
00000100
00000000
00001000
00000100
00000010
00000000
00000100
00000000
,
00010000
00000000
00001000
00000000
00000100
00000000
00000010
00001000
,
00000100
00000000
00010000
00000000
00001000
00000000
01000000
00010000
,
00100000
01000000
10000000
00010000
,
00100000
00001000
00020000
00002000
,
00000000
00000000
00000000
00000000
,
00000000
00000000
00033000
00100000
,
00010000
00000000
01000000
00010000
00100000
00001000
00000000
00010000
,
00000100
00001000
00000000
00000010
00000100
00000001
00000100
00000000
,
00000110
00000000
00001000
00000100
00001000
00000001
00000000
00000010
,
00000001
00000010
00000100
00001000
00000001
00001000
00000001
00000000
,
00000101
00000000
00000010
00001000
00000100
00001000
00000000
00000001
,
00000010
00000001
00000000
00001000
00000100
00010000
00002000
00000000
,
00103000
00200000
00310000
01000000
,
00010000
10000000
01000000
00100000
,
00010000
00000000
01000000
00001000
00010000
00001000
00000000
01000000
,
00010000
00100000
00000000
01000000
10000000
00010000
10000000
00000000
,
10010000
00000000
00100000
01000000
00010000
00100000
00000000
00001000
,
00010000
00000010
00001000
00000100
00010000
00001000
00010000
00000000
,
00011000
00000000
01000000
00010000
00100000
00010000
00000000
10000000
,
01000000
10000000
00000000
00010000
00100000
00001000
00020000
00000000
,
00031000
00002000
00103000
00010000
,
01000000
00001000
00010000
00000200
,
00002300
00003020
00000230
00000310
,
00001001
00000000
00000100
00000001
00000010
00000000
00000100
00001000
,
00000010
00000000
00010000
00001000
00010000
00000000
00100000
00000000
,
10010000
00000000
01000000
10000000
00100000
00000000
01000000
00010000
,
00100000
00000000
00000000
00000000
00001000
00000000
00010000
00000000
00001000
00000000
00000000
00000000
10000000
00000000
00000000
01000000
,
00000000
00000000
00100000
00000000
00010000
00000000
00000000
00100000
00000000
00000000
00001000
00000000
00010000
00000000
00000000
00000010
,
00000000
00000000
00000100
00000000
00000001
00000000
00000000
00000010
00000000
00000000
00000001
00000000
00001000
00000000
00000000
00000100
,
00000000
00000000
00010000
00000000
00001000
00000000
00000000
00010000
00000000
00000000
00000010
00000000
00001000
00000000
00000000
00000100
,
00000000
00000000
00010000
00000000
00001000
00000000
00000000
00100000
00000000
00000000
00010000
00000000
20020000
00000000
00000000
00000000
,
00000000
00000000
30030000
00000000
;

//---------------dance-double - ----------------
#NOTES:
     dance-double:
     :
     Easy:
     4:
     0.274,0.354,0.152,0.313,0.000:
00000000
00000000
00000000
00000000
,
00000000
00000000
00000000
00000000
,
00000000
00000000
00000000
00000000
,
00000000
00000000
00000000
00000000
,
00000000
00000000
00000000
00000000
,
00000000
00000000
00000000
00000000
,
00000000
00000000
00000000
00000000
,
00000000
00000000
00000000
20000000
,
00000000
30020000
00000000
20030000
,
00000000
30200000
00000000
02300000
,
00000000
03002000
00000000
00013000
,
00001000
00010000
00011000
00000200
,
00000000
00001300
00000010
00000200
,
00000000
00000301
00000010
00000200
,
00000000
00001300
00000001
00000200
,
00000310
00000200
00000301
00002000
,
00000000
00003100
00010000
00002000
,
00000000
01003000
00010000
20000000
,
00000000
31000000
00100000
02000000
,
03100000
00200000
00301000
00002000
,
00000000
00000000
00003000
02000000
,
00000000
00000000
03000000
00011000
,
00000000
00000100
00010000
00010100
,
00000000
00001000
00000010
00000200
,
00000301
00000200
00000310
00000200
,
00000302
00002003
00003100
00010100
,
00000000
00001000
01000000
01001000
,
00000000
00010000
10000000
02000000
,
03100000
02000000
13000000
00020000
,
00230000
02300000
13000000
00010000
,
00100000
00001000
01000000
00001000
,
00100000
00001000
00010000
00002000
,
00000000
00000000
00013000
00000200
,
00000000
00001300
00000010
00000100
,
00000001
00001000
00000100
00010000
,
00000100
00001000
00000100
00020000
,
00000000
00031000
00010000
00022000
,
00000000
00000000
00000000
00000000
,
00000000
00000000
00033000
00001000
,
00010000
00000100
00000000
00001100
,
00000000
00001001
00000000
00000001
,
00000010
00000100
00001000
00000001
,
00000100
00000010
00000100
00000001
,
00001000
00000010
00000000
00001000
,
00000100
00010000
00000000
00011000
,
00000000
01001000
00000000
01010000
,
00000000
10010000
00000000
11000000
,
00100000
01000000
00000000
00100000
,
01000000
00010000
00000000
00100000
,
00001000
00010000
00000000
00000100
,
00001000
00000010
00000000
00000100
,
00000001
00001000
00000100
00010000
,
00000100
00001000
00000000
00011000
,
00000000
01001000
00000000
00011000
,
00000000
00010100
00000000
00002000
,
00000000
00003020
00000000
00000130
,
00000001
00001000
00000001
00000010
,
00000100
00001000
00000100
00010000
,
00001000
00010000
00000010
00001000
,
00000100
00010000
00001000
00100000
,
00010000
00100000
00001000
00100000
,
01000000
10000000
00010000
01000000
,
00100000
01000000
00001000
01000000
,
00010000
00100000
01000000
20020000
,
00000000
00000000
30030000
00000000
;
