#TITLE:Alla Turca Con Passione;
#SUBTITLE:;
#ARTIST:Twin AmadeuS;
#TITLETRANSLIT:;
#SUBTITLETRANSLIT:;
#ARTISTTRANSLIT:;
#GENRE:;
#CREDIT:;
#MENUCOLOR:;
#METERTYPE:DDR;
#BANNER:Alla Turca Con Passione.png;
#BACKGROUND:Alla Turca Con Passione-bg.png;
#LYRICSPATH:;
#CDTITLE:ddrencorecdtitle.png;
#MUSIC:Alla Turca Con Passione.mp3;
#OFFSET:-0.513;
#SAMPLESTART:84.500;
#SAMPLELENGTH:13.740;
#SELECTABLE:YES;
#LISTSORT:;
#DISPLAYBPM:140.000;
#BPMS:0.000=140.000,261.000=112.000;
#STOPS:;
#BGCHANGES:;
#ATTACKS:;

//---------------dance-single - ----------------
#NOTES:
     dance-single:
     :
     Beginner:
     1:
     0.122,0.141,0.043,0.043,0.000:
0000
0000
0000
0000
,
0000
0000
0000
0000
,
0000
0000
0000
0000
,
0000
0000
0000
0000
,
0000
0001
0000
0000
,
0000
1000
0000
0000
,
0000
0100
0000
0010
,
0000
0200
0000
0300
,
0000
1000
0000
1000
,
0000
0001
0000
0001
,
0000
0100
0000
0010
,
0000
0000
0000
0000
,
0000
1000
0000
0000
,
0000
0001
0000
0000
,
0000
0010
0000
0100
,
0000
0020
0000
0030
,
0000
0001
0000
0001
,
0000
1000
0000
1000
,
0000
0010
0000
0100
,
0000
0000
0000
0000
,
0000
0001
0000
0000
,
0000
1000
0000
0000
,
0000
0001
0000
0000
,
0000
1000
0000
0000
,
0000
1000
0000
0000
,
0000
0001
0000
0000
,
0000
0100
0000
0010
,
0000
0200
0000
0300
,
0000
0010
0000
0010
,
0000
0100
0000
0100
,
0000
0001
0000
1000
,
0000
0100
0000
0000
,
0000
0100
0000
0000
,
0000
1000
0000
1001
,
0000
0100
0000
1000
,
0000
0001
0000
1001
,
0000
0100
0000
0001
,
0000
0000
0000
0000
,
0000
0000
0000
0000
,
0000
0000
0000
0000
,
0000
0000
0000
0000
,
0000
1000
0000
0000
,
0000
0100
0000
0000
,
0000
0010
0000
0000
,
0000
0001
0000
0000
,
0000
1000
0000
0010
,
0000
0100
0000
0100
,
0000
0001
0000
1000
,
0000
0001
0000
0000
,
0000
0100
0000
1001
,
0000
0001
0000
0100
,
0000
0010
0000
1001
,
0000
1000
0000
0100
,
0000
1000
0000
1000
,
0000
0001
0000
0100
,
0000
0001
0000
0001
,
0000
1000
0000
0100
,
0000
0020
0000
0030
,
0000
0100
0000
0100
,
0000
0010
0000
0001
,
0000
0200
0000
0300
,
0000
0010
0000
0010
,
0000
1000
0000
0001
,
0000
0100
0000
0100
,
0000
0100
0000
0100
,
0000
1001
0000
0000
;

//---------------dance-single - ----------------
#NOTES:
     dance-single:
     :
     Easy:
     3:
     0.219,0.225,0.121,0.207,0.000:
0000
0000
0000
0000
,
0000
0000
0000
0000
,
0000
0000
0000
0000
,
0000
0000
0000
0000
,
0001
0100
0000
0000
,
0100
0010
0000
0000
,
0010
1000
0000
0100
,
0000
2002
0000
3003
,
1000
0010
0000
1000
,
0001
0010
0000
0001
,
1000
0010
0000
0100
,
0000
0220
0000
0330
,
0001
0010
0000
0000
,
0010
0100
0000
0000
,
0100
1000
0000
0001
,
0000
2002
0000
3003
,
1000
0100
0000
1000
,
0001
0100
0000
0001
,
1000
0010
0000
0100
,
0000
0220
0000
0330
,
1000
0100
0000
0010
,
0000
0001
0000
0100
,
0000
0010
0000
1000
,
0000
0001
0000
0100
,
0001
1000
0000
0000
,
1000
0010
0000
0000
,
0010
0100
0000
0001
,
0000
2002
0000
3003
,
1000
0001
0000
0010
,
0000
0001
0000
0100
,
0000
0001
0000
1000
,
0000
2002
0000
3003
,
0000
0220
0000
0330
,
0001
0010
0000
0010
,
0000
0100
1000
0001
,
1000
0010
0000
0010
,
0000
0100
0001
1000
,
0000
0002
0000
0000
,
0003
2000
0000
0000
,
3000
0020
0000
0000
,
0030
0200
0000
0000
,
0300
0001
0000
0100
,
0000
0001
0000
0100
,
0000
0010
0000
1000
,
0000
0010
0000
1000
,
0000
0101
0000
0010
,
1000
0100
0000
0010
,
0000
1100
0000
0010
,
0001
0100
0000
0000
,
0010
0100
0000
0100
,
0000
0001
0010
0100
,
1000
0010
0000
0010
,
0000
1000
0100
0010
,
0001
1001
0000
0100
,
0000
0001
0100
0010
,
1000
1001
0000
0010
,
0000
1000
0010
0100
,
0001
2000
0000
3002
,
0000
0103
0010
0200
,
0000
0301
0000
1000
,
0000
0002
0000
2003
,
0000
3010
0100
0020
,
0000
1030
0000
0001
,
0000
1001
0000
0110
,
0000
1001
0000
0100
,
0001
1000
0000
0000
;

//---------------dance-single - ----------------
#NOTES:
     dance-single:
     :
     Medium:
     6:
     0.341,0.370,0.121,0.250,0.013:
0000
0000
0000
0000
,
0000
0000
0000
0000
,
0000
0000
0000
0000
,
0000
0000
0000
0000
,
1000
0010
2000
0000
0100
0000
3100
0000
,
0001
0010
0002
0000
0100
0000
0103
0000
,
0010
1000
0001
1000
,
0100
0010
0220
0000
0000
0000
0330
0000
,
0010
0001
1000
0000
0000
1000
0100
0000
,
0000
0100
0010
0000
0000
0010
0001
0000
,
0000
0000
0001
0000
1000
0000
0000
0000
0000
0000
1000
0000
0001
0000
0000
0100
,
0000
0020
0000
0000
0000
0000
0030
0000
,
0001
0100
0002
0000
0010
0000
0013
0000
,
1000
0100
2000
0000
0010
0000
3010
0000
,
0100
0001
1000
0001
,
0010
0100
0220
0000
0000
0000
0330
0000
,
0100
1000
0001
0000
0000
0001
0010
0000
,
0000
0010
0100
0000
0000
0100
1000
0000
,
0000
0000
1000
0000
0001
0000
0000
0000
0000
0000
0001
0000
1000
0000
0000
0010
,
0000
0200
0000
0000
0000
0000
0300
0000
,
0010
1000
0000
0101
,
0000
0010
0000
1100
,
0000
0001
0000
0110
,
0000
0010
0000
1001
,
0100
0100
2000
0000
0010
0000
3010
0000
,
0100
0100
0002
0000
0010
0000
0013
0000
,
0100
1000
0001
1000
,
0010
0220
0000
0330
,
0100
0001
1000
0000
0000
1000
0100
0000
,
0000
0100
0010
0000
0000
0010
0001
0000
,
0000
0001
1000
0000
0000
0000
0001
0000
,
1000
2002
0000
3003
,
0000
0220
0000
0330
,
1000
0100
1000
0000
0000
0000
0101
0000
,
0000
0010
1000
1000
,
0001
0100
0001
0000
0000
0000
1100
0000
,
0000
0010
0001
1000
,
0000
0000
0002
0000
0000
1000
0000
1000
,
0003
0000
2000
0000
0000
0010
0000
0010
,
3000
0000
0020
0000
0000
0100
0000
0100
,
0030
0200
0001
0001
,
0300
0001
0010
0100
,
0100
1000
0010
0100
,
0100
0001
1000
0001
,
0001
0100
0010
0100
,
0010
1000
0020
0000
0000
0000
1030
0000
,
0100
0010
0000
1001
,
0100
0001
0200
0000
0000
0000
0301
0000
,
0010
0000
0100
1000
0001
0100
0001
0000
,
1000
0010
1000
0000
0000
0000
0011
0000
,
0000
0100
1000
1000
,
0001
0010
0001
0000
0000
0000
1010
0000
,
0000
0100
0001
0001
,
1000
0100
1000
0000
0001
0100
0010
0000
,
0010
0000
1000
0000
0100
1000
0001
0000
,
0001
0100
0001
0000
1000
0100
0010
0000
,
0010
0000
0001
0000
0100
0001
1000
0000
,
0010
2000
0000
3002
,
0000
0103
0010
0200
,
0000
0301
1000
0100
,
0000
1000
0010
0000
0000
0100
0001
0000
,
1000
0010
0100
0020
,
0000
1030
0001
0100
,
0010
1000
0001
0000
0000
0001
0010
0000
,
0000
0010
0100
0000
0000
0100
1000
0001
,
1000
0000
0010
0000
0100
0000
0000
0000
0010
0000
0000
0100
0020
0000
0000
0000
,
0030
0000
0000
0000
;

//---------------dance-single - ----------------
#NOTES:
     dance-single:
     :
     Hard:
     9:
     0.560,0.540,0.267,0.345,0.190:
0000
0000
0000
0000
,
0000
0000
0000
0000
,
0000
0000
0000
0000
,
0000
0000
0000
0000
,
0100
0001
0100
0001
0200
0000
0000
0000
0010
0000
0000
0000
1300
0000
0000
0000
,
0010
1000
0010
1000
0020
0000
0000
0000
0100
0000
0000
0000
0031
0000
0000
0000
,
0100
0010
0100
0010
0100
0000
0001
0000
0010
0000
0100
0000
0001
0000
0000
0100
,
0000
0000
1000
0100
2000
0000
0000
0000
0010
0000
0000
0000
3001
0000
0000
0000
,
1000
0001
0200
0000
0000
0010
0310
0000
,
0001
1000
0200
0000
0000
0010
0310
0000
,
0100
0000
0010
0000
0002
0000
0000
0000
0000
0000
0103
0000
0101
0000
0000
0110
,
0000
2002
0000
0000
0000
0000
3003
0000
,
0010
1000
0010
1000
0020
0000
0000
0000
0100
0000
0000
0000
0031
0000
0000
0000
,
0100
0001
0100
0001
0200
0000
0000
0000
0010
0000
0000
0000
1300
0000
0000
0000
,
0010
0100
0010
0100
0010
0000
1000
0000
0100
0000
0010
0000
1000
0000
0000
0010
,
0000
0000
0001
0100
0002
0000
0000
0000
0010
0000
0000
0000
1003
0000
0000
0000
,
0001
1000
0200
0000
0000
0010
0310
0000
,
1000
0001
0200
0000
0000
0010
0310
0000
,
0100
0000
0010
0000
2000
0000
0000
0000
0000
0000
3010
0000
1010
0000
0000
0110
,
0000
2002
0000
0000
0000
0000
3003
0000
,
0001
0000
0100
0000
1000
0000
0100
0000
0010
0100
0010
0100
0010
0000
0000
0000
,
1000
0000
0100
0000
0001
0000
0100
0000
0010
0100
0010
0100
0010
0000
0000
0000
,
0001
0000
0100
0000
0010
0000
0001
0000
0010
1000
0010
1000
0010
0000
0000
0000
,
1000
0000
0100
0000
0010
0000
1000
0000
0010
0001
0010
0001
0010
0000
0000
0000
,
0001
0000
0100
0001
0200
0000
0000
0000
0010
0000
0000
0000
0301
0000
0000
0000
,
1000
0000
0010
1000
0020
0000
0000
0000
0100
0000
0000
0000
1030
0000
0000
0000
,
0001
1000
0001
1000
0001
0000
0100
0000
0010
0000
1000
0000
0100
0000
0000
0110
,
0000
0000
0010
0100
0020
0000
0000
0000
0001
0000
0000
0000
0130
0000
0000
0000
,
0010
0001
0201
0000
0000
0310
1002
0000
,
0000
1003
1020
0000
0000
0130
2001
0000
,
0000
3010
0210
0000
0000
0000
0301
0000
,
1000
2002
0000
3003
,
0000
0220
0000
0330
,
1000
0001
0101
0000
0010
1000
0100
0100
,
0010
0010
0001
0100
0010
1000
0100
0010
,
0001
1000
1100
0000
0010
0001
0100
0100
,
0010
0010
1000
0100
0010
0001
1001
0000
,
0100
0000
0010
0000
0100
0001
0000
1000
,
0000
1000
0100
0000
1000
0010
0000
0100
,
0000
0100
0001
0000
1000
0100
0000
0010
,
0000
0010
0100
0000
1000
0000
1001
0000
,
0010
0000
0001
0000
1000
0010
1000
0000
,
0010
0000
0001
0000
0010
0001
0010
0000
,
0001
0000
0100
0000
0001
0100
0001
0000
,
0100
0000
1000
0100
0010
0001
1000
0000
,
0001
0010
1000
0010
0100
0010
1000
1000
,
0010
0100
1000
0001
0100
0001
1000
0100
,
1000
0010
0001
0010
0100
0010
0001
0001
,
0010
0000
0100
0000
0001
0000
1000
0000
0010
0100
0010
0100
0010
0000
0000
0000
,
0010
1000
0101
0000
0010
1000
0100
0100
,
0010
0010
0100
1000
0001
0100
0010
0100
,
0001
1000
1100
0000
0010
0001
0100
0100
,
0010
0010
0100
0001
0010
0100
1001
0000
,
1100
0110
0011
0000
1000
0001
0100
0100
,
0010
0010
1000
0100
0010
0001
0100
0001
,
0011
0110
1100
0000
0001
1000
0010
0010
,
0100
0100
0001
0010
0100
1000
1001
0000
,
0001
0000
0000
0010
0002
0000
0000
0000
0100
0000
0000
0000
2003
0000
0000
0000
,
0010
0000
0000
0000
3010
0100
0010
0100
0001
0100
0010
0100
0020
0000
0000
0000
,
0100
0000
1030
0100
0010
0001
1000
0000
,
0000
1000
2100
0000
0000
3001
0102
0000
,
0010
0000
0003
0000
0010
0100
0010
0100
1000
0100
0010
0100
0020
0000
0000
0000
,
0100
0032
0100
2003
,
0010
0000
3002
0000
0000
0013
0200
0000
,
0000
1300
0020
0000
0000
0130
0001
0010
,
0001
0000
1000
0000
0010
0000
0000
0000
1001
0000
0000
0100
0020
0000
0000
0000
,
0030
0000
0000
0000
;

//---------------dance-double - ----------------
#NOTES:
     dance-double:
     :
     Easy:
     3:
     0.186,0.253,0.103,0.000,0.000:
00000000
00000000
00000000
00000000
,
00000000
00000000
00000000
00000000
,
00000000
00000000
00000000
00000000
,
00000000
00000000
00000000
00000000
,
00000000
10000000
00000000
00100000
,
00000000
01000000
00000000
00010000
,
00000000
00100000
00010000
00100000
,
00001000
00010000
00000000
00000100
,
00000000
00001000
00000000
00000001
,
00000000
00000100
00000010
00000100
,
00000000
00000010
00000000
00001000
,
00000100
00001000
00000000
00000000
,
00000000
00000001
00000000
00000100
,
00000000
00000010
00000000
00010000
,
00000000
00001000
00010000
00001000
,
00100000
00010000
00000000
10000000
,
00000000
00100000
00000000
01000000
,
00000000
00100000
00000000
10000000
,
00000000
01000000
00000000
00100000
,
00010000
00100000
00000000
00000000
,
00000000
00001000
00000000
00000000
,
00000000
00010000
00000000
00000000
,
00000000
00000010
00000000
00000000
,
00000000
00000100
00000000
00000000
,
00000000
00000001
00000000
00000010
,
00000000
00000100
00000000
00010000
,
00000000
00001000
01000000
00001000
,
01000000
00100000
00000000
10000000
,
00000000
01000000
00000000
00100000
,
00000000
01000000
00000000
10000000
,
00000000
00010000
00000000
01000000
,
00001000
01000000
00000000
00000000
,
00000000
00001000
00000000
00000000
,
00000000
00011000
00000000
00010100
,
00000000
00000100
00000010
00000001
,
00000000
00001001
00000000
00000101
,
00000000
00000100
00000010
00001000
,
00000000
00000100
00000000
00000000
,
00000000
00010000
00000000
00000000
,
00000000
00001000
00000000
00000000
,
00000000
01000000
00000000
00100000
,
00000000
10000000
00010000
10000000
,
00010000
00100000
00001000
00100000
,
00001000
00010000
00000100
00010000
,
00000100
00001000
00000001
00001000
,
00000001
00000100
00000000
00000010
,
00000000
00000100
00000000
00000001
,
00000000
00001000
00000000
00000100
,
00000000
00000000
00000000
00000000
,
00000000
00011000
00000000
01001000
,
00000000
01000000
00100000
10000000
,
00000000
10010000
00000000
11000000
,
00000000
01000000
00100000
00001000
,
00000000
00011000
00000000
00010100
,
00000000
00000100
00000010
00000001
,
00000000
00001001
00000000
00000101
,
00000000
00000100
00000010
00001000
,
00000000
00000100
00000000
00000100
,
00000000
00000100
00000100
00010000
,
00000000
00001000
00010000
00001000
,
00000000
01000000
00000000
00100000
,
00000000
10000000
00010000
10000000
,
00000000
01000000
01000000
00100000
,
00000000
00001000
00000000
00010000
,
00000000
00001000
00000000
00010000
,
00001000
00010000
00000000
00000000
;

//---------------dance-double - ----------------
#NOTES:
     dance-double:
     :
     Medium:
     7:
     0.436,0.453,0.146,0.362,0.034:
00000000
00000000
00000000
00000000
,
00000000
00000000
00000000
00000000
,
00000000
00000000
00000000
00000000
,
00000000
00000000
00000000
00000000
,
10000000
00010000
00200000
00000000
00001000
00000000
00301000
00000000
,
00010000
00000010
00000200
00000000
00000001
00000000
00000301
00000000
,
00000010
00000000
00000100
00000000
00001000
00000000
00000000
00000000
00000101
00000000
00000000
00000000
00000001
00000000
00000000
00001000
,
00000000
00000100
00020000
00000000
00001000
00000000
00031000
00000000
,
01000000
00100000
20000000
00000000
00000000
31000000
00200000
00000000
,
00000000
00310000
20000000
00000000
00000000
30010000
02000000
00000000
,
00000000
00000000
03010000
00000000
00200000
00000000
00000000
00000000
00000000
00000000
00301000
00000000
00010000
00000000
00000000
00000100
,
00000000
00001000
00000001
00000000
00000100
00000000
00000010
00000000
,
00001000
00000100
00000020
00000000
00000100
00000000
00000130
00000000
,
00001000
00000001
00000200
00000000
00000010
00000000
00000310
00000000
,
00001000
00000000
00000100
00000000
00010000
00000000
00000000
00000000
00001000
00000000
00000000
00000000
01000000
00000000
00000000
00100000
,
00000000
01000000
00020000
00000000
10000000
00000000
10030000
00000000
,
01000000
00100000
00020000
00000000
00000000
10030000
00200000
00000000
,
00000000
01300000
00002000
00000000
00000000
00013000
00000200
00000000
,
00000000
00000000
00000310
00000000
00000002
00000000
00000000
00000000
00000000
00000000
00001003
00000000
00000010
00000000
00000000
00000100
,
00000000
00000010
00001000
00000000
00000100
00000000
00010000
00000000
,
00001000
01000000
00100000
00000000
00200000
00000000
10300000
00000000
,
00010000
00100000
00001000
00000000
00002000
00000000
00013000
00000000
,
00000010
00000100
00000001
00000000
00000002
00000000
00000013
00000000
,
00000100
00000000
00010000
00000000
00001000
00000000
00000000
00000000
00002000
00000000
00000000
00000000
01003000
00000000
00000000
00100000
,
00000000
00000000
10000000
00000000
00020000
00000000
00000000
00000000
00100000
00000000
00000000
00000000
00130000
00000000
00000000
01000000
,
00000000
10000000
00020000
00000000
01000000
00000000
01030000
00000000
,
00001000
00000000
00010000
00000000
00000100
00000000
00000000
00000000
00000010
00000000
00000000
00000000
00000100
00000000
00000000
00001000
,
00000000
00000001
00000200
00000000
00000010
00000000
00000310
00000000
,
00001000
00000100
00020000
00000000
00000000
00031000
02000000
00000000
,
00000000
03100000
20000000
00000000
00000000
31000000
00200000
00000000
,
00000000
00000000
00310000
00000000
02000000
00000000
00000000
00000000
00000000
00000000
03001000
00000000
00010000
00000000
00000000
00000100
,
00000000
00001000
00000002
00000000
00000010
00000000
00000100
00000000
,
00001003
00000200
00000010
00001000
,
00000310
00001000
00000001
00000000
00000010
00000100
00001000
00000000
,
00001100
00010100
00011000
01001000
,
01000000
00100000
10000000
00000000
00100000
01000000
00010000
00000000
,
00110000
00101000
00011000
00010100
,
00000100
00000000
00000010
00000000
00000100
00001000
00000000
00000010
,
00000000
00000000
00000100
00000000
00000001
00001000
00000000
00000100
,
00000000
00000000
00000010
00000000
00000001
00001000
00000000
00000010
,
00000000
00000010
00001000
00000100
,
00010000
00000000
00001000
00000000
01000000
00000000
00100000
10000000
,
00100000
00000000
01000000
00000000
00010000
00000000
00100000
00010000
,
00100000
00000000
01000000
00000000
10000000
00000000
00010000
01000000
,
00010000
00000000
00100000
00000000
00001000
00000000
00010000
00001000
,
00010000
00000010
00000100
00000002
,
00001003
00000000
00000100
00000000
00010000
00000000
00001000
00010000
,
00000200
00001300
00000010
00000200
,
00000310
00000000
00001000
00000000
00000100
00010000
00001000
00000000
,
01000000
00100000
01000000
00000000
00100000
10000000
00010000
00000000
,
00110000
01100000
11000000
10010000
,
01000000
00010000
00100000
00000000
00010000
00100000
00001000
00000000
,
00010000
00010100
00011000
00010010
,
00000010
00000100
00000010
00000000
00000100
00000001
00001000
00000000
,
00000100
00000010
00000001
00000010
00000100
00000010
00000001
00000000
,
00001000
00000100
00010000
00000000
00001000
00010000
00001000
00000000
,
01000000
00100000
10000000
00100000
01000000
00010000
10000000
00000000
,
01000000
02000000
00000000
03200000
,
00000000
00000000
00310000
00000000
00100000
00001000
00020000
00000000
,
00000000
00030010
00000010
00000200
,
00000000
00000301
00001000
00000000
00000000
00001000
00000100
00000000
,
00000000
00000100
00010000
00001000
00010000
00001000
02000000
00000000
,
00000000
03100000
00100000
20000000
,
00000000
31000000
00200000
00000000
00000000
01300000
20000000
00000000
,
00000000
30010000
02000000
00000000
00000000
03010000
00100000
00010000
,
00100000
00010000
00100000
00000000
00001000
00000000
00011000
00000000
;

//---------------dance-double - ----------------
#NOTES:
     dance-double:
     :
     Hard:
     9:
     0.518,0.597,0.164,0.370,0.190:
00000000
00000000
00000000
00000000
,
00000000
00000000
00000000
00000000
,
00000000
00000000
00000000
00000000
,
00000000
00000000
00000000
00000000
,
00100000
00010000
00100000
00010000
00100000
00000000
00000000
00001000
00010000
00000000
00001000
00000000
00020000
00000000
00000000
00000000
,
00030010
00001000
00000010
00001000
00000010
00000000
00000000
00010000
00001000
00000000
00010000
00000000
00002000
00000000
00000000
00000000
,
01003000
00010000
01000000
00010000
01000000
00000000
00100000
00000000
10000000
00000000
00010000
00000000
00100000
00000000
00000000
00001000
,
00000000
00000000
00010000
00001000
00020000
00000000
00000000
00000000
00000100
00000000
00000000
00000000
00031000
00000000
00000000
00000000
,
00000010
00000001
00000200
00000000
00000000
00001300
00020000
00000000
,
00000000
00130000
20000000
00000000
00000000
31000000
00200000
00000000
,
00000000
00000000
00301000
00000000
00020000
00000000
00000000
00000000
00000000
00000000
01030000
00000000
00100000
00000000
00000000
00001000
,
00000000
00022000
00000000
00000000
00000000
00000000
00033000
00000000
,
00000100
00001000
00000100
00001000
00000100
00000000
00000000
00010000
00001000
00000000
00010000
00000000
00002000
00000000
00000000
00000000
,
01003000
00010000
01000000
00010000
01000000
00000000
00000000
00001000
00010000
00000000
00001000
00000000
00020000
00000000
00000000
00000000
,
00030010
00001000
00000010
00001000
00000010
00000000
00000100
00000000
00000001
00000000
00001000
00000000
00000100
00000000
00000000
00010000
,
00000000
00000000
00001000
00010000
00002000
00000000
00000000
00000000
01000000
00000000
00000000
00000000
00013000
00000000
00000000
00000000
,
00100000
10000000
02000000
00000000
00000000
03010000
00002000
00000000
,
00000000
00003010
00000002
00000000
00000000
00000103
00000020
00000000
,
00000000
00000000
00010030
00000000
00002000
00000000
00000000
00000000
00000000
00000000
00003010
00000000
00000100
00000000
00000000
00010000
,
00000000
00022000
00000000
00000000
00000000
00000000
00033000
00000000
,
00001000
01000000
00000000
00001100
,
00000000
00000100
00000000
00011000
,
00000000
00000010
00000000
00110000
,
00000000
00100000
00000000
00011000
,
00001000
00010000
00002000
00000000
00100000
00000000
01003000
00000000
,
00010000
00001000
00020000
00000000
00000010
00000000
00030100
00000000
,
00001000
00000000
00010000
00000000
00001000
00010000
00001000
00100000
00001000
00010000
00001000
00100000
00001000
00000000
00000000
00010000
,
00000000
00001000
00020000
00000000
00000100
00000000
00031000
00000000
,
00000010
00000001
00000021
00000000
00000000
00000130
00001200
00000000
,
00000000
00010300
00012000
00000000
00000000
01003000
02010000
00000000
,
00000000
03100000
10020000
00000000
00000000
01030000
00100000
00000000
,
10000000
20020000
00000000
30030000
,
00000000
00022000
00000000
00033000
,
00010000
00000100
00001000
00000000
00000010
00000100
00000001
00000001
,
00001000
00001000
00000010
00010000
00001000
01000000
00010000
00100000
,
00001000
01000000
00010000
00000000
00100000
01000000
10000000
10000000
,
00010000
00010000
01000000
00001000
00010000
00000100
00001000
00000000
,
00000010
00000100
00000010
00010000
,
00001000
00100000
01000000
00100000
,
00001000
00000010
00001000
00010000
,
00100000
00010000
00001000
00010000
,
00000100
00000000
00000010
00000000
00000001
00000100
00000000
00001000
,
00010000
00000000
00100000
00000000
10000000
01000000
00000000
00010000
,
00001000
00000000
00000010
00000000
00000100
00001000
00000000
00000001
,
00000100
00000010
00010000
00001000
,
01000000
00000000
00000000
00000000
00010000
10000000
00010000
00000000
01000000
00000000
00001000
00000000
00010000
00000000
00000000
00000000
,
00010000
00000000
00000100
00000000
00001000
00000001
00001000
00000000
00000100
00000000
00010000
00000000
00001000
00000000
00001000
00000000
,
00010000
00000000
00000010
00000000
00001000
00000100
00001000
00000000
00000010
00000000
00010000
00000000
00001000
00000000
00000000
00000000
,
00001000
00000000
00100000
00000000
00010000
01000000
00010000
01000000
00010000
01000000
00010000
01000000
00010000
00000000
00000000
00000000
,
00100000
00001000
00010000
00000000
00001000
01000000
00010000
00010000
,
10000000
10000000
01000000
00100000
00001000
00010000
00000100
00001000
,
00000010
00010000
00001000
00000000
00010000
00000010
00001000
00001000
,
00000001
00000001
00000100
00000010
00010000
00001000
01000000
00000000
,
00010000
00100000
10010000
00000000
01000000
10000000
00010000
00100000
,
00001000
01000000
00100000
00010000
00001000
00000100
00000001
00001000
,
00000010
00000100
00001001
00000000
00000010
00000001
00000100
00000010
,
00010000
00001000
00000010
00001000
00010000
00001000
01010000
00000000
,
00001000
00000000
00000000
00010000
00002000
00000000
00000000
00000000
01000000
00000000
00000000
00000000
00023000
00000000
00000000
00000000
,
00000010
00000000
00000000
00000000
00030100
00001000
00000100
00001000
00000001
00001000
00000100
00001000
00000200
00000000
00000000
00000000
,
00001000
00000000
00010300
00001000
01000000
00010000
00100000
00000000
,
00000000
00001000
00010200
00000000
00000000
00010300
02001000
00000000
,
00010000
00000000
03000000
00000000
00100000
00010000
00100000
00010000
10000000
00010000
00100000
00010000
00200000
00000000
00000000
00000000
,
00010000
00302000
00010000
01003000
,
00001000
00010000
00002000
00000000
00000000
01003000
00200000
00000000
,
00000000
10300000
02000000
00000000
00000000
03100000
00001000
00010000
,
00000010
00000000
00010000
00000000
00001000
00000000
00000000
00000000
00011000
00000000
00000000
00001000
00020000
00000000
00000000
00000000
,
00030000
00000000
00000000
00000000
;
