#TITLE:All The Boys;
#SUBTITLE:(In The Club);
#ARTIST:Starclub feat. Alibi;
#TITLETRANSLIT:;
#SUBTITLETRANSLIT:;
#ARTISTTRANSLIT:;
#GENRE:;
#CREDIT:;
#BANNER:All The Boys (In The Club)-bn.png;
#BACKGROUND:All The Boys (In The Club)-bg.png;
#LYRICSPATH:All The Boys (In The Club).lrc;
#CDTITLE:ddrencorecdtitle.png;
#MUSIC:All The Boys (In The Club).mp3;
#OFFSET:-0.036;
#SAMPLESTART:60.024;
#SAMPLELENGTH:14.076;
#SELECTABLE:YES;
#BPMS:0.000=128.002
;
#STOPS:;
#BGCHANGES:;
#KEYSOUNDS:;
#ATTACKS:;

//---------------dance-single - ----------------
#NOTES:
     dance-single:
     :
     Beginner:
     1:
     0.108,0.105,0.093,0.000,0.000,71.000,10.000,0.000,0.000,0.000,0.000,0.108,0.105,0.093,0.000,0.000,71.000,10.000,0.000,0.000,0.000,0.000:
0000
0000
0000
0000
,
0000
0000
0000
0000
,
0000
0000
0000
0000
,
0000
0000
0000
0000
,
0001
0000
0000
0000
,
0010
0000
0000
0000
,
0001
0000
0000
0000
,
1000
0000
0001
0000
,
1001
0000
0000
0000
,
0100
0000
0000
0000
,
0010
0000
0000
0000
,
0100
0000
0001
0000
,
0010
0000
0000
0000
,
0100
0000
0000
0000
,
1000
0000
0000
0000
,
0010
0000
0100
0000
,
1001
0000
0000
0000
,
0110
0000
0000
0000
,
1001
0000
0000
0000
,
0010
0000
1000
0000
,
1001
0000
0000
0000
,
0110
0000
0000
0000
,
1001
0000
0000
0000
,
0010
0000
0001
0000
,
1000
0000
0010
0000
,
1000
0000
0000
0000
,
0001
0000
0010
0000
,
0001
0000
0000
0000
,
1000
0000
0001
0000
,
1000
0000
0010
0000
,
1000
0000
0100
0000
,
0010
0000
0000
0000
,
0001
0000
0000
0000
,
0010
0000
0000
0000
,
0001
0000
0000
0000
,
1000
0000
0000
0000
,
0010
0000
0100
0000
,
0001
0000
0000
0000
,
0010
0000
0100
0000
,
1000
0000
0000
0000
,
0010
0000
0000
0000
,
0100
0000
0001
0000
,
1000
0000
0000
0000
,
0100
0000
0010
0000
,
1001
0000
0000
0000
,
0100
0000
0010
0000
,
1000
0000
0000
0000
,
0001
0000
0010
0000
,
1001
0000
0000
0000
,
0010
0000
0000
0000
,
0100
0000
0000
0000
,
0010
0000
1000
0000
,
0001
0000
0000
0000
,
0010
0000
0000
0000
,
0001
0000
0000
0000
,
1000
0000
0001
0000
,
0110
0000
0000
0000
;

//---------------dance-single - ----------------
#NOTES:
     dance-single:
     :
     Easy:
     2:
     0.158,0.183,0.028,0.056,0.000,109.000,3.000,6.000,0.000,0.000,0.000,0.158,0.183,0.028,0.056,0.000,109.000,3.000,6.000,0.000,0.000,0.000:
0000
0000
0000
0000
,
0000
0000
0000
0000
,
0000
0000
0000
0000
,
0000
0000
0000
0000
,
1000
0000
0010
0000
,
1000
0000
0001
0000
,
0100
0000
0010
0000
,
0100
0000
0001
0000
,
1001
0000
0000
0000
,
0010
0000
0000
0000
,
1000
0000
0000
0000
,
0100
0000
1000
0000
,
0001
0000
0010
0000
,
0001
0000
0100
0000
,
0010
0000
1000
0000
,
0100
0000
0010
0000
,
0002
0000
1003
0000
,
2000
0000
3100
0000
,
2000
0000
3001
0000
,
0001
0010
0100
1000
,
0002
0000
1003
0000
,
2000
0000
3010
0000
,
2000
0000
3001
0000
,
1000
0010
0100
0001
,
1000
0000
0100
0000
,
1000
0000
0000
0000
,
0010
0000
0100
0000
,
0001
0000
0000
0001
,
1000
0000
0010
1000
,
0001
0000
0010
0001
,
0100
0000
0010
0000
,
1001
0000
0000
0000
,
0010
0000
1000
0000
,
0001
0000
0010
0100
,
1000
0000
0001
0000
,
1000
0000
0010
0100
,
0001
0000
0010
0000
,
0100
0000
0000
0000
,
0010
0000
0001
0000
,
1000
0000
0000
0000
,
0001
0000
0100
0000
,
0001
0000
1000
1000
,
1000
0000
0010
0000
,
1000
0000
0001
0001
,
0001
0000
0010
0000
,
0100
0000
1000
1000
,
1000
0000
0010
0000
,
0100
0000
0001
0001
,
0001
0000
0000
0000
,
1000
0000
0000
0000
,
0100
0000
0000
0000
,
1000
0000
0001
0000
,
0100
0000
0010
0000
,
1000
0000
0100
0000
,
0010
0000
0001
0000
,
1000
0001
0100
0010
,
1001
0000
0000
0000
;

//---------------dance-double - ----------------
#NOTES:
     dance-double:
     :
     Easy:
     2:
     0.183,0.183,0.009,0.075,0.000,128.000,1.000,8.000,0.000,0.000,0.000,0.183,0.183,0.009,0.075,0.000,128.000,1.000,8.000,0.000,0.000,0.000:
00000000
00000000
00000000
00000000
,
00000000
00000000
00000000
00000000
,
00000000
00000000
00000000
00000000
,
00000000
00000000
00000000
00000000
,
00001000
00000000
00100000
00000000
,
00001000
00000000
01000000
00000000
,
00001000
00000000
00010000
00000000
,
00001000
00000000
00010000
00000100
,
00000010
00000000
00000010
00000000
,
00000010
00000000
00000100
00001000
,
00000001
00000000
00000001
00000000
,
00000001
00000000
00000100
00000010
,
00001000
00000000
00000001
00000000
,
00001000
00000000
00000100
00010000
,
00001000
00000000
00010000
00000000
,
00001000
00000000
00100000
00010000
,
02000000
00000000
03010000
00000000
,
00020000
00000000
10030000
00000000
,
20000000
00000000
30100000
00000000
,
00100000
01000000
00010000
00100000
,
00020000
00000000
01030000
00000000
,
02000000
00000000
03001000
00000000
,
00002000
00000000
00013000
00000000
,
00001000
00010000
00000100
00001000
,
00000010
00000000
00000100
00000000
,
00000001
00000000
00000000
00000000
,
00001000
00000000
00000010
00000000
,
00010000
00000000
00000000
00001000
,
00010000
00000000
00000100
00010000
,
00001000
00000000
01000000
00001000
,
00010000
00001000
01000000
00010000
,
10000000
00000000
00000000
00000000
,
00010000
00000000
00100000
00000000
,
00010000
00000000
01000000
00010000
,
00100000
00000000
00010000
00000000
,
01000000
00000000
00001000
00010000
,
00001000
00000000
00010000
00000000
,
00000200
00000000
00000310
00000000
,
00000010
00000000
00000001
00000000
,
00002000
00000000
00003010
00000100
,
00000001
00000000
00001000
00000000
,
00000010
00000000
00010000
00010000
,
00010000
00000000
00001000
00000000
,
01000000
00000000
00100000
00100000
,
00100000
00000000
10000000
00000000
,
00010000
00000000
01000000
01000000
,
01000000
00000000
00010000
00000000
,
00100000
00000000
00001000
00001000
,
00001000
00000000
00001000
00000000
,
00001000
00000000
00010000
00000100
,
00000010
00000000
00000010
00000000
,
00000010
00000000
00000001
00001000
,
00000100
00000000
00010000
00000000
,
00001000
00000000
00100000
00001000
,
00010000
00000000
00000100
00000000
,
00000010
00000001
00001000
00000010
,
00001001
00000000
00000000
00000000
;

//---------------dance-double - ----------------
#NOTES:
     dance-double:
     :
     Medium:
     5:
     0.300,0.314,0.140,0.131,0.005,196.000,15.000,14.000,0.000,0.000,0.000,0.300,0.314,0.140,0.131,0.005,196.000,15.000,14.000,0.000,0.000,0.000:
00000000
00000000
00000000
00000000
,
00000000
00000000
00000000
00000000
,
00000000
00000000
00000000
00000000
,
00000000
00000000
00000000
00000000
,
00011000
00001000
00100000
00001000
,
00010000
00001000
01000000
00100000
,
10000000
00010000
10000000
00100000
,
10000000
01000000
00100000
00001000
,
00011000
00000000
00001000
00000000
,
00010000
00000000
00000100
00001000
,
00000010
00000000
00000100
00000000
,
00000010
00000000
00001000
00000100
,
00010100
00001000
00010000
00001000
,
01000000
00000000
00100000
00000000
10000000
00000000
00010000
00100000
,
01000000
00100000
00001000
00010000
,
00000100
00000100
00000100
00000100
,
00012000
00000000
00013000
00000100
,
00021000
00000000
00031000
01000000
,
00012000
00000000
00013000
00001000
,
01000000
00010000
00100000
00001000
,
00021000
00000000
00031000
00100000
,
00012000
00000000
00013000
00000010
,
00021000
00000000
00031000
00100000
,
00001000
01000000
00100000
10000000
,
00100000
00000000
00000000
00100000
10000000
00000000
00000000
10000000
,
00010000
00000000
00100000
00010000
,
01000000
00000000
00000000
01000000
00001000
00000000
00010000
00001000
,
00010000
00000000
00000100
00001000
,
00000010
00000000
00000000
00000010
00000100
00000000
00000010
00000000
,
00001000
00000000
00000000
00001000
00000100
00000000
00000010
00000000
,
00000001
00001000
00000010
00000100
,
00001001
00000000
00000000
00000100
00000000
00000000
00000010
00000000
00001000
00000000
00000000
00000000
00000000
00000000
00000000
00000000
,
00000010
00000000
00000100
00000001
00000100
00000000
00000010
00000000
,
00001000
00000000
00000100
00010000
00000100
00000000
00010000
00000000
,
00011000
00000000
00001000
01000000
00001000
00000000
00100000
00000000
,
00010000
00000000
10000000
01000000
10000000
00000000
00100000
01000000
,
00100000
10000000
00010000
00100000
,
00002000
00000000
00013000
00000000
,
00001000
00100000
00010000
01000000
,
00200000
00000000
10300000
00010000
,
01000000
00010000
00100000
00001000
,
00010000
00000000
00000100
00000000
00000010
00000000
00000100
00001000
,
00000010
00000100
00000001
00000100
,
00000020
00020030
00032000
01003000
,
01010000
00010000
00100000
01000000
,
10000000
00000000
00010000
00000000
01000000
00000000
00100000
10000000
,
00010000
00100000
00001000
00010000
,
00000200
00002300
00003020
00010030
,
00011000
00000000
00001000
00000000
,
00100000
00000000
00010000
01000000
,
00100000
00000000
10000000
00000000
,
00010000
00000000
00100000
00010000
,
01010000
00100000
00001000
00010000
,
00000100
00000000
00001000
00000000
00000010
00000000
00000100
00000001
,
00001000
00000010
00010000
00001000
,
00100000
00100000
00100000
00100000
,
00011000
00000000
00000000
00000000
;

//---------------dance-double - ----------------
#NOTES:
     dance-double:
     :
     Hard:
     9:
     0.572,0.576,0.084,0.084,0.804,410.000,9.000,9.000,0.000,0.000,0.000,0.572,0.576,0.084,0.084,0.804,410.000,9.000,9.000,0.000,0.000,0.000:
00000000
00000000
00000000
00000000
,
00000000
00000000
00000000
00000000
,
00000000
00000000
00000000
00000000
,
00000000
00000000
00000000
00000000
,
10000000
00000000
00000000
00100000
00000000
00000000
01000000
00000000
00010000
00000000
00000000
00100000
00000000
00000000
00010000
00000000
,
10000000
00000000
00000000
00100000
00000000
00000000
01000000
00000000
00001000
00000000
00000000
00100000
00000000
00000000
00001000
00000000
,
00010000
00000000
00000000
00000100
00000000
00000000
00000010
00000000
00000100
00000000
00000000
00001000
00000000
00000000
00000010
00000000
,
00000100
00000000
00000000
00000001
00000000
00000000
00001000
00000000
00000010
00000000
00000000
00010000
00000000
00000000
00000100
00000000
,
00001000
00000000
00000010
00000100
00000001
00000000
00001000
00000000
00000010
00000000
00000000
00010000
00000000
00001000
00000000
00100000
,
00000000
00000000
00010000
10000000
01000000
00000000
10000000
00000000
00100000
00000000
01000000
00010000
00000000
00100000
00000000
00001000
,
00000000
00000000
00100000
00010000
01000000
00000000
00010000
00000000
00100000
00000000
00000000
00010000
00000000
10000000
00000000
00100000
,
00000000
00000000
01000000
00010000
00100000
00000000
00001000
00000000
00010000
00000000
00000100
00001000
00000000
00000010
00000000
00000100
,
00000000
00000000
00000010
00001000
00000010
00000000
00000100
00000000
00000001
00000000
00001000
00000010
00000000
00010000
00000000
00001000
,
00100000
00000000
00010000
10000000
00010000
01000000
00000000
00100000
00000000
10000000
00000000
00010000
01000000
00010000
10000000
01000000
,
10000000
00000000
00000000
01000000
00000000
00100000
00000000
00010000
01000000
00000000
00000000
00001000
00000000
00010000
00000000
00001000
,
00100000
00000000
00000000
00100000
01000000
00000000
00000000
01000000
10000000
00000000
00000000
10000000
00010000
00000000
01000000
00000000
,
00001000
00000000
00010000
00001000
00000000
01000000
00000000
00001000
00000000
00100000
00000000
00010000
01000000
00000000
00100000
00000000
,
10000000
00000000
00010000
00100000
00000000
01000000
00000000
00100000
00000000
00001000
00000000
00010000
00001000
00000000
01000000
00000000
,
00100000
00000000
10000000
00010000
00000000
00100000
00000000
00001000
00000000
01000000
00000000
00010000
00100000
00000000
00001000
00000000
,
00020000
00000000
00000000
00000000
00030200
00000000
00000000
00000000
00002300
00000000
00000000
00000001
00003000
00000000
00000000
00000000
,
00000101
00000000
00000010
00001000
00000000
00000100
00000000
00010000
00000000
00000010
00000000
00001000
00000100
00000000
00010000
00000000
,
00001000
00000000
00100000
00010000
00000000
01000000
00000000
00001000
00000000
00100000
00000000
00010000
01000000
00000000
00100000
00000000
,
10000000
00000000
00010000
00100000
00000000
01000000
00000000
10000000
00000000
00010000
00000000
00100000
00001000
00000000
00010000
00000000
,
00002000
00000000
00000000
00000000
02003000
00000000
00000000
00000000
03020000
00000000
00000000
00000000
10030000
00010000
10000000
00010000
,
10000000
00000000
00000000
00000000
00100000
00000000
01000000
00010000
01000000
00000000
00000000
00000000
00001000
00000000
00010000
00001000
,
00010000
00000000
00000000
00000000
00001000
00000000
00000000
00000000
00100000
00000000
00000000
00000000
00010000
01000000
00010000
01000000
,
00010000
00000000
00100000
00001000
00010000
00000000
00000100
00001000
,
00000020
00010000
00001030
00000010
,
00001001
00000000
00000000
00000000
00000010
00000000
00001000
00000100
00000010
00000001
00001000
00000000
00000100
00000000
00000000
00000000
,
00011000
00000000
00000000
00000000
00001000
00000000
00100000
00010000
01000000
00001000
00010000
00000000
00001000
00000000
00000000
00000000
,
00100000
01000000
10000000
00100000
,
01010000
00000000
00000000
01001000
00000000
00000000
00011000
00000000
00010100
00000000
00000000
00000000
00001000
00000000
00000000
00000000
,
00000010
00000000
00000100
00000001
00000100
00000000
00000010
00000000
00001000
00000000
00000000
00000001
00000000
00000010
00000000
00000100
,
00000000
00000000
00000010
00000001
00001000
00000000
00000010
00000000
00000100
00000000
00000010
00001000
00000000
00000001
00000000
00000010
,
00000100
00000000
00000010
00000100
00001000
00000000
00000010
00000000
00010000
00000000
00000000
00001000
00000000
00100000
00000000
00001000
,
00000000
00000000
00010000
00001000
00010000
00000000
00000010
00000000
00000100
00000000
00000001
00001000
00000000
00000010
00000000
00000100
,
00000001
00000000
00001000
00000100
00000010
00000000
00000100
00001000
00000010
00000000
00000000
00010000
00000000
00001000
00000000
00200000
,
00000000
00001000
00010000
00301000
,
01000000
00000000
00010000
00100000
01000000
00000000
00100000
00010000
01000000
00000000
00000000
00010000
00000000
10000000
00000000
00200000
,
00000000
10000000
01300000
10010000
,
00100000
00000000
10000000
00000000
01000000
00000000
00010000
00000000
00001000
00000000
00000000
00010000
00000000
01000000
00000000
00100000
,
00000000
00000000
00010000
00000000
01000000
00000000
00001000
00000000
00010000
00000000
00000010
00000100
00000000
00000001
00000000
00001000
,
00000000
00000000
00000001
00000000
00000100
00000000
00001000
00000000
00010000
00000000
00000000
00001000
00000000
00000100
00000000
00000010
,
00000000
00000000
00010000
00000000
00001000
00000000
00100000
00000000
00010000
00000000
01000000
00001000
00000000
00100000
00000000
00010000
,
01000000
00000000
00100000
00000000
00010000
00000000
00001000
00000000
00010000
00000000
00000000
00100000
00000000
01000000
00000000
00001000
,
00000000
00000000
00010000
00000000
00000100
00000000
00010000
00000000
00001000
00000000
00100000
00001000
00000000
00010000
00000000
00000100
,
00000000
00000000
00001000
00000000
00000010
00000000
00010000
00000000
00001000
00000000
00000000
00000010
00000000
00000100
00000000
00001000
,
00000000
00000000
00000010
00000000
00000100
00000000
00000001
00000000
00001000
00000000
00000010
00010000
00000000
00001000
00000000
00100000
,
00010000
00000000
01000000
00010000
10000000
00000000
01000000
00000000
00100000
00000000
00000000
00010000
00000000
01000000
00000000
00001000
,
00000000
00000000
00010000
00000100
00001000
00000000
00000100
00000000
00010000
00000000
00001000
01000000
00000000
00100000
00000000
10000000
,
00010000
00000000
00100000
01000000
10000000
00000000
00100000
00000000
01000000
00000000
00000000
00010000
00000000
00100000
00000000
00001000
,
00000000
00000000
00010000
00000100
00001000
00000000
00000010
00000000
00000100
00000000
00000001
00001000
00000000
00000010
00000000
00001000
,
00000001
00000000
00000010
00000001
00001000
00000000
00000010
00000000
00001000
00000000
00000100
00010000
00000000
00001000
00000000
00100000
,
00010000
00000000
01000000
00010000
01000000
00100000
00000000
10000000
00000000
00100000
00000000
01000000
00010000
01000000
00100000
10000000
,
00100000
00000000
00000000
01000000
00000000
00010000
00000000
00100000
00001000
00000000
00000000
00010000
00000000
00000100
00000000
00010000
,
00001000
00000000
00000000
00001000
00100000
00000000
00000000
00100000
00010000
00000000
00000000
00010000
01000000
00000000
00001000
00000000
,
00011000
00000000
00000000
00000000
;

//---------------dance-single - ----------------
#NOTES:
     dance-single:
     :
     Medium:
     6:
     0.333,0.314,0.178,0.093,0.005,220.000,19.000,10.000,0.000,0.000,0.000,0.333,0.314,0.178,0.093,0.005,220.000,19.000,10.000,0.000,0.000,0.000:
0000
0000
0000
0000
,
0000
0000
0000
0000
,
0000
0000
0000
0000
,
0000
0000
0000
0000
,
1000
0100
1000
0010
,
0100
0001
0010
0100
,
1000
0010
1000
0001
,
0010
0001
0100
0010
,
1001
0000
0010
0000
,
0100
0000
0010
1000
,
0001
0000
0010
0000
,
0100
0000
0010
0001
,
1000
0000
0100
0000
1000
0000
0010
0100
,
0001
0000
0100
0000
0010
1000
0010
1000
,
0100
0010
0001
1000
,
0010
0010
0010
0010
,
1001
0010
1000
0100
,
1001
0010
0001
0100
,
1001
0001
1000
0100
,
2100
0010
0001
3100
,
1001
0010
0001
0100
,
1001
0010
1000
0100
,
1001
1000
0001
0100
,
0102
0010
1000
0103
,
0001
0000
0000
0001
1000
0000
0000
1000
,
0010
0000
0100
0000
0010
0000
1000
0001
,
0100
0000
0000
0010
0100
0000
0010
1000
,
0001
1000
0100
0010
,
1001
0000
0010
0100
0010
0000
1000
0000
,
0101
0000
0001
1000
0001
0000
0010
0000
,
1100
0010
0001
1000
,
1001
0000
0000
0010
0000
0000
1000
0000
0001
0000
0000
0000
0010
0000
0000
0000
,
0001
1000
0001
1000
0100
0000
0010
0001
,
0100
0000
0010
1000
0010
0000
1000
0000
,
1001
0000
0010
0100
0001
0000
0010
0001
,
1000
0000
0010
1000
0010
0000
0100
0000
,
1001
0000
0010
1000
0100
0000
0010
0001
,
0020
0001
0001
0031
,
1000
0000
0010
1000
0001
0000
1000
0010
,
2000
0000
0100
3100
,
1000
0001
0010
0001
,
1100
0000
0010
0000
0001
0000
1000
0010
,
0100
0010
1000
0001
,
2000
3020
0230
0301
,
1000
0010
0100
0001
,
0110
0000
1000
0000
0010
0000
0100
0001
,
0010
0001
1000
0010
,
0200
0302
2003
3010
,
1001
0000
0010
0000
,
0001
0000
1000
0010
,
0100
0000
0001
0000
,
1000
0000
0100
0010
,
0001
0000
1000
0000
0010
0000
0100
0001
,
1000
0000
0001
0000
0010
0100
0010
0100
,
1000
0010
0100
0001
,
0010
0010
0010
0010
,
1001
0000
0000
0000
;

//---------------dance-single - ----------------
#NOTES:
     dance-single:
     :
     Hard:
     8:
     0.490,0.471,0.047,0.215,0.421,339.000,5.000,23.000,0.000,0.000,0.000,0.490,0.471,0.047,0.215,0.421,339.000,5.000,23.000,0.000,0.000,0.000:
0000
0000
0000
0000
,
0000
0000
0000
0000
,
0000
0000
0000
0000
,
0000
0000
0000
0000
,
1000
0000
0000
0001
0000
0000
0100
0000
0001
0000
0000
1000
0000
0000
0010
0000
,
0100
0000
0000
0001
0000
0000
0010
0000
0100
0000
0000
0010
0000
0000
0001
0000
,
1000
0000
0000
0010
0000
0000
0100
0000
0001
0000
0000
1000
0000
0000
0010
0000
,
0100
0000
0000
0001
0000
0000
0100
0000
0010
0000
0000
1000
0000
0000
0001
0000
,
1000
0000
0100
0000
1000
0000
0010
0000
0100
0000
0000
0001
0000
0010
0000
0001
,
0000
0000
1000
0000
0010
0000
0100
0000
0001
0000
1000
0010
0000
0100
0000
0001
,
0000
0000
0010
0000
0001
0000
1000
0000
0100
0000
0000
0010
0000
0100
0000
0010
,
0000
0000
0001
0000
1000
0000
0010
0000
0100
0000
0001
1000
0000
0010
0000
1000
,
0001
0000
0100
0000
0001
0000
0010
0000
0100
0000
0000
0010
0000
0001
0000
1000
,
0100
0000
0000
1000
0000
0010
0000
0100
0000
0001
0000
0010
0001
0010
0100
1000
,
0100
0000
0000
1000
0000
0010
0000
1000
0010
0000
0000
0100
0000
0001
0000
0100
,
0001
0000
0000
1000
0001
0000
0000
0001
0100
0000
0000
0100
0010
0000
1000
0000
,
0200
0000
1000
0000
0301
0000
0100
1000
,
0020
0000
0100
0000
0031
0000
0010
0100
,
0002
0000
0010
0000
1003
0000
0001
1000
,
0200
0000
0000
0000
2300
0000
0000
0000
3020
0000
0000
0100
0030
0000
0000
0000
,
2000
0000
0001
0000
3010
0000
1000
0001
,
0200
0000
0010
0000
1300
0000
0010
1000
,
0002
0000
0010
0000
1003
0000
0001
0100
,
0020
0000
2030
0000
3002
0000
0013
0100
,
1000
0000
0010
0100
0001
0000
1000
0010
,
0100
0000
0001
0000
0010
0001
0010
0100
,
1000
0000
0010
0100
0001
0000
1000
0010
,
0200
0010
0310
1000
,
0002
0000
0000
0013
0001
1000
0010
0100
,
0020
0000
0000
1030
0100
0010
0001
1000
,
0010
0100
0010
1000
,
1001
0000
0000
0011
0000
0000
1100
0000
1001
0000
0000
0000
0010
0000
0000
0000
,
0100
0000
0010
0000
1000
0000
0001
0000
0010
0000
0000
0001
0000
1000
0000
0100
,
0000
0000
1000
0000
0010
0000
0100
0000
0001
0000
1000
0001
0000
0100
0000
0001
,
1000
0000
0010
0000
0100
0000
0001
0000
1000
0000
0000
0100
0000
0010
0000
0100
,
0000
0000
1000
0000
0001
0000
0010
0000
0001
0000
0100
0010
0000
1000
0000
0010
,
0100
0001
1000
0001
0100
0000
0010
1000
,
0200
1000
0001
1300
,
0100
0010
0001
0100
0010
0000
1000
0001
,
0200
0001
1000
0301
,
1000
0010
0100
0010
1000
0000
0001
0000
,
0010
0000
0001
0000
1000
0000
0100
0000
0010
0000
0001
1000
0000
0010
0000
0100
,
0000
0001
0100
0010
1000
0000
0001
0000
,
0020
0230
2300
3001
,
0100
0010
1000
0001
0010
0000
0001
0000
,
0100
0000
0010
0000
1000
0000
0001
0000
0010
0000
0100
0010
0000
0001
0000
1000
,
0000
0010
0100
0001
1000
0000
0010
0000
,
2000
3002
0023
0130
,
0010
0000
0001
0000
1000
0000
0010
0000
0100
0000
0000
0010
0000
1000
0000
0001
,
0000
0000
0100
0000
0010
0000
1000
0000
0001
0000
0010
0100
0000
1000
0000
0001
,
0000
0000
1000
0000
0010
0000
0100
0000
0001
0000
0000
0010
0000
0001
0000
0100
,
0000
0000
0010
0000
1000
0000
0001
0000
0010
0000
0001
0100
0000
0001
0000
1000
,
0010
0000
0100
0000
0001
0000
1000
0000
0010
0000
0000
0100
0000
0001
0000
0010
,
0100
0000
0000
0010
0000
0001
0000
1000
0000
0010
0000
0100
0001
0100
0010
1000
,
0010
0000
0000
0100
0000
0001
0000
0100
0001
0000
0000
1000
0000
0100
0000
1000
,
0100
0000
0000
0010
0001
0000
0000
0001
1000
0000
0000
1000
0010
0000
0100
0000
,
1001
0000
0000
0000
;
