#TITLE:All The Boys;
#SUBTITLE:(In The Club) [ANOTHER];
#ARTIST:Starclub feat. Alibi;
#TITLETRANSLIT:;
#SUBTITLETRANSLIT:;
#ARTISTTRANSLIT:;
#GENRE:;
#CREDIT:;
#MENUCOLOR:;
#METERTYPE:DDR;
#BANNER:All The Boys (In The Club)A-bn.png;
#BACKGROUND:All The Boys (In The Club)A-bg.png;
#LYRICSPATH:;
#CDTITLE:currentcdtitle.png;
#MUSIC:All The Boys (In The Club) [A].mp3;
#OFFSET:-0.019;
#SAMPLESTART:45.059;
#SAMPLELENGTH:15.000;
#SELECTABLE:YES;
#LISTSORT:;
#BPMS:0.000=127.998;
#STOPS:;
#BGCHANGES:;
#ATTACKS:;

//---------------dance-single - ----------------
#NOTES:
     dance-single:
     :
     Challenge:
     10:
     0.730,0.774,0.602,0.103,1.000: // measure 1
0000
0000
0000
0000
,  // measure 2
0000
0000
0000
0000
,  // measure 3
0000
0000
0000
0000
,  // measure 4
0000
0000
0000
0000
,  // measure 5
0001
0100
0000
0010
1000
0010
0000
0100
0001
0010
0000
0100
1000
0100
0000
1000
,  // measure 6
0010
0100
0000
0001
0010
0001
0000
0010
0001
1000
0000
0010
1000
0010
0000
0000
,  // measure 7
1000
0100
0000
0010
0001
0010
0000
0100
1000
0010
0000
0100
0001
0100
0000
0001
,  // measure 8
0010
0100
0000
1000
0010
1000
0000
0000
0101
0000
0000
1000
0001
0000
0010
0000
,  // measure 9
0001
0000
1000
0010
1000
0001
1000
0100
1000
0000
0000
0101
0000
1001
0000
1100
,  // measure 10
0000
0000
0001
0010
0001
1000
0001
0100
0001
0000
1000
0100
0000
0010
0000
0110
,  // measure 11
0000
0000
0001
0100
0001
1000
0001
0010
0001
0000
0000
1100
0000
1001
0000
0101
,  // measure 12
0000
0000
1000
0100
1000
0001
1000
0010
1000
0000
0001
0100
0000
0010
0000
0110
,  // measure 13
0000
0000
1000
0100
0010
0001
0010
0100
1000
0000
0001
0100
0000
0010
0000
0100
,  // measure 14
0001
0000
1000
0100
1000
0001
0000
0010
0000
0001
0000
0100
0001
0010
0100
1000
,  // measure 15
0010
0000
0010
0100
0000
0001
0000
0001
0010
0000
0010
0100
0000
1000
0000
1000
,  // measure 16
0001
0000
0000
0100
0001
0010
0100
1000
0010
0100
0001
1000
0100
0010
0001
0100
,  // measure 17
0010
0000
0000
0000
1100
0000
0000
0000
0101
0000
0000
0010
0000
1000
0000
0001
,  // measure 18
0000
0000
0010
0000
0001
0000
0100
0000
1000
0000
0100
0001
0000
0001
0000
1000
,  // measure 19
0000
0000
0000
0000
0101
0000
0000
0000
1100
0000
0000
0010
0000
0001
0000
1000
,  // measure 20
0000
0000
0100
0000
1000
0000
0010
0000
0001
0000
0010
1000
0000
1000
0000
0001
,  // measure 21
0000
0000
0010
0000
0010
0000
0100
0000
0100
0000
0000
1100
0000
0101
0000
1100
,  // measure 22
0000
0000
0001
0000
0001
0000
0001
0000
1000
0000
0010
0001
0000
0010
0000
1000
,  // measure 23
0000
0000
0100
0000
0100
0000
0010
0000
0010
0000
0000
0011
0000
1010
0000
0010
,  // measure 24
0002
0203
0320
1030
,  // measure 25
1001
0000
0001
0010
0100
0000
0010
0100
1000
0000
0010
1000
0000
0001
0000
1000
,  // measure 26
0000
0100
1000
0100
0010
0000
0100
0000
0011
0000
1000
0001
0000
0001
0000
0001
,  // measure 27
1000
0000
0010
1000
0001
0000
1000
0000
0100
0000
0000
0010
0000
0001
0000
1000
,  // measure 28
0000
0000
0010
1000
0100
0000
1000
0100
0010
0000
0001
1000
0000
1000
0000
1000
,  // measure 29
0001
0000
0010
0001
0100
0000
0010
1000
0100
0000
0000
1100
0000
1010
0000
0011
,  // measure 30
0000
0000
0000
0000
0110
0000
1000
0000
0001
0000
1000
0010
0000
0001
0000
0010
,  // measure 31
0000
0000
0100
0001
0010
0000
0100
1000
0010
0000
0000
0101
0000
0011
0000
1010
,  // measure 32
0000
0000
0110
0000
0101
0010
1001
0000
,  // measure 33
1000
0000
0010
0100
0001
0000
0010
0001
1000
0000
0010
1000
0010
0100
0001
0000
,  // measure 34
0010
0000
0001
0100
0010
0000
1000
0000
1001
0000
0101
0000
1000
0001
0100
0000
,  // measure 35
0000
0010
0000
0010
1000
0000
0001
0000
0000
0100
0010
0000
1000
0000
0100
0000
,  // measure 36
1001
0000
0000
0010
0001
0000
1000
0100
0001
0000
0100
0000
0110
0000
0011
0000
,  // measure 37
0000
0100
0000
0010
0001
0000
0001
0100
1000
0000
0100
0000
0110
0000
0000
0000
,  // measure 38
0000
0000
0010
1000
0100
0000
1000
0100
0001
0000
0100
0000
0110
0000
0000
0000
,  // measure 39
0000
0000
0000
0000
0000
0000
0010
0000
0000
0000
0000
0000
0001
0000
0000
0100
0000
0000
1000
0000
0000
0000
0000
0000
0100
0000
0000
0000
0001
0000
0000
0000
0010
0000
0000
0000
0100
0000
0000
0000
0000
0000
0000
0000
0000
0000
0000
0000
,  // measure 40
0010
0000
0000
0001
0000
0000
0100
0000
0000
0010
0000
0000
1000
0000
0000
0000
0000
0000
0100
0000
0000
0000
0000
0000
1000
0000
0000
0000
0010
0000
0000
0000
1000
0000
0000
0000
0101
0000
0000
0000
1001
0000
0000
0000
1100
0000
0000
0000
,  // measure 41
0110
0000
0010
0000
0100
0000
0010
0000
0001
0000
0000
0100
0000
0001
0000
0100
,  // measure 42
0000
0000
0010
0000
0001
0000
0010
0000
1000
0000
0001
1000
0000
0010
0000
0110
,  // measure 43
0000
0000
0010
0000
0100
0000
0010
0000
1000
0000
0000
0100
0000
1000
0000
0100
,  // measure 44
0020
0230
2300
3001
,  // measure 45
1001
0000
1000
0100
1000
0010
1000
0001
1000
0000
0000
0101
0000
1001
0000
1100
,  // measure 46
0000
0000
0001
0100
0001
1000
0001
0010
0001
0000
1000
0010
0000
0100
0000
0110
,  // measure 47
0000
0000
1000
0010
1000
0001
1000
0100
1000
0000
0000
0011
0000
1001
0000
1010
,  // measure 48
0000
0000
0001
0010
0001
1000
0001
0100
0001
0000
1000
0100
0000
0010
0000
0110
,  // measure 49
0000
0000
0001
0100
0010
1000
0010
0100
0001
0000
1000
0010
0000
0100
0000
0010
,  // measure 50
1000
0000
0001
0010
0001
1000
0000
0100
0000
1000
0000
0010
1000
0100
0010
0001
,  // measure 51
0100
0000
0100
0010
0000
1000
0000
1000
0100
0000
0100
0010
0000
0001
0000
0001
,  // measure 52
1000
0000
0000
0010
1000
0100
0010
0001
0100
0010
1000
0001
0010
0100
1000
0010
,  // measure 53
0100
0000
0001
1000
0000
0010
0000
0001
0000
1000
0000
0100
0010
0000
0101
0000
,  // measure 54
0010
0000
1000
0001
0000
0010
0000
1000
0000
0001
0000
0100
0010
0000
1100
0000
,  // measure 55
0010
0000
0001
1000
0000
0100
0000
0001
0000
1000
0000
0010
0100
0000
0011
0000
,  // measure 56
0200
2300
3002
0103
,  // measure 57
1100
0000
0010
0100
0000
0101
0000
1100
0000
0110
0000
0001
1000
0000
1001
0000
,  // measure 58
0011
0000
0100
0010
0000
1010
0000
0011
0000
0110
0000
1000
0001
0000
1001
0000
,  // measure 59
0110
0000
1000
0100
0000
0011
0000
1100
0000
1010
0000
0100
0001
0000
1001
0000
,  // measure 60
0020
0230
0302
1003
,  // measure 61
1001
0000
0000
0000
;

//---------------dance-double - ----------------
#NOTES:
     dance-double:
     :
     Challenge:
     10:
     0.601,0.645,0.284,0.103,0.851:
00000000
00000000
00000000
00000000
,
00000000
00000000
00000000
00000000
,
00000000
00000000
00000000
00000000
,
00000000
00000000
00000000
00000000
,
00100000
00000000
00000000
00000000
00000010
00000000
00000000
00000000
00001000
00000001
00000000
00000001
00001000
00000000
00000000
00000000
,
00000100
00000000
00000000
00000000
01000000
00000000
00000000
00000000
00010000
10000000
00000000
10000000
00010000
00000000
00000000
00000000
,
00000000
00011000
00000000
00100010
00000000
00011000
00000000
01000100
,
00000000
00000000
00000000
00000000
00010000
00001000
00000000
00000000
00011000
00000000
00000000
00001000
00010000
00000000
00000000
00000000
,
00000010
00000000
00001000
00000100
00001000
00000001
00001000
00000010
00001000
00000000
00000000
00000001
00000000
00010000
00000000
00001000
,
00000000
00000000
10000000
01000000
10000000
00010000
10000000
00100000
10000000
00000000
00010000
01000000
00000000
00100000
00000000
10100000
,
00000000
00000000
00010000
00100000
00010000
10000000
00010000
01000000
00010000
00000000
00000000
10000000
00000000
00001000
00000000
00010000
,
00000000
00000000
00000001
00000010
00000001
00001000
00000001
00000100
00000001
00000000
00001000
00000100
00000000
00000010
00000000
00000011
,
00000000
00000000
00001000
00000100
00010000
00001000
01000000
00010000
00100000
00000000
00000000
00001000
00000000
00010000
00000000
00000100
,
00000010
00000000
00000000
00001001
00000000
00000110
00000000
00000101
00000000
00001100
00000000
00000010
00000001
00001000
00000100
00000010
,
00000001
00000000
00000000
00010000
00000000
00001000
00000000
00001000
10000000
00000000
00000000
00001000
00000000
00010000
00000000
00010000
,
00000001
00000000
00000000
00000100
00000001
00000100
00000000
00000010
00000000
00010000
00000000
00001000
00000000
00100000
00000000
00010000
,
10000000
11000000
00100000
00011000
,
00000010
00000000
00000001
00000000
00000100
00000000
00000010
00000000
00001000
00000000
00000001
00001000
00000000
00001000
00000000
00000110
,
00000000
00000101
00000010
00011000
,
00100000
00000000
10000000
00000000
01000000
00000000
00100000
00000000
00010000
00000000
10000000
00010000
00000000
00010000
00000000
01100000
,
00000000
00000000
10000000
00000000
10000000
00000000
00010000
00000000
00010000
00000000
00000000
00100000
00000000
00001000
00000000
00100000
,
00000000
00000000
01000000
00000000
00010000
00000000
00001000
00000000
00000010
00000000
00000100
00000010
00000000
00000001
00000000
00001001
,
00000000
00000000
00000001
00000000
00000001
00000000
00001000
00000000
00001000
00000000
00000000
00000010
00000000
00010000
00000000
00000010
,
00000200
00000000
00000000
00000000
00002300
00000000
00000000
00000000
00023000
00000000
00000000
00100000
00030000
00000000
00000000
00000000
,
10000000
00000000
01000000
00100000
00010000
00000000
00100000
00010000
01000000
00000000
00000000
01000000
00000000
00000100
00000000
01000000
,
00000000
00000000
00001000
00010000
00001000
00000000
00010000
00000000
00000010
00000000
00000100
00000001
00000000
00001000
00000000
00000001
,
00000100
00000000
00000010
00001000
00000001
00000000
00000010
00000000
00000100
00000000
00000000
00000100
00000000
01000000
00000000
00000100
,
00000000
00000000
00010000
00001000
00010000
00000000
00001000
00000000
01000000
00000000
00100000
10000000
00000000
00010000
00000000
10000000
,
01000000
00000000
00100000
00000000
00001000
00000000
00100000
00000000
00000010
00000000
00000000
00000100
00000000
00000001
00000000
00001000
,
00000000
00000000
00000000
00000000
00000100
00000000
00010000
00000000
00000100
00000000
00000010
00000001
00000000
00001000
00000000
00000001
,
00001000
00000000
00000010
00000000
00000100
00000000
00000010
00000000
00100000
00000000
00000000
01000000
00000000
10000000
00000000
00010000
,
00000000
01010000
00011000
00001100
,
00010000
01000000
10000000
01000000
00100000
00001000
00000010
00000100
,
00000000
00000010
00000001
00001000
00000010
00010000
00100000
01000000
,
00000000
00001000
00000000
00001000
00010000
00000000
00011000
00000000
00000000
00010000
00000100
00000000
00000010
00000000
00000001
00000000
,
00001000
00000000
00000000
00000010
00010000
00000000
00001000
00000000
01000000
00000000
01000000
00000000
00100000
00000000
00100000
00000000
,
00000000
10000000
00001000
00010000
00000001
00000100
00001100
00000000
,
00000000
00000001
00010000
00001000
10000000
01000000
01010000
00000000
,
00000000
00000000
00000000
00100000
00000000
00000000
00001000
00000000
00000000
00010000
00000000
00000000
00000010
00000000
00010000
00000000
00001000
00000000
00100000
00000000
00000000
00000000
00000000
00000000
,
00010000
00000000
00000000
01000000
00000000
00000000
00001000
00000000
00000000
00010000
00000000
00000000
00000100
00000000
00010000
00000000
00001000
00000000
01000000
00000000
00000000
00000000
00000000
00000000
,
00000000
00000000
00100000
00000000
00100000
00000000
00100000
00000000
00100000
00000000
00000000
10000000
00000000
00010000
00000000
01000000
,
00000000
00000000
00001000
00000000
00100000
00000000
00001000
00000000
00010000
00000000
00000010
00000100
00000000
00000001
00000000
00001001
,
00000000
00000000
00000100
00000000
00000100
00000000
00000100
00000000
00000100
00000000
00000000
00000001
00000000
00001000
00000000
00000100
,
00020000
00000000
00000000
00000000
00032000
00000000
00000000
00000000
00003020
00000000
00000000
00000100
00000030
00000000
00000000
00000000
,
00001001
00000000
00000001
00000100
00000001
00000010
00000001
00001000
00000001
00000000
00000000
00010000
00000000
00001000
00000000
10000000
,
00000000
00000000
00010000
01000000
00010000
00100000
00010000
10000000
00010000
00000000
10000000
00100000
00000000
01000000
00000000
01010000
,
00000000
00000000
10000000
01000000
10000000
00100000
10000000
00010000
10000000
00000000
00000000
00001000
00000000
00010000
00000000
00000001
,
00000000
00000000
00001000
00000100
00001000
00000010
00001000
00000001
00001000
00000000
00000001
00000100
00000000
00000010
00000000
00011000
,
00000000
00000000
00010000
00100000
00001000
00010000
00000010
00001000
00000100
00000000
00000000
00010000
00000000
00001000
00000000
00100000
,
01000000
00000000
00000000
10010000
00000000
01100000
00000000
11000000
00000000
01010000
00000000
00100000
10000000
00010000
00100000
01000000
,
10000000
00000000
00000000
00001000
00000000
00010000
00000000
00010000
00000001
00000000
00000000
00010000
00000000
00001000
00000000
00001000
,
10000000
00000000
00000000
00100000
10000000
00100000
00000000
01000000
00000000
00001000
00000000
00010000
00001000
00010000
00001000
00010000
,
00000100
00000000
00000010
00000001
00000000
00001000
00000000
00000100
00000000
00010000
00000000
00001000
01000000
00000000
00010000
00000000
,
01000000
00000000
00100000
10000000
00000000
00010000
00000000
01000000
00000000
00001000
00000000
00010000
00000100
00000000
00001000
00000000
,
00000010
00000000
00000100
00000001
00000000
00010000
00000000
00001000
00000000
10000000
00000000
00001000
00010000
00000000
00000100
00000000
,
00002000
00000000
00000000
00000000
00003002
00000000
00000000
00000000
00000203
00000000
00000000
00000010
00000300
00000000
00000000
00000000
,
00000001
00000000
00001000
00000010
00000000
00010000
00000000
00001000
00000000
01000000
00000000
00010000
00100000
00000000
01000000
00000000
,
10000000
00000000
00010000
01000000
00000000
00001000
00000000
00010000
00000000
00000010
00000000
00001000
00000100
00000000
00000010
00000000
,
00000001
00000000
00001000
00000010
00000000
00100000
00000000
00000010
00000000
00001000
00000000
00000100
01000000
00000000
00010000
00000000
,
00200000
00000000
00000000
00000000
02300000
00000000
00000000
00000000
23000000
00000000
00000000
00010000
30000000
00000000
00000000
00000000
,
10010000
00000000
00000000
00000000
;
