#TITLE:Africa;
#SUBTITLE:;
#ARTIST:E-Type feat. Nana;
#TITLETRANSLIT:;
#SUBTITLETRANSLIT:;
#ARTISTTRANSLIT:;
#CREDIT:;
#BANNER:africa-bn.png;
#BACKGROUND:ddrencorecdtitle.png;
#LYRICSPATH:;
#CDTITLE:sporktitles2.png;
#MUSIC:Africa.mp3;
#OFFSET:-0.896;
#SAMPLESTART:54.593;
#SAMPLELENGTH:13.500;
#SELECTABLE:YES;
#LISTSORT:20;
#BPMS:0.000=142.000;
#STOPS:;
#BGCHANGES:;

//---------------dance-single - ----------------
#NOTES:
     dance-single:
     :
     Easy:
     4:
     0.257,0.317,0.044,0.081,0.000:
0000
0000
0000
0000
,
0000
0000
0000
0000
,
0000
0000
0000
0000
,
0000
0000
0000
0000
,
0000
0000
0000
0000
,
0000
0000
0000
0000
,
0000
0001
0000
0001
,
0000
0001
1000
0100
,
0000
1000
0000
0001
,
0100
0010
0000
0001
,
0010
0100
0000
1000
,
0010
0100
0001
1000
,
0010
0100
0000
0001
,
0010
0100
0000
0010
,
0001
1000
0000
0001
,
0100
0010
0000
1000
,
0001
0100
0100
0100
,
0001
1000
0100
1000
,
0010
0100
0100
0100
,
0001
1000
0100
0010
,
0000
0100
0100
0100
,
1000
0010
0100
0001
,
1000
0100
0100
0100
,
1000
0010
0100
0001
,
0010
0001
0000
0100
,
0010
1000
0001
0010
,
0000
0100
0010
0000
,
0001
1000
0010
0100
,
0001
0010
0000
0001
,
0100
0010
1000
0001
,
0000
0010
0100
0010
,
0001
1001
0000
0100
,
0010
1000
0001
1000
,
0010
0100
0001
0010
,
0100
1000
0001
1000
,
0001
1000
0000
0010
,
0100
0001
0000
1000
,
0000
0100
0000
1000
,
0010
0100
0001
1000
,
0100
0010
0000
0001
,
0100
0010
0000
0100
,
0001
1000
0100
1000
,
0010
0000
0100
0000
0000
0100
0000
0000
,
0100
0001
1000
0100
,
1000
0010
0000
0100
,
0000
0001
0000
1000
,
0100
0010
0000
0100
,
0000
1000
0001
0100
,
0010
0200
0000
0000
,
0301
1000
0010
0100
,
0001
0020
0000
0000
,
0130
1000
0000
0001
,
0000
0100
0001
1000
,
0010
0200
0001
0302
,
0000
1003
0100
1000
,
0010
0200
0010
0320
,
0000
0130
0001
1000
,
0100
2000
0100
3200
,
0000
0310
0001
0100
,
0010
2000
0001
3001
,
0000
0100
0000
0010
,
0000
1000
0000
0001
,
0010
0001
0000
0100
,
0000
0010
0000
1000
,
0001
0100
0000
0010
,
0000
1000
0000
0001
,
0100
0010
1000
0100
,
0010
0110
0000
1001
,
0110
1001
0001
0100
,
0010
1000
0100
0010
,
0001
1000
0000
0001
,
1000
0010
0000
0100
,
0010
1000
0000
0100
,
0000
0010
0100
1000
,
0010
0100
0000
0010
,
0000
0010
1000
0100
,
0010
2002
0000
0000
,
0000
0000
0000
0000
,
3003
0000
0000
0000
;

//---------------dance-single - ----------------
#NOTES:
     dance-single:
     :
     Medium:
     6:
     0.339,0.375,0.103,0.096,0.004:
0000
0000
0000
0000
,
0000
0000
0000
0000
,
0000
0000
0000
0000
,
0000
0000
0000
0000
,
0000
0000
0000
0000
,
0000
0000
0000
0000
,
0000
1000
0000
0001
,
0000
0100
0010
0100
,
0000
0010
1000
0001
,
0101
1000
0010
0100
,
0110
0001
0010
0100
,
1100
0010
0001
1000
,
0001
0100
0010
1000
,
1001
0010
0100
0001
,
0011
1000
0010
0100
,
0101
0010
1000
0001
,
0010
0100
0100
0100
,
0010
0000
0001
0000
0100
0001
1000
0000
,
0100
1000
1000
1000
,
0010
0000
0100
0000
0010
0100
0001
0000
,
0000
0010
0010
0010
,
0100
0000
1000
0000
0001
0100
0010
0000
,
1000
0001
0001
0001
,
0100
0000
0010
0000
1000
0100
0010
0000
,
0001
0000
1010
0000
0000
0100
0010
0000
,
0100
0000
0001
0000
1000
0100
0000
0000
,
0010
0000
0001
1000
0100
0000
0010
0000
,
0100
1000
0010
0000
0100
0001
0100
0000
,
0100
0000
0010
0000
0000
0100
0001
0000
,
0010
0000
0001
0000
0100
0010
0000
0000
,
0010
0000
0100
0001
0100
0010
1000
0001
,
1000
0200
0000
0010
,
0010
0310
0001
0100
,
0001
1000
0000
0010
0000
0100
0000
0001
,
0010
0000
0001
0000
1000
0000
0010
0100
,
0001
0100
0010
0000
1000
0000
0010
0000
,
0100
0000
0001
0000
1000
0010
0000
0000
,
0100
0000
0001
0000
1000
0010
0100
0000
,
0001
0000
1000
0000
0100
0010
0000
0010
,
0001
1000
0000
0010
,
0010
0110
1000
0001
,
0100
0010
0000
1000
0000
0001
0000
0010
,
0001
0000
1000
0000
0001
1000
0000
1000
,
0001
0100
0010
1000
,
0001
0000
0010
0000
0001
1000
0000
0000
,
1000
0000
0010
0000
0100
0001
0000
0000
,
0001
1000
0100
0010
,
0001
0100
0010
1000
,
0001
0020
0000
0000
,
0130
0010
0001
0010
,
0100
2000
0000
0000
,
3010
0100
0000
0001
,
0000
0000
0100
0000
0001
0000
1000
0010
,
1000
0010
2000
0000
0000
3001
0200
0000
,
0000
0300
0001
0000
1000
0000
0100
1000
,
0100
1000
0200
0000
0000
0310
0002
0000
,
0000
0003
0100
0000
0010
0000
0100
0001
,
0100
0001
0200
0000
0000
0310
2000
0000
,
0000
3000
0001
0000
1000
0000
0010
0100
,
0010
0100
0020
0000
0000
0130
0002
0000
,
1000
0003
1000
0000
0000
0000
0010
0000
,
0100
0001
0000
0100
0000
0010
0000
0000
,
1000
0101
0010
1000
,
0001
0010
0000
0001
,
1000
0000
0100
0000
1000
0010
0000
0000
,
0100
0000
0010
0000
1000
0001
0100
0000
,
0001
1000
0100
0000
0100
0010
0000
0010
,
0001
1001
0000
0110
,
1001
0101
0100
0010
,
1000
0001
0000
0010
0000
0001
0000
0100
,
0010
1000
0001
0100
,
0010
1000
0100
0010
,
0001
0000
1000
0000
0010
0100
0000
0000
,
0010
0000
1000
0000
0001
0010
0000
0000
,
0001
1000
0100
0000
1000
0000
0010
0000
,
0100
0000
0000
0000
0001
0000
0000
0000
0010
0000
0000
0100
0010
0000
0000
0000
,
0001
2002
0000
0000
,
0000
0000
0000
0000
,
3003
0000
0000
0000
;

//---------------dance-single - ----------------
#NOTES:
     dance-single:
     :
     Beginner:
     1:
     0.128,0.141,0.022,0.000,0.000:
0000
0000
0000
0000
,
0000
0000
0000
0000
,
0000
0000
0000
0000
,
0000
0000
0000
0000
,
0000
0000
0000
0000
,
0000
0000
0000
0000
,
0000
0010
0000
0010
,
0000
0010
0010
0010
,
0000
0010
0000
0000
,
0000
1000
0000
0000
,
0000
0001
0000
0000
,
0000
0010
0000
0001
,
0000
0100
0000
0000
,
0000
0010
0000
0000
,
0000
1000
0000
0000
,
0000
0001
0000
1000
,
0000
0100
0000
0100
,
0000
1000
0000
0010
,
0010
0010
0000
0100
,
0000
0001
0000
1000
,
0000
0100
0000
0100
,
0000
0010
0000
0001
,
0001
0001
0000
0100
,
0000
0010
0000
0010
,
0000
1001
0000
0000
,
0000
0100
0000
0000
,
0000
0010
0000
1000
,
0000
0001
0000
0010
,
0000
1001
0000
0000
,
0000
0100
0000
0000
,
0000
0010
0000
1000
,
0000
0001
0000
0000
,
0000
0010
0000
0001
,
0000
1000
0000
0001
,
0000
0100
0000
0010
,
0000
1000
0000
0000
,
0000
0001
0000
0000
,
0000
0100
0000
0000
,
0000
0010
0000
1000
,
0000
0001
0000
0000
,
0000
0010
0000
1000
,
0000
0001
0000
1000
,
0000
0100
0000
0010
,
0000
0001
0000
0000
,
0000
0010
0000
0000
,
0000
1000
0000
0000
,
0000
0001
0000
1000
,
0000
0100
0000
1000
,
1000
1000
0000
0000
,
0000
0100
0000
0000
,
0000
0010
0000
0000
,
0000
0001
0000
0000
,
0000
0100
0000
0010
,
0000
0100
0000
0100
,
0000
0010
0000
1000
,
0000
0010
0000
0010
,
0000
1000
0000
0001
,
0000
1000
0000
1000
,
0000
0001
0000
0010
,
0000
0001
0000
1000
,
1000
1000
0000
0000
,
0000
0010
0000
0000
,
0000
0100
0000
0000
,
0000
0001
0000
0000
,
0000
0010
0000
0000
,
0000
0001
0000
0000
,
0000
0100
0000
0000
,
0000
0010
0000
0100
,
0100
0100
0000
0100
,
0000
0010
0000
1000
,
0000
0100
0000
0100
,
0000
0100
0000
1000
,
1000
1000
0000
0010
,
0000
0100
0000
0001
,
0000
1000
0000
0000
,
0000
0001
0000
0100
,
0000
1001
0000
0000
;

//---------------dance-single - ----------------
#NOTES:
     dance-single:
     :
     Hard:
     7:
     0.418,0.461,0.155,0.133,0.041:
0000
0000
0000
0000
,
0000
0000
0000
0000
,
0000
0000
0000
0000
,
0000
0000
0000
0000
,
0000
0000
0000
0000
,
0000
0000
0000
0000
,
0000
1000
0000
0001
,
0000
0011
1100
1001
,
0000
0000
0000
0000
0010
0000
0000
0001
0000
0000
1000
0000
0001
0000
0100
0000
,
0010
0000
1000
0000
0010
0000
0000
0100
0000
0000
0010
0000
1000
0000
0001
0000
,
0010
0000
0100
0000
0010
0000
0000
0001
0000
0000
1000
0000
0001
0000
1000
0000
,
0010
0100
0101
0000
1000
0000
1001
0000
,
0100
0000
0000
0000
0110
0000
0000
1000
0000
0000
0001
0000
0010
0000
0001
0000
,
1000
0000
0100
0000
0010
0000
0000
0100
0000
0000
1000
0000
0001
0000
0010
0000
,
0001
0000
0100
0000
0010
0000
0000
1000
0000
0000
0001
0000
0100
0000
0010
0000
,
1000
0000
0100
0000
0010
0000
0000
0001
0000
0000
0100
0000
0010
1000
0010
0000
,
0100
0001
2000
0000
0100
0000
0010
0000
,
3001
0000
1001
0000
0001
0100
0010
1000
,
0100
0010
0002
0000
1000
0000
0010
0000
,
0103
0000
1001
0000
0010
0100
0001
0000
,
0000
0020
0001
1000
,
0130
0000
0110
0000
0001
1000
0001
0100
,
0010
1000
0200
0000
0010
0000
0001
0000
,
1300
0000
0110
0000
0010
0001
1000
0000
,
0001
0000
0101
0000
0001
1000
0001
0000
,
1000
0100
1000
0000
0010
0100
0000
0000
,
0010
0000
1000
0001
0100
0000
0010
1000
,
0001
0010
0001
0000
1000
0100
0010
0000
,
0001
0000
1001
0000
1000
0001
1000
0000
,
0010
0100
0001
0000
0010
0001
0000
0000
,
1000
0000
0001
1000
0001
0100
0001
1000
,
0100
0110
0000
0001
,
1000
1001
0001
0100
,
0001
1000
0000
0010
0000
1000
0000
0001
,
0010
0100
1000
0000
0010
0000
0100
0000
,
0010
1000
0001
0000
0010
0000
0001
0000
,
1000
0010
0100
0000
0010
0100
0000
0010
,
1000
0000
0001
0000
0100
0000
0010
1000
,
0010
0100
0001
0000
0010
0001
0000
1000
,
0001
0100
0010
0000
1000
0000
0001
0000
,
0010
1001
0001
0100
,
0010
1000
0000
0001
0000
0010
0000
0001
,
0100
0010
1000
0001
0100
0010
0000
1000
,
0100
0010
0001
0000
1000
0000
0010
0000
,
0100
0000
0010
1000
0001
1000
0000
0010
,
0100
0000
0001
1000
0001
0010
0000
0100
,
0010
0001
1000
0000
0001
0000
0100
0000
,
0010
0000
0000
0000
1000
0000
0000
0000
0010
0000
0000
0010
1000
0000
0000
0010
,
0100
0010
0200
0000
0000
0000
0000
0000
,
0010
0302
0000
0010
,
0003
2000
0000
0000
,
0010
0200
0000
0000
,
3300
0000
1000
0100
0001
0100
1000
0001
,
0100
0010
2000
0000
3010
0100
0002
0000
,
1003
0000
0001
0100
1000
0100
0001
0010
,
0100
1000
0002
0000
0013
0100
2000
0000
,
3001
0000
1000
0010
0100
0010
1000
0001
,
0010
0100
2000
0000
3010
0100
0002
0000
,
1003
0000
0001
0100
0010
0100
0001
0010
,
0100
1000
0002
0000
0000
0000
0103
0000
,
0010
1000
0000
0010
,
1000
0001
0000
0100
0000
0010
0000
0000
,
1000
0010
0100
0001
,
0010
1001
0000
0100
,
0010
0000
1000
0000
0001
1000
0000
0000
,
1000
0010
0100
0001
,
0100
0000
0010
0000
1000
0001
0000
0000
,
0100
1001
0000
1001
,
1010
0110
0100
0001
,
1000
0100
0000
1000
0000
0010
0000
0100
,
0001
1000
0100
0000
1000
0000
0001
0000
,
0100
1001
1000
0010
,
0100
0000
0001
1000
0010
0100
0000
0100
,
0010
1000
0001
0010
0100
1000
0000
0001
,
0100
0010
1000
0000
0001
0000
0100
0000
,
0010
0000
0000
0000
0100
0000
0000
0000
0001
0000
0000
1000
0100
0000
0000
0000
,
0010
0002
0000
0000
,
0013
0200
0000
2000
,
3300
0000
0000
0000
;

//---------------dance-double - ----------------
#NOTES:
     dance-double:
     :
     Hard:
     8:
     0.488,0.519,0.340,0.081,0.055:
00000000
00000000
00000000
00000000
,
00000000
00000000
00000000
00000000
,
00000000
00000000
00000000
00000000
,
00000000
00000000
00000000
00000000
,
00000000
00000000
00000000
00000000
,
00000000
00000000
00000000
00000000
,
00000000
00000011
00000000
00010100
,
00000000
00101000
00110000
11000000
,
00000000
00000000
00000000
00000000
00100000
00000000
00000000
10000000
00000000
00000000
00010000
00000000
01000000
00100000
01000000
00000000
,
00010000
00000000
00100000
00000000
01000000
00000000
00000000
00100000
00000000
00000000
00010000
00000000
10000000
00010000
01000000
00000000
,
00010000
00000000
00100000
00000000
00001000
00000000
00000000
00010000
00000000
00000000
00001000
00000000
00010000
00000100
00010000
00000000
,
00001000
00000010
00000002
00000000
00000010
00000000
00001000
00000000
,
00000103
00000000
00000000
00000000
00000001
00000000
00000000
00001000
00000000
00000000
00000010
00000000
00000100
00000001
00000100
00000000
,
00000010
00000000
00001000
00000000
00000100
00000000
00000000
00010000
00000000
00000000
00001000
00000000
00100000
00010000
00100000
00000000
,
00010000
00000000
01000000
00000000
00100000
00000000
00000000
10000000
00000000
00000000
00010000
00000000
00100000
00010000
01000000
00000000
,
00100000
00000000
10000000
00000000
00010000
00000000
00100000
00010000
00000000
00000000
01000000
00000000
00010000
00100000
00010000
00000000
,
10000000
00100000
10000000
00000000
00100000
00000000
10010000
00000000
,
01010000
00000000
01001000
00000000
00001000
00010000
00000100
00000010
,
00000100
00010000
00001000
00000000
01000000
00000000
01010000
00000000
,
01001000
00000000
00011000
00000000
00010000
00000010
00000100
00000000
,
00000010
00001000
00000001
00000011
,
00001001
00000000
00001100
00000000
00000100
00010000
00001000
01000000
,
00001000
00010000
00000100
00000000
00000010
00000000
00000110
00000000
,
00001100
00000000
00010100
00000000
00010000
00001000
00100000
00000000
,
00010000
00000000
01010000
00000000
00010000
10000000
01000000
00100000
,
00010000
01000000
00010000
00100000
01000000
10000000
00000000
00010000
,
01000000
00100000
00010000
00001000
00000100
00000000
00000010
00001000
,
00000001
00000010
00000100
00000000
00000010
00000001
00000100
00000000
,
00000010
00000000
00001001
00000000
00000100
00000010
00001000
00000100
,
00010000
00000100
00000010
00000000
00000001
00000100
00000000
00000010
,
00001000
00000100
00000010
00000100
00001000
00000001
00001000
00000100
,
00000010
00010010
00000000
00001000
,
00100000
00000000
00010000
01000000
00100000
01000000
00001000
00100000
,
00010000
01000000
00100000
10000000
01000000
00010000
01000000
00100000
,
00010000
01000000
00002000
00000000
00010000
00000000
00100000
00000000
,
01003000
00011000
00010000
00000100
,
00001000
00000000
00000010
00000100
00000001
00001000
00000000
00000010
,
00010000
00001000
00100000
00001000
00010000
01000000
00100000
00010000
,
01000000
00001000
00010000
00000000
00000100
00001000
00000000
00000100
,
00000010
00000001
00001000
00001010
,
00010010
00000000
00010000
00001000
00100000
00001000
00010000
01000000
,
10000000
00100000
01000000
00010000
00100000
01000000
00100000
00010000
,
01000000
00001000
00010000
00000000
00000100
00001000
00000000
00001000
,
00000010
00000100
00000001
00000000
00001000
00000000
00000010
00000000
,
00011000
00000000
00001000
01000000
00100000
10000000
00000000
10000000
,
00010000
00100000
00001000
00100000
00010000
01000000
00000000
01000000
,
00001000
00010000
00000100
00000000
00000010
00000000
00000001
00000000
,
00000100
00000010
00001000
00001001
,
00000010
00001000
00000200
00000000
00010000
00000000
00001000
00000000
,
00020300
00030020
00001000
00000230
,
00000001
00000320
00010000
00001000
,
00020030
00030200
00010000
00001000
,
00010300
00000000
00000100
00010000
00001000
01000000
00100000
10000000
,
00010000
00100000
11000000
00000000
00100000
00010000
01010000
00000000
,
00011000
00000000
00010000
00000100
00000010
00000001
00001000
00000010
,
00000100
00000001
00001001
00000000
00000010
00001000
00001100
00000000
,
00010100
00000000
00001000
01000000
00100000
00010000
00001000
00010000
,
00100000
01000000
01010000
00000000
00100000
10000000
10010000
00000000
,
00110000
00000000
00100000
00001000
00010000
00000100
00000010
00000100
,
00001000
00000001
00000101
00000000
00000010
00001000
00000001
00000000
,
00000010
00001100
00000010
00000001
,
00001000
00000010
00000000
00000100
00000000
00000001
00000000
00001000
,
00000010
00010000
00000010
00000000
00001000
00000000
00000100
00000000
,
00010000
00001000
01000000
00100000
,
10000000
00000000
00010000
00000000
00100000
01000000
00000000
00000000
,
00100000
00000000
00010000
00000000
01000000
00000000
00001000
00010000
,
00000100
00001000
00000010
00000000
00000100
00000001
00000000
00001000
,
00000010
00010000
00011000
00000000
00100000
00000000
00110000
00000000
,
01100000
00000000
11000000
01000000
10000000
00100000
01000000
00010000
,
00100000
00001000
00010000
00000100
00000010
00000100
00001000
00000010
,
00010000
00001000
01000000
00000000
00100000
00000000
10000000
00000000
,
00100000
10010000
00100000
01010000
,
01001000
00000000
00010000
00000000
00001000
00010000
00000000
00000010
,
00000100
00000001
00001000
00000000
00000010
00010000
00000000
00001000
,
01000000
00100000
10000000
00000000
00010000
00000000
00100000
00000000
,
00001000
00000000
00000000
00000000
00011000
00000000
00000000
00000000
00000010
00000000
00000000
00000000
00001001
00000000
00000000
00000010
,
00000100
00000001
00002200
00000000
00000000
00000000
00000000
00000000
,
00000000
00000000
00000000
00000000
,
00003300
00000000
00000000
00000000
;

//---------------dance-double - ----------------
#NOTES:
     dance-double:
     :
     Easy:
     4:
     0.276,0.317,0.148,0.052,0.000:
00000000
00000000
00000000
00000000
,
00000000
00000000
00000000
00000000
,
00000000
00000000
00000000
00000000
,
00000000
00000000
00000000
00000000
,
00000000
00000000
00000000
00000000
,
00000000
00000000
00000000
00000000
,
00000000
00000100
00000000
00000100
,
00000000
00000010
00010000
00001000
,
00000000
00100000
00010000
01000000
,
01000000
00100000
10000000
00010000
,
00010000
00100000
01000000
10000000
,
10000000
10010000
00100000
01000000
,
00001000
00011000
00010000
00000100
,
00000100
00001000
00000010
00000100
,
00000100
00000001
00000010
00000100
,
00000100
00001000
00000010
00010000
,
00001000
00100000
00100000
00100000
,
00100000
00100000
00001000
00010000
,
00000100
00001000
00001000
00001000
,
00001000
00000010
00000100
00000001
,
00000000
00000010
00000010
00000010
,
00000010
00000010
00000100
00001000
,
00000010
00010000
00010000
00010000
,
00010000
00001000
00100000
00010000
,
01000000
00100000
00000000
10000000
,
00000000
00010000
00100000
01000000
,
00000000
00100000
00010000
00100000
,
00100000
01000000
10000000
00010000
,
01000000
00001000
00000000
00010000
,
00000000
00000100
00001000
00000010
,
00000000
00000100
00000010
00001000
,
00001000
00000001
00000000
00000010
,
00000100
00001000
00000010
00000100
,
00000010
00010000
00001000
00100000
,
00001000
00010000
00000100
00001000
,
00000010
00000100
00000000
00000010
,
00001000
00000100
00000000
00010000
,
00000000
00001000
00000000
00100000
,
00010000
01000000
00100000
10000000
,
00010000
00100000
00000000
01000000
,
10000000
00010000
01000000
00100000
,
10000000
00010000
00100000
00001000
,
00010000
00000100
00000000
00010000
,
00000100
00001000
00000000
00000010
,
00000100
00000000
00000001
00000000
00000000
00001000
00000000
00000000
,
00000010
00000000
00000100
00000000
00000000
00000100
00000000
00000000
,
00000010
00001000
00000000
00000100
,
00000000
00010000
00010000
00001000
,
00001000
00021000
00000000
00000000
,
00000100
00030200
00000000
00002300
,
00000000
00003200
00000000
00000000
,
00010000
00020300
00000000
00000000
,
00000000
00031000
00100000
00010000
,
01000000
10100000
01010000
10010000
,
00000000
00100000
00010000
01000000
,
00001000
00011000
00010100
00001100
,
00000000
00000100
00000010
00000001
,
00000100
00001010
00000101
00001001
,
00000000
00000010
00000100
00001000
,
00000010
00010010
00000000
00011000
,
00011000
00100000
00000000
00010000
,
01000000
00100000
10000000
00010000
,
01000000
00001000
00000000
00010000
,
00000100
00001000
00000000
00000010
,
00000100
00000001
00001000
00000010
,
00000000
00000100
00000000
00000010
,
00001000
00000001
00001000
00000010
,
00010000
00011000
00000000
00101000
,
00110000
00010000
01000000
00100000
,
10000000
00010000
01000000
00100000
,
10000000
00010000
00000000
00010000
,
01000000
00001000
00100000
00010000
,
01000000
00000000
00001000
00000000
00000000
00010000
00000000
00000000
,
00000100
00000000
00001000
00000000
00000000
00000100
00000000
00000000
,
00000010
00000001
00000000
00001000
,
00000000
00001001
00000000
00000010
,
00010000
00022000
00000000
00000000
,
00000000
00000000
00000000
00000000
,
00033000
00000000
00000000
00000000
;

//---------------dance-double - ----------------
#NOTES:
     dance-double:
     :
     Medium:
     6:
     0.345,0.375,0.118,0.096,0.000:
00000000
00000000
00000000
00000000
,
00000000
00000000
00000000
00000000
,
00000000
00000000
00000000
00000000
,
00000000
00000000
00000000
00000000
,
00000000
00000000
00000000
00000000
,
00000000
00000000
00000000
00000000
,
00000000
00011000
00000000
00101000
,
00000000
00011000
00010100
00001100
,
00000000
00000000
00000100
00000000
00000010
00000000
00000001
00000100
,
00000001
00000100
00000010
00000000
00001000
00000000
00000100
00010000
,
00000100
00010000
00001000
00000000
00010000
00000000
00001000
00100000
,
00001000
00100000
00010000
00000000
01000000
00000000
00100000
00000000
,
10000000
00000000
00010000
00000000
00100000
00000000
00010000
01000000
,
00010000
01000000
00001000
00000000
00010000
00000000
00001000
00010000
,
00001000
00010000
00000100
00000000
00000010
00000000
00000100
00001000
,
00000100
00001000
00000010
00000000
00000100
00000000
00000001
00001000
,
00000001
00000100
00000010
00000000
00000010
00000000
00000010
00000000
,
00000010
00000000
00000010
00000000
00001000
00000010
00001000
00000100
,
00001000
00000010
00010000
00000000
00010000
00000000
00010000
00000000
,
00010000
00000000
00001000
00000000
00100000
00010000
01000000
00000000
,
00000000
00100000
00100000
00100000
,
00100000
00000000
00100000
00000000
10000000
01000000
10000000
00010000
,
10000000
00100000
01000000
00000000
01000000
00000000
01000000
00000000
,
01000000
00000000
00001000
00000000
00010000
00001000
00010000
00000000
,
00000100
00000000
00011000
00000000
00000000
00010000
00000100
00000000
,
00001000
00000000
00000010
00000000
00000100
00000001
00000000
00000000
,
00001000
00000010
00001000
00000100
,
00010000
01000000
00100000
00010000
,
00100000
00000000
00001000
00000000
00000000
00010000
00001000
00000000
,
00100000
00000000
00010000
00000000
01000000
00100000
00000000
00000000
,
10000000
00000000
00010000
01000000
00001000
00000000
00010000
00001000
,
00100000
00011000
00000000
00010000
,
00000100
00001000
00000010
00000100
,
00000010
00001000
00000000
00000001
00000000
00000010
00000000
00000001
,
00001000
00000010
00010000
00001000
,
01000000
00100000
00000000
10000000
,
00010000
00000000
01000000
00000000
00100000
10000000
00000000
00000000
,
00010000
00000000
01000000
00000000
00001000
00000000
00010000
00001000
,
00100000
00001000
00010000
00000000
00000100
00010000
00000000
00000000
,
00000100
00000010
00000000
00000001
,
00001000
00000010
00010000
00000100
,
00001000
00000010
00000000
00000100
00000000
00000001
00000000
00001000
,
00000010
00000000
00010000
00000000
00001000
00100000
00000000
00100000
,
01000000
00100000
00010000
01000000
,
00001000
00000000
00010000
00001000
00010000
00000100
00000000
00000100
,
00010000
00000000
00001000
00100000
00001000
00010000
00000000
00010000
,
00000100
00001000
00000000
00000001
,
00000000
00000001
00000000
00001100
,
00010000
00021000
00000000
00000000
,
00031000
02000000
00000000
03100000
,
10000000
10020000
00000000
00000000
,
00130000
00002000
00000000
00010000
,
00000000
00000000
00013000
00000100
00001000
00000000
00000100
00001000
,
00000010
00000200
00000001
00000302
,
00000000
00000000
00001003
00000010
00000100
00000000
00000010
00001000
,
00000100
00020000
00001000
00032000
,
00000000
00000000
00103000
00010000
01000000
00000000
00100000
10000000
,
00010000
00200000
01000000
02300000
,
00000000
00000000
13000000
00010000
01000000
00000000
00010000
01000000
,
00001000
00020000
00000000
00031000
,
00010000
00000010
00000000
00000100
,
00000010
00001000
00000000
00000000
00000000
00000010
00000000
00000000
,
00001000
00000100
00010000
00001000
,
01000000
10010000
00000000
00100000
,
01000000
00000000
00010000
00000000
00100000
00001000
00000000
00000000
,
00010000
00000100
00001000
00000010
,
00000100
00000000
00000010
00000000
00001000
00000100
00000000
00000000
,
00010000
00011000
00000000
00101000
,
00110000
00010000
01000000
00100000
,
10000000
00010000
00000000
01000000
00000000
00010000
00000000
00100000
,
00001000
00010000
00000100
00001000
,
00000010
00001001
00000010
00010000
,
00001000
00000000
01000000
00000000
00100000
10000000
00000000
10000000
,
00010000
00000000
00100000
00000000
00001000
00010000
00000000
00010000
,
00000100
00000010
00000000
00000001
,
00000000
00001000
00000010
00010000
,
00001000
00022000
00000000
00000000
,
00000000
00000000
00000000
00000000
,
00033000
00000000
00000000
00000000
;
