#TITLE:Aerius Light;
#SUBTITLE:(Kitsune DJ Friendly Edit);
#ARTIST:DatA;
#TITLETRANSLIT:;
#SUBTITLETRANSLIT:;
#ARTISTTRANSLIT:;
#GENRE:;
#CREDIT:;
#MENUCOLOR:;
#METERTYPE:DDR;
#BANNER:Aerius Light (Kitsune DJ Friendly Edit)-bn.png;
#BACKGROUND:Aerius Light (Kitsune DJ Friendly Edit)-bg.png;
#LYRICSPATH:;
#CDTITLE:;
#MUSIC:Aerius Light (Kitsune DJ Friendly Edit).mp3;
#OFFSET:-1.946;
#SAMPLESTART:15.160;
#SAMPLELENGTH:15.120;
#SELECTABLE:YES;
#LISTSORT:;
#DISPLAYBPM:127.000:0.000;
#BPMS:0.000=127.000,108.000=63.500,138.000=127.000;
#STOPS:;
#BGCHANGES:;
#ATTACKS:;

//---------------dance-single - [Ness]----------------
#NOTES:
     dance-single:
     [Ness]:
     Hard:
     8:
     0.425,0.519,0.180,0.206,0.189:
0000
0000
0000
0000
,
0000
0000
0000
0000
,
0000
0000
0000
0000
,
0010
0000
1000
0100
0010
0000
0001
0000
,
1000
0000
0001
0100
0010
0000
1000
0000
,
0001
0000
1000
0010
0100
0000
0001
0000
,
1000
0000
0000
0000
0001
0000
0010
0000
0100
0000
0000
0000
1000
0001
0000
1000
,
0001
0000
0000
0000
0100
0000
0010
0000
1000
0000
0000
0001
1000
0000
0000
0000
,
0010
0000
0000
0000
1000
0000
0001
0000
0100
0000
0000
0001
0100
0000
0000
0000
,
0010
0000
0000
0000
1000
0000
0010
0000
0100
0000
0000
0001
1000
0000
0000
0000
,
0100
0000
0000
0000
1000
0000
0010
0000
0100
0000
0000
0001
0100
0000
0010
0000
,
0100
0000
0000
0000
0001
0000
1000
0000
0010
0000
0000
1000
0010
0000
1000
0000
,
0100
0000
0000
0000
0010
0000
0001
0000
0100
0000
0000
0001
0100
0000
0010
0000
,
1000
0000
0000
0000
0100
0000
0010
0000
0001
0000
0000
1000
0010
0000
1000
0000
,
0001
0000
0000
0000
0100
0000
0000
0000
0001
1000
0000
0000
0001
1000
0000
0000
,
1001
1000
0001
0000
1000
0000
1000
0000
,
1100
1000
0001
0000
0100
0000
0100
0000
,
0110
0100
0001
0000
0010
0000
0010
0000
,
0110
0100
1000
0000
0001
0000
0001
0100
,
0101
0100
0010
0000
1000
0000
0100
0000
,
1100
1000
0010
0000
0100
0000
0100
0000
,
0101
0100
0001
0000
1000
0000
0100
0000
,
1100
0100
1000
0000
0010
0000
0100
0000
,
0001
0000
0000
0000
0010
0000
0001
0000
1000
0000
0000
0100
0010
0000
0001
0000
,
1000
0000
0000
0000
0010
0000
0100
0000
0001
0000
0000
1000
0100
0000
1000
0000
,
0001
0000
0000
0000
0100
0000
0010
0000
1000
0000
0000
0001
0010
0000
0100
0000
,
1000
0000
0000
0000
0010
0000
1000
0000
0001
0000
0000
0010
0001
0000
1000
0000
,
2002
0000
0000
0000
3003
0101
0000
0000
2200
0000
0000
0000
0000
0000
3300
0000
,
0220
0000
0000
0330
2002
0000
0000
3003
,
2020
0000
0000
0000
3030
0220
0000
0330
0202
0000
0000
0000
0000
0000
0303
0000
,
2002
0000
0000
0000
0000
0000
0000
0000
0000
0000
0000
0000
3003
0000
0000
0000
1000
0000
0001
0000
0000
0010
0000
0000
0100
0000
0000
1000
0100
0000
0000
0000
,
1000
0000
0000
0000
0000
0001
0000
0000
0010
0000
0100
0000
0000
0000
0000
0000
1000
0000
0000
0000
0000
0000
0010
0000
0100
0000
0000
0100
0010
0000
0000
0000
,
1000
0000
0000
0000
0000
0000
0010
0000
0100
0000
0000
0001
0100
0000
0000
0000
0001
0000
1000
0000
0000
0100
0000
0000
0010
0000
0000
0001
0010
0000
0000
0000
,
0001
0000
0010
0000
0000
0100
0000
0000
1000
0000
0100
0000
0000
0000
0000
0000
0010
0000
0000
0000
0000
0000
0010
0000
0100
0000
0000
0001
0100
0000
0000
0000
,
2200
0000
0000
0000
0000
0000
0000
0000
0000
0000
0000
0000
3300
0000
0000
0010
0100
0000
0000
0000
0001
0000
0000
0000
0000
0000
0000
0000
1000
0000
0000
0000
,
0100
0000
0000
0010
0100
0000
1000
0000
0010
0000
0100
0000
0000
0000
0001
0000
,
0010
0000
0000
0100
1000
0000
0001
0000
1000
0000
0010
0000
0000
0000
0100
0000
,
0001
0000
0000
1000
0010
0000
1000
0000
0100
0000
0010
0000
0000
0000
0001
0000
,
0100
0000
0000
0001
1000
0000
0010
0000
0100
0000
0001
0000
0000
0000
1000
0000
,
0100
0000
0000
0010
0100
0000
1000
0000
0001
0000
0010
0000
0000
0000
0100
0000
,
1000
0000
0000
0001
0100
0000
0010
0000
1000
0000
0100
0000
0000
0000
0001
0000
,
0100
0000
0000
1000
0100
0000
0010
0000
0001
0000
0100
0000
0000
0000
1000
0000
,
0100
0000
0001
0000
0100
0010
0100
0010
2000
0000
0000
0000
0100
0000
0000
0000
,
3001
0101
1000
1100
,
0001
1000
0100
0000
0002
0000
0010
0000
,
1003
0000
1010
0000
0001
0010
0100
1000
,
0001
1000
0010
0000
0200
0000
0000
0301
,
1000
0000
0100
0000
2000
0000
0000
3010
,
0100
0000
0001
0000
0020
0000
0000
0130
,
1000
0000
0001
0000
0200
0000
0000
0310
,
1000
0000
0001
0000
0010
0100
0010
0100
,
0010
0100
0010
0100
0010
0100
0010
0100
,
0010
0100
0010
0100
1000
0000
0000
0000
;

//---------------dance-single - [Ness]----------------
#NOTES:
     dance-single:
     [Ness]:
     Medium:
     5:
     0.295,0.271,0.043,0.198,0.017:
0000
0000
0000
0000
,
0000
0000
0000
0000
,
0000
0000
0000
0000
,
1000
0000
0100
0000
1000
0000
0001
0010
,
0001
0000
0100
0000
0001
0000
1000
0010
,
1000
0000
0100
0000
1000
0000
0001
0010
,
0001
0000
0100
0000
0001
0000
1000
0010
,
1000
0000
0100
0000
0010
0000
0001
1000
,
0100
0000
0010
0000
0001
0000
1000
0001
,
0100
0000
0010
0000
1000
0000
0001
1000
,
0100
0000
0010
0000
0001
0000
1000
0001
,
0100
0000
0010
0000
1000
0000
0100
1000
,
0010
0000
0100
0000
0001
0000
0010
0001
,
0100
0000
0010
0000
1000
0000
0100
1000
,
0010
0100
0001
0010
,
0100
1000
0001
0000
0100
0000
0100
0000
,
0010
0010
1000
1000
,
0001
1000
0010
0000
0100
0000
0100
0000
,
0001
0001
0010
0010
,
0100
1000
0010
0000
0100
0000
0100
0000
,
0001
0001
1000
1000
,
0010
1000
0100
0000
0010
0000
0010
0000
,
0001
0001
0100
0100
,
0001
0010
0100
0000
1000
0000
0001
0000
,
1000
0010
0100
0000
0001
0000
1000
0000
,
0001
0010
0100
0000
1000
0000
0001
0000
,
1000
0010
0100
0000
0001
0000
1000
0000
,
0200
0000
0000
0000
0000
2300
0000
0000
3002
0000
0000
0000
0000
0000
0003
0000
,
0200
0000
0000
0300
0020
0000
0000
0030
,
2000
0000
0000
0000
0000
3020
0000
0000
0230
0000
0000
0000
0000
0000
0300
0000
,
0002
0000
2003
0000
,
3020
0000
0000
0000
0000
0230
0000
0000
0302
0000
0000
0000
0000
0000
0003
0000
,
0020
0000
0000
0030
0200
0000
0000
0300
,
2000
0000
0000
0000
0000
3002
0000
0000
0203
0000
0000
0000
0000
0000
0000
0000
,
2300
0000
3100
0001
,
1000
0000
0001
0010
0100
0000
1000
0000
,
0010
1000
0100
0000
1000
0000
0001
0000
,
1000
0000
0010
1000
0001
0000
0010
0000
,
0100
1000
0100
0000
0010
0000
0001
0000
,
1000
0000
0001
0100
0010
0000
1000
0000
,
0001
1000
0010
0000
0100
0000
0001
0000
,
0010
0000
0100
1000
0010
0000
1000
0000
,
0001
1000
0100
0000
0010
0000
0001
0000
,
0100
0101
1000
0101
,
1000
0101
0010
1000
,
0001
1100
0001
1100
,
0001
1000
0100
0000
0020
0000
0000
0000
,
0031
1000
0200
0000
,
1300
0001
0200
0000
,
0310
1000
0200
0000
,
0310
0001
0100
0100
,
0100
0100
0100
0100
,
0100
0100
0100
0000
;

//---------------dance-single - [Ness]----------------
#NOTES:
     dance-single:
     [Ness]:
     Easy:
     3:
     0.195,0.248,0.026,0.232,0.000:
0000
0000
0000
0000
,
0000
0000
0000
0000
,
0000
0000
0000
0000
,
1000
0000
0010
1000
,
0001
0000
0010
0001
,
1000
0000
0100
1000
,
0001
0000
0100
0001
,
1000
0000
0010
1000
,
0010
0000
0100
0001
,
0100
0000
0001
0010
,
0001
0000
1000
0100
,
1000
2000
3010
1000
,
0100
0200
0310
0001
,
0100
0200
0310
1000
,
0001
0002
0013
0100
,
1000
0000
1000
0000
,
0001
0000
0001
0000
,
1000
0000
1000
0000
,
0001
0000
0001
0000
,
0100
0000
0100
0000
,
0010
0000
0010
0000
,
1000
0000
1000
0000
,
0001
0000
0001
0000
,
0020
0000
0130
1000
,
0002
0000
0103
0001
,
2000
0000
3010
1000
,
0002
0000
0013
0001
,
2000
3000
0200
0300
,
0020
0030
0002
0003
,
0200
0300
0020
0030
,
2000
3000
0002
0003
,
0020
0030
0200
0300
,
2000
3000
0002
0003
,
0200
0300
0020
0030
,
2000
3000
0110
0000
,
0100
0000
0010
0000
,
0001
0100
0010
0000
,
1000
0000
0100
0000
,
1000
0001
1001
0000
,
0010
0000
1000
0000
,
0100
0010
0001
0000
,
1000
0000
0001
0000
,
0010
0100
1001
0000
,
1000
0000
0010
1000
,
0010
1000
0001
0000
,
0100
0000
0001
0100
,
0001
0100
0020
0000
,
0000
0000
2030
0000
,
0000
3100
0000
0000
0020
0000
0000
0000
,
0000
0030
0002
0000
,
0000
0003
1000
1000
,
1000
1000
1000
1000
,
1000
1000
1000
0000
;

//---------------dance-single - [Ness]----------------
#NOTES:
     dance-single:
     [Ness]:
     Beginner:
     1:
     0.075,0.158,0.000,0.000,0.000:
0000
0000
0000
0000
,
0000
0000
0000
0000
,
0000
0000
0000
0000
,
1000
0000
0000
0000
,
1000
0000
0000
0000
,
0100
0000
0000
0000
,
0010
0000
0000
0000
,
0001
0000
0000
0000
,
0001
0000
0000
0000
,
0100
0000
0000
0000
,
0010
0000
0000
0000
,
1000
0000
0000
0000
,
0001
0000
0000
0000
,
0010
0000
0000
0000
,
0100
0000
0000
0000
,
1000
0000
0000
0000
,
0000
0000
0000
0000
,
0010
0000
0000
0000
,
0000
0000
0000
0000
,
0100
0000
0000
0000
,
0000
0000
0000
0000
,
0001
0000
0000
0000
,
0000
0000
0000
0000
,
1000
0000
0100
0000
,
1000
0000
0000
0000
,
0001
0000
0100
0000
,
0001
0000
0000
0000
,
1000
0000
0001
0000
,
0100
0000
0100
0000
,
0000
0000
0100
0000
,
0001
0000
1000
0000
,
0000
0000
1000
0000
,
0100
0000
0010
0000
,
0000
0000
0001
0000
,
1000
0000
0100
0000
,
0000
0000
0100
0000
,
0000
0000
1000
0000
,
0000
0000
0001
0000
,
0000
0000
1000
0000
,
0000
0000
1000
0000
,
0000
0000
0010
0000
,
0000
0000
0100
0000
,
0000
0000
0001
0000
,
0010
0000
0010
0000
,
0000
0000
1000
0000
,
0100
0000
0100
0000
,
0000
0000
0001
0000
,
0000
0000
1000
0000
,
0000
0000
0010
0000
,
0000
0000
0100
0000
,
0000
0000
0001
0001
,
0001
0001
0001
0001
,
0001
0001
0001
0000
;

//---------------dance-double - [Ness]----------------
#NOTES:
     dance-double:
     [Ness]:
     Hard:
     9:
     0.473,0.541,0.086,0.155,0.176:
00000000
00000000
00000000
00000000
,
00000000
00000000
00000000
00000000
,
00000000
00000000
00000000
00000000
,
00000100
00010000
00001000
01000000
00010000
10000000
01000000
10000000
,
00010000
01000000
00001000
00010000
00000100
00001000
00000001
00000100
,
00000001
00001000
00000100
00010000
00001000
01000000
00010000
10000000
,
01000000
00000000
10000000
00000000
00010000
00000000
01000000
00000000
00001000
00000000
00010000
00000000
00000100
00001000
00000000
00000001
,
00001000
00000010
00010000
00001000
00100000
00010000
10000000
00100000
,
10000000
00010000
00100000
00001000
00010000
00000010
00001000
00000001
,
00000010
00000001
00001000
00000010
00010000
00001000
00100000
00010000
,
10000000
00100000
10000000
00010000
00100000
00001000
00010000
00000010
,
00001000
00000100
00000001
00000100
00001000
00000100
00000001
00000100
,
00001000
00010000
01000000
00010000
00001000
00010000
01000000
10000000
,
01000000
00100000
00010000
00100000
01000000
00100000
00010000
00001000
,
00000010
00001000
00010000
00001000
00000010
00001000
00010000
00001000
,
00000010
00000100
00010000
00000000
00001000
00000000
00011000
00000000
,
00001000
01000000
00010000
00000000
00010000
00000000
01010000
00000000
,
01000000
00100000
10000000
00000000
01000000
00000000
11000000
00000000
,
01000000
00100000
00001000
00000000
00001000
00000000
00011000
00000000
,
00010000
00000010
00000100
00000000
00000001
00000000
00000101
00000000
,
00000100
00000001
00001000
00000000
00001000
00000000
00001100
00000000
,
00000100
00010000
00001000
00000000
00100000
00000000
00101000
00000000
,
00100000
00010000
10000000
00000000
10000000
00000000
10010000
00000000
,
10000000
00000000
00100000
00000000
10000000
00000000
01000000
10000000
01000000
00000000
00100000
00000000
00001000
00000000
00010000
00000000
,
00000010
00000000
00001000
00000000
00000001
00000000
00000010
00000001
00000010
00000000
00000001
00000000
00000100
00000000
00000001
00000000
,
00001000
00000000
00000100
00000000
00010000
00000000
00001000
00000000
01000000
00000000
00010000
01000000
00010000
00000000
10000000
00000000
,
10100000
00000000
01000000
00000000
00010000
00000000
00100000
00000000
00001000
00000000
00010000
00001000
00010000
00000000
01000000
00000000
,
20000000
00000000
00000000
00000000
00000000
30200000
00000000
00000000
02300000
00000000
00000000
00000000
00000000
00000000
00000000
00000000
,
03002000
00000000
00023000
00000000
,
00030200
00000000
00000000
00000000
00000000
00000320
00000000
00000000
00000032
00000000
00000000
00000000
00000000
00000000
00000000
00000000
,
00000203
00000000
00000000
00000000
00000000
00000000
00000000
00000000
00000000
00000000
00000000
00000000
00000000
00000000
00000000
00000000
00000310
00000000
00001000
00000000
00000000
00000100
00000000
00000000
00001000
00000000
00000000
00000010
00000100
00000000
00000000
00000000
,
00000001
00000000
00000010
00000000
00000000
00000100
00000000
00000000
00010000
00000000
00000000
00001000
00010000
00000000
00000000
00000000
00001000
00000000
00000000
00000000
00000000
00000000
00100000
00000000
00010000
00000000
00000000
01000000
00010000
00000000
00000000
00000000
,
10000000
00000000
00000000
00000000
00000000
00000000
01000000
00000000
10000000
00000000
00000000
00100000
10000000
00000000
00000000
00000000
01000000
00000000
00100000
00000000
00000000
00001000
00000000
00000000
00010000
00000000
00000000
00000100
00010000
00000000
00000000
00000000
,
00001000
00000000
01000000
00000000
00000000
00010000
00000000
00000000
10000000
00000000
00000000
00100000
10000000
00000000
00000000
00000000
01000000
00000000
00000000
00000000
00000000
00000000
00100000
00000000
00001000
00000000
00000000
00010000
00001000
00000000
00000000
00000000
,
00022000
00000000
00000000
00000000
00000000
00000000
00000000
00000000
00000000
00000000
00000000
00000000
00000000
00000000
00000000
00000000
00000000
00000000
00000000
00000000
00000000
00000000
00000000
00000000
00000000
00000000
00000000
00000000
00000000
00000000
00000000
00000000
00000000
00000000
00000000
00000000
00000000
00000000
00000000
00000000
00000000
00000000
00000000
00000000
00000000
00000000
00000000
00000000
00000000
00000000
00000000
00000000
00000000
00000000
00000000
00000000
00000000
00000000
00000000
00000000
00000000
00000000
00000000
00000000
00000000
00000000
00000000
00000000
00000000
00000000
00000000
00000000
00033000
00000000
00000000
00000000
00000000
00000000
00000000
00000000
00000000
00000000
00000000
00000000
00000000
00000000
00000000
00000000
00000000
00000000
00000010
00000000
00000000
00000000
00000000
00000000
00001000
00000000
00000000
00000000
00000000
00000000
00000000
00000000
00000000
00000000
00000000
00000000
00000000
00000000
00000000
00000000
00000000
00000000
00000000
00000000
00000000
00000000
00000000
00000000
00000100
00000000
00000000
00000000
00000000
00000000
00000000
00000000
00000000
00000000
00000000
00000000
00000000
00000000
00000000
00000000
00000000
00000000
00000000
00000000
00000000
00000000
00000000
00000000
00001000
00000000
00000000
00000000
00000000
00000000
00000000
00000000
00000000
00000000
00000000
00000000
00000000
00000000
00000000
00000000
00000000
00000000
00000000
00000000
00000000
00000000
00000000
00000000
00000001
00000000
00000000
00000000
00000000
00000000
00000000
00000000
00000000
00000000
00000000
00000000
00000000
00000000
00000000
00000000
00001000
00000000
00000000
00000000
00000000
00000000
00000000
00000000
,
00000010
00000000
00000000
00000100
00000000
00000000
00000001
00000000
00000000
00001000
00000000
00000000
00000100
00000000
00000000
00010000
00000000
00000000
00001000
00000000
00000000
01000000
00000000
00010000
,
01000000
00000000
00000000
00100000
00000000
00000000
10000000
00000000
00000000
01000000
00000000
00000000
00100000
00000000
00000000
00001000
00000000
00000000
00010000
00000000
00000000
00000010
00000000
00001000
,
00000010
00000000
00000000
00000100
00000000
00000000
00000001
00000000
00000000
00000010
00000000
00000000
00000100
00000000
00000000
00010000
00000000
00000000
00001000
00000000
00000000
01000000
00000000
00010000
,
01000000
00000000
00000000
00100000
00000000
00000000
10000000
00000000
00000000
01000000
00000000
00000000
00100000
00000000
00000000
00001000
00000000
00000000
00010000
00000000
00000000
00000100
00000000
00001000
,
00000100
00000000
00000000
00000000
00000000
00000000
00000000
00000000
00000000
00001000
00000000
00000000
00000001
00000000
00000000
00000000
00000000
00000000
00000010
00000000
00000000
00000000
00000000
00000000
00000100
00000000
00000000
00000000
00000000
00000000
00010000
00000000
00000000
00000000
00000000
00000000
00001000
00000000
00000000
00000000
00000000
00000000
01000000
00000000
00000000
00000000
00100000
00000000
,
01000000
00000000
00000000
00000000
00000000
00000000
00000000
00000000
00000000
00100000
00000000
00000000
10000000
00000000
00000000
00000000
00000000
00000000
01000000
00000000
00000000
00000000
00000000
00000000
00100000
00000000
00000000
00000000
00000000
00000000
00001000
00000000
00000000
00000000
00000000
00000000
00010000
00000000
00000000
00000000
00000000
00000000
00000100
00000000
00000000
00000000
00001000
00000000
,
00000100
00000000
00000000
00000000
00000000
00000000
00000000
00000000
00000000
00000010
00000000
00000000
00000001
00000000
00000000
00000000
00000000
00000000
00000100
00000000
00000000
00000000
00000000
00000000
00000010
00000000
00000000
00000000
00000000
00000000
00010000
00000000
00000000
00000000
00000000
00000000
00001000
00000000
00000000
00000000
00000000
00000000
01000000
00000000
00000000
00000000
00010000
00000000
,
01000000
00000000
00100000
00000000
10000000
00010000
10000000
00010000
02000000
00000000
00000000
00000000
10000000
00000000
00000000
00000000
,
00100000
00000000
03010000
00000000
10000000
00100000
00010000
10000000
,
01000000
00001000
00010000
00000100
00000020
00000000
00000001
00000000
,
00000100
00000000
00001030
00000000
00000001
00000100
00001000
00000001
,
00000010
00000000
00010000
00000000
00001000
00000000
00100000
01000000
00200000
00000000
00000000
00000000
00000000
00000000
00310000
00000000
,
01000000
00000000
10000000
00000000
02000000
00000000
00000000
03010000
,
00100000
00002000
00000000
00013000
00000200
00000000
00000000
00001300
,
00000010
00000000
00000100
00000000
00000002
00000000
00000000
00000013
,
00000001
00000000
00000100
00001000
00010000
00100000
00001000
00000010
,
00010000
00100000
00001000
00000010
00010000
01000000
00001000
00000100
,
00010000
01000000
00001000
00000100
00000001
00000000
00000000
00000000
;

//---------------dance-double - [Ness]----------------
#NOTES:
     dance-double:
     [Ness]:
     Medium:
     6:
     0.311,0.293,0.060,0.189,0.017:
00000000
00000000
00000000
00000000
,
00000000
00000000
00000000
00000000
,
00000000
00000000
00000000
00000000
,
10000000
00000000
00100000
10000000
00010000
00000000
00100000
00000000
,
00001000
00000000
00010000
00000100
00010000
00000000
00000010
00000000
,
00001000
00000000
00000100
00001000
00000100
00000000
00000010
00000000
,
00000001
00000000
00000100
00000001
00000100
00000000
00000010
00000000
,
00010000
00000000
00001000
00010000
00001000
00000000
01000000
00000000
,
00100000
00000000
10000000
01000000
10000000
00000000
00100000
00000000
,
01000000
00000000
00010000
10000000
00010000
00000000
00100000
00000000
,
00001000
00000000
00010000
00001000
00010000
00000000
00000100
00000000
,
00000010
00000000
00000001
00000010
00000001
00000000
00000100
00000000
,
00000010
00000000
00001000
00000010
00001000
00000000
00000100
00000000
,
00010000
00000000
00001000
01000000
00001000
00000000
01000000
00000000
,
00010000
00000000
10000000
00000000
01000000
00000000
00010000
01000000
,
10000000
00010000
10000000
00000000
00100000
00000000
00100000
00000000
,
00001000
00010000
00001000
00000000
00000100
00000000
00000100
00000000
,
00000001
00001000
00000001
00000000
00000010
00000000
00000010
00000000
,
00010000
00001000
00010000
00000000
01000000
00000000
01000000
00000000
,
10000000
00010000
10000000
00000000
01000000
00000000
01000000
00000000
,
00001000
00010000
00001000
00000000
00000100
00000000
00000100
00000000
,
00000001
00001000
00000001
00000000
00000100
00000000
00000100
00000000
,
00010000
00001000
00010000
00000000
01000000
00000000
01000000
00000000
,
10000000
01000000
00100000
00000000
00001000
00000000
00010000
00000000
,
00000010
00001000
00000001
00000000
00000010
00000000
00000100
00000000
,
00010000
00001000
01000000
00000000
00010000
00000000
10000000
00000000
,
01000000
10000000
00010000
00000000
00100000
00000000
00001000
00000000
,
00020000
00000000
00000000
00000000
00030000
00100000
00000000
00000000
02000000
00000000
00000000
00000000
00000000
00000000
00000000
00000000
,
23000000
00000000
30200000
00000000
,
02300000
00000000
00000000
00000000
00000000
03002000
00000000
00000000
00023000
00000000
00000000
00000000
00000000
00000000
00000000
00000000
,
00030200
00000000
00000320
00000000
,
00000032
00000000
00000000
00000000
00000000
00000203
00000000
00000000
00000320
00000000
00000000
00000000
00000000
00000000
00000000
00000000
,
00020030
00000000
00032000
00000000
,
02003000
00000000
00000000
00000000
00000000
03200000
00000000
00000000
20300000
00000000
00000000
00000000
00000000
00000000
00000000
00000000
,
32000000
00000000
00000000
00000000
13000000
01000000
10000000
01000000
,
00010000
00000000
01000000
00000000
00100000
00001000
00100000
00001000
,
00010000
00000000
00000010
00000000
00001000
00000100
00001000
00000100
,
00000001
00000000
00000100
00000000
00000010
00000001
00000010
00000001
,
00001000
00000000
00000100
00000000
00010000
00001000
00010000
00001000
,
01000000
00000000
10000000
00000000
01000000
00010000
01000000
00010000
,
10000000
00000000
00100000
00000000
10000000
00100000
10000000
00100000
,
00010000
00000000
00100000
00000000
01000000
00001000
01000000
00001000
,
00010000
00000100
00001000
00000010
,
00000100
00000110
00001000
00000110
,
00000001
00000110
00000010
00010000
,
00001000
00011000
01000000
00011000
,
00000100
00011000
02000000
00000000
,
03010000
10000000
00200000
00000000
,
01300000
00001000
00020000
00000000
,
00030100
00001000
00000020
00000000
,
00000130
00000001
00000010
00000010
,
00000010
00000010
00000010
00000010
,
00000010
00000010
00011000
00000000
;

//---------------dance-double - [Ness]----------------
#NOTES:
     dance-double:
     [Ness]:
     Easy:
     3:
     0.185,0.203,0.000,0.198,0.000:
00000000
00000000
00000000
00000000
,
00000000
00000000
00000000
00000000
,
00000000
00000000
00000000
00000000
,
00001000
00000000
01000000
00100000
,
01000000
00000000
00010000
10000000
,
00010000
00000000
00100000
00001000
,
00100000
00000000
00001000
00010000
,
00001000
00000000
00010000
00000010
,
00001000
00000000
00000001
00001000
,
00000001
00000000
00000100
00000001
,
00000100
00000000
00000010
00001000
,
00000100
00000000
00010000
00001000
,
01000000
00000000
00010000
10000000
,
00100000
00000000
10000000
01000000
,
00100000
00000000
00001000
00010000
,
00001000
00000000
00001000
00000000
,
01000000
00000000
01000000
00000000
,
00100000
00000000
10000000
00000000
,
01000000
00000000
00100000
00000000
,
00001000
00000000
00010000
00000000
,
00000100
00000000
00000100
00000000
,
00001000
00000000
00000010
00000000
,
00000100
00000000
00000001
00000000
,
00000020
00000000
00000130
00010000
,
00002000
00000000
01003000
00010000
,
20000000
00000000
31000000
00100000
,
00002000
00000000
00013000
00000010
,
00000200
00000000
00000302
00000000
,
00000023
00000000
00000230
00000000
,
00020300
00000000
00032000
00000000
,
02003000
00000000
03020000
00000000
,
20030000
00000000
30200000
00000000
,
02300000
00000000
03020000
00000000
,
00230000
00000000
00302000
00000000
,
00023000
00000000
00030010
00000100
,
00000001
00000000
00000010
00000100
,
00010000
00000000
00001000
01000000
,
00010000
00000000
10000000
00100000
,
01000000
00000000
00010000
00100000
,
00001000
00000000
00010000
00000010
,
00001000
00000000
00000100
00010000
,
00001000
00000000
01000000
00010000
,
10000000
00000000
02000000
00000000
,
13000000
00000000
00020000
00000000
,
00130000
00000000
00002000
00000000
,
01003000
00000000
00020000
00000000
,
10030000
00000000
00010000
00000000
,
00100000
00000000
00001000
00000000
,
00010000
00000000
00000010
00000000
,
00000100
00000000
00000001
00000000
,
00000010
00000000
00000100
00000100
,
00000100
00000100
00000100
00000100
,
00000100
00000100
00000100
00000000
;
