#TITLE:A Love We Never Knew;
#SUBTITLE:;
#ARTIST:Julianne & Edison;
#TITLETRANSLIT:;
#SUBTITLETRANSLIT:;
#ARTISTTRANSLIT:;
#GENRE:;
#CREDIT:;
#BANNER:A Love We never Knew-bn.png;
#BACKGROUND:A Love We never Knew-bg.png;
#LYRICSPATH:;
#CDTITLE:ddrencorecdtitle.png;
#MUSIC:A Love We Never Knew.mp3;
#OFFSET:-0.591;
#SAMPLESTART:37.540;
#SAMPLELENGTH:12.000;
#SELECTABLE:YES;
#BPMS:0.000=136.920
;
#STOPS:;
#BGCHANGES:;
#KEYSOUNDS:;
#ATTACKS:;

//---------------dance-single - ----------------
#NOTES:
     dance-single:
     :
     Easy:
     3:
     0.276,0.294,0.094,0.262,0.000,150.000,9.000,25.000,0.000,0.000,0.000,0.276,0.294,0.094,0.262,0.000,150.000,9.000,25.000,0.000,0.000,0.000:
0000
0000
0000
0000
,
0000
0000
0000
0000
,
2000
0000
0000
3000
,
0002
0000
0000
0003
,
0100
0000
0100
1100
,
1000
0000
0001
0101
,
0100
0000
0010
1010
,
1000
0000
0000
0001
,
2000
0100
3100
0000
,
0002
0100
0103
0000
,
1100
0000
1001
0000
,
0101
0000
1000
0001
,
1000
0010
1000
0010
,
0100
0001
0100
0001
,
0010
0001
0010
0001
,
0010
0100
0010
0100
,
1000
0100
1000
0100
,
1000
0001
1000
0001
,
0020
0130
0200
0310
,
0001
1000
0100
0010
,
1001
1001
1001
0000
,
0100
0001
0000
0010
,
1000
0100
0000
1000
,
0100
0001
0000
1000
,
0020
0000
0230
0000
,
0301
0100
0000
1000
,
0100
0001
0000
0001
,
0010
0100
0000
0010
,
0002
0000
2003
0000
,
3001
0010
0000
1000
,
0010
0100
0000
0100
,
0001
0010
0000
0001
,
0200
0000
2300
0000
,
3001
0100
0000
0010
,
1000
0100
0000
1000
,
0100
0100
0100
0100
,
0020
0000
0000
0030
,
0000
1000
0001
0100
,
0010
0100
0001
1000
,
0200
0000
0320
0000
,
0031
0001
1000
1000
,
0100
0010
0001
0100
,
1000
0100
0001
0100
,
0020
0000
0230
0000
,
0300
1000
1000
0100
,
0010
0100
0000
0001
,
0100
0001
0000
1000
,
0010
0100
0000
0100
,
0010
0100
0000
0001
,
2000
3200
0320
0230
,
2300
3002
0203
0320
,
0130
0000
0000
0000
;

//---------------dance-single - ----------------
#NOTES:
     dance-single:
     :
     Hard:
     7:
     0.390,0.428,0.231,0.021,0.094,236.000,22.000,2.000,0.000,0.000,0.000,0.390,0.428,0.231,0.021,0.094,236.000,22.000,2.000,0.000,0.000,0.000:
0000
0000
0000
0000
,
0000
0000
0000
0000
,
0000
0000
0000
0000
,
0000
0000
0000
0000
,
1000
0000
0000
1000
0000
0000
1000
0000
0000
0000
0100
0000
0010
0000
0001
0000
,
0100
0000
0000
0100
0000
0000
0100
0000
0000
0000
0001
0000
1000
0000
0100
0000
,
0010
0000
0000
0010
0000
0000
0010
0000
0000
0000
0100
0000
1000
0000
1000
0000
,
0001
0000
0000
0001
0000
0000
0001
0000
0000
0000
0100
0000
0010
0000
0100
0000
,
0010
0000
0000
0010
0000
0000
0010
0000
0000
0000
1000
0000
0100
0000
1000
0000
,
0100
0000
0000
0100
0000
0000
0100
0000
0000
0000
1000
0000
0001
0000
1000
0000
,
0001
0000
0000
0001
0000
0000
0001
0000
1000
0000
0000
1000
0000
0000
1000
0000
,
0010
0000
0000
0010
0000
0000
0010
0000
0100
0000
0000
0000
0100
0000
0000
0000
,
0000
1000
0100
0001
0000
1000
0100
0010
,
0000
1000
0100
1000
0000
1000
0100
0001
,
0000
0100
0010
0001
0000
0100
0010
1000
,
0000
0010
0001
0100
0000
0001
0100
1000
,
0100
0100
0010
0010
,
1000
1000
0200
0300
,
0001
0100
0001
0000
1000
0000
0100
0000
,
1001
0000
0000
0000
1100
0000
0000
0000
1001
0000
0000
0001
0000
0000
0100
0000
,
0020
0000
0000
0030
,
1000
1010
0000
0100
,
0001
0101
0000
0100
,
1001
0000
0100
0000
0000
0000
1000
0001
,
0000
1000
0010
0100
0001
0100
0010
0000
,
0001
0101
0000
0010
,
0110
1000
0000
0100
,
0011
0000
1000
0000
0000
0000
0010
0100
,
0000
0100
0001
1000
0100
0010
0000
0001
,
0100
0000
0000
0100
0000
0000
0100
0000
0000
0000
0010
0000
1000
0000
0000
0000
,
0001
0000
0000
0001
0000
0000
0001
0000
0000
0000
0010
0000
0100
0000
0000
0000
,
1000
0000
0000
1000
0000
0000
1000
0000
0000
0000
0001
0000
0010
0000
0000
0000
,
0100
0000
0000
0100
0000
0000
0100
0000
0000
0000
1000
0000
0001
0000
0000
0000
,
0100
0000
0000
0100
0000
0000
0100
0000
0001
0000
0000
0001
0000
0000
0001
0000
,
1000
0000
0000
1000
0000
0000
1000
0000
0010
0000
0000
0010
0000
0000
0010
0000
,
0100
0100
0100
0010
,
1001
1001
0110
0110
,
1000
1000
0000
0100
,
0001
0010
0000
0001
,
1100
0000
0100
0000
0000
0000
1000
0010
,
0000
0100
0010
1000
0001
0100
0001
0000
,
0110
0101
0000
0010
,
1100
0101
0000
0010
,
0011
0000
1100
0000
0000
0000
0100
0010
,
0000
0001
0010
0100
1000
0001
1000
0000
,
1000
0100
1000
0100
1000
0001
1000
0001
,
0100
0010
0100
0010
0100
0001
0100
0001
,
0010
0100
0010
0100
1000
0100
1000
0100
,
1000
0001
1000
0001
1000
0000
0110
0000
,
1000
0100
0010
0000
0001
0100
0010
0000
,
1000
0100
0010
0000
0001
0100
0010
0000
,
0110
0000
0000
0000
;

//---------------dance-single - ----------------
#NOTES:
     dance-single:
     :
     Beginner:
     1:
     0.135,0.107,0.021,0.000,0.000,88.000,2.000,0.000,0.000,0.000,0.000,0.135,0.107,0.021,0.000,0.000,88.000,2.000,0.000,0.000,0.000,0.000:
0000
0000
0000
0000
,
0000
0000
0000
0000
,
0000
0000
0000
0000
,
0000
0000
0000
0000
,
1000
0000
0000
0001
,
0001
0000
0000
0010
,
0010
0000
0000
0100
,
0100
0000
1000
0000
,
1000
0000
0001
0000
,
0001
0000
0010
0000
,
0100
0000
0100
0000
,
1001
0000
0000
0000
,
1000
0000
0000
0010
,
0010
0000
0000
0100
,
0100
0000
0000
0001
,
0001
0000
0000
1000
,
1000
0000
0010
0000
,
0100
0000
0001
0000
,
1000
0000
0100
0000
,
0010
0000
0100
0000
,
1001
0000
0000
0000
,
1000
1000
0000
0000
,
0001
0001
0000
0000
,
0010
0010
0000
0000
,
0100
0000
0100
0000
,
0001
0001
0000
0000
,
1000
1000
0000
0000
,
0010
0010
0000
0000
,
1000
0000
0100
0000
,
0001
0001
0000
0000
,
1000
1000
0000
0000
,
0010
0000
0100
0000
,
0010
0000
0000
0000
,
1000
0000
1000
0000
,
0100
0000
0100
0000
,
1000
0000
1000
0000
,
0001
0000
0001
0000
,
0100
0100
0000
0000
,
0001
0001
0000
0000
,
1000
1000
0000
0000
,
0010
0000
0100
0000
,
0001
0001
0000
0000
,
1000
1000
0000
0000
,
0100
0100
0000
0000
,
0010
0000
0001
0000
,
0010
0000
0000
0000
,
0100
0000
0000
0000
,
1000
0000
0000
0000
,
0001
0000
0000
0000
,
1000
1000
0000
0000
,
0001
0001
0000
0000
,
1000
0000
0000
0000
;

//---------------dance-single - ----------------
#NOTES:
     dance-single:
     :
     Medium:
     6:
     0.382,0.428,0.220,0.357,0.000,200.000,21.000,34.000,0.000,0.000,0.000,0.382,0.428,0.220,0.357,0.000,200.000,21.000,34.000,0.000,0.000,0.000:
0000
0000
0000
0000
,
0000
0000
0000
0000
,
0000
0000
0000
0000
,
0000
0000
0000
0000
,
1000
0100
0000
1001
,
0001
0100
0000
0010
,
1100
0100
0000
0100
,
0101
0010
0000
1000
,
0001
0100
0001
0000
0000
0000
0010
0000
,
1000
0100
1000
0000
0000
0000
0100
0000
,
1010
0000
0101
0000
0001
0100
0010
0000
,
1000
0100
0001
0100
,
1000
0010
0100
0000
0001
0000
1000
0000
,
0100
1000
0001
0100
,
0001
1000
0100
0000
0010
0000
0100
0000
,
1000
0001
0100
0001
,
1001
0100
1000
0100
,
1001
0100
0001
0100
,
0010
1000
0100
1000
,
0010
1000
0010
0000
0001
0100
0001
0000
,
2002
0000
0000
3003
,
0000
2000
3020
0230
,
0302
0203
0320
2030
,
3001
0100
0001
0000
0010
0000
1000
0100
,
0000
1000
0010
0100
0001
0100
0001
0000
,
0020
0230
2300
3002
,
0203
0320
2030
3001
,
0100
0010
0100
0000
0001
0000
1000
0001
,
0000
0100
0010
1000
0001
0100
0010
0000
,
1000
1100
0010
0100
,
0001
0101
0010
1000
,
0002
0100
2000
3003
,
0020
0100
0200
0330
,
1000
0000
0000
0000
0001
0100
0001
0000
,
0010
0000
0000
0000
0100
1000
0100
0000
,
0010
0001
0100
1000
,
1001
0110
1001
0110
,
1000
2100
3020
0230
,
0301
0102
0023
0230
,
1300
0000
1010
0000
0100
0000
0001
0010
,
0000
0100
1000
0001
0100
0001
1000
0000
,
0100
2100
3002
0203
,
0310
2010
3200
0320
,
0031
0000
0100
0000
0110
0000
0010
1000
,
0000
0001
0100
0010
1000
0001
1000
0000
,
0010
0000
0100
0000
0001
0000
1000
0100
,
0010
0000
0001
0000
0100
0000
0010
1000
,
0100
0000
0010
0000
0001
0000
1000
0100
,
0010
0000
0001
0000
0100
0010
1000
0000
,
0200
0000
1300
0010
,
0200
0000
0301
0010
,
1001
0000
0000
0000
;

//---------------dance-double - ----------------
#NOTES:
     dance-double:
     :
     Easy:
     3:
     0.198,0.187,0.042,0.042,0.000,124.000,4.000,4.000,0.000,0.000,0.000,0.198,0.187,0.042,0.042,0.000,124.000,4.000,4.000,0.000,0.000,0.000:
00000000
00000000
00000000
00000000
,
00000000
00000000
00000000
00000000
,
00000000
00000000
00000000
00000000
,
00000000
00000000
00000000
00000000
,
00000001
00000000
00001000
00000100
,
00002000
00000000
00000000
00003010
,
00000100
00000000
00000010
00001000
,
00000100
00000000
00010000
00000000
,
00001000
01000000
00010000
00000000
,
10000000
01000000
10000000
00000000
,
00100000
00000000
01000000
00000000
,
10020000
00000000
01030000
00000000
,
00010000
00100000
00000000
00001000
,
00010000
00000100
00000000
00001000
,
00000010
00000100
00000000
00000001
,
00001000
00000100
00000000
00001000
,
00000010
00000000
00000100
00000000
,
00000001
00000000
00001000
00000000
,
00000100
00010000
00001000
00010000
,
00000200
00000000
00000300
00010000
,
00002000
00000000
00003000
00011000
,
00001000
01000000
00010000
00000000
,
10000000
01000000
10000000
00000000
,
00010000
01000000
00010000
00000000
,
00100000
00000000
01000000
00000000
,
00001000
00000000
00010000
00001000
,
00010000
00000000
00000100
00001000
,
00000100
00000000
00001000
00000001
,
00001000
00000000
00000010
00000000
,
00000100
00000100
00000001
00000000
,
00001000
00000000
00000100
00000000
,
00010000
00001000
00010000
00000000
,
00001000
00000000
01000000
00000000
,
00010000
10000000
01000000
00000000
,
10000000
00000000
00100000
00000000
,
01000000
01000000
00010000
00010000
,
10000000
00000000
01100000
00000000
,
01000000
00001000
00000000
00010000
,
00001000
00010000
00000000
00000100
,
00001000
00000010
00000000
00000100
,
00000001
00000000
00001000
00000000
,
00000100
00000010
00000000
00000001
,
00000100
00000001
00000000
00001000
,
00000100
00010000
00000000
00001000
,
00010000
00000000
00011000
00000000
,
01000000
00000000
00100000
10000000
,
01000000
00000000
10000000
00000000
,
00010000
00000000
01000000
00001000
,
00010000
00000000
00000100
00000000
,
00001000
00000000
00000010
00000000
,
00001000
00000000
00000100
00000000
,
00010000
00000000
00000000
00000000
;

//---------------dance-double - ----------------
#NOTES:
     dance-double:
     :
     Medium:
     5:
     0.286,0.267,0.052,0.042,0.021,182.000,5.000,4.000,0.000,0.000,0.000,0.286,0.267,0.052,0.042,0.021,182.000,5.000,4.000,0.000,0.000,0.000:
00000000
00000000
00000000
00000000
,
00000000
00000000
00000000
00000000
,
00000000
00000000
00000000
00000000
,
00000000
00000000
00000000
00000000
,
10000000
00000000
00010000
01000000
,
00100000
00000000
00000000
01000000
,
00001000
00000000
00010000
00000100
,
00001000
00000000
00000010
00000000
,
00000100
00000001
00001000
00000000
,
00000100
00000010
00000001
00000000
,
00002000
00003100
00002000
00003010
,
00010000
00001000
00011000
00000000
,
00001000
01000000
00000000
00100000
00000000
10000000
00000000
01000000
,
00000000
10000000
00000000
00100000
00000000
01000000
00010000
00000000
,
00100000
00001000
00000000
00010000
00000000
00000100
00000000
00001000
,
00000000
00000010
00000000
00000100
00000000
00000001
00001000
00000000
,
00000100
00000000
00000010
00000000
00000001
00001000
00000001
00000000
,
00001000
00000000
00000100
00000000
00010000
00001000
00010000
00000000
,
00001000
01000000
00100000
10000000
,
02000000
00000000
20000000
33000000
,
00100000
01000000
00010000
00000000
,
00100000
00010000
01000000
00010000
,
00100000
00001000
00010000
00000100
,
00001000
00000000
00000010
00000000
00000100
00000000
00000001
00001000
,
00000000
00001000
00000100
00000000
00000010
00000001
00000100
00000000
,
00000001
00001000
00000100
00010000
,
00001000
00100000
00010000
01000000
,
00100000
00000000
10000000
00000000
01000000
00000000
00100000
00010000
,
00000000
01000000
00010000
00000000
00100000
00001000
00010000
00000000
,
00000100
00001000
00000010
00000100
,
00000001
00001000
00000100
00010000
,
00001000
00010000
00000100
00001000
,
00000010
00000100
00000001
00000000
,
00001000
00000100
00010000
00001000
,
00100000
00010000
01000000
00100000
,
10010000
10010000
01000000
00100000
,
01100000
01100000
01000000
00001000
,
00010000
00000100
00000000
00001000
,
00000010
00000100
00000000
00000001
,
00001000
00000000
00000100
00000000
00000000
00000000
00000010
00000001
,
00000000
00001000
00000100
00000000
00010000
00001000
00010000
00000000
,
00001000
01000000
00000000
00100000
,
10000000
01000000
00000000
00100000
,
00010000
00000000
01000000
00000000
00000000
00000000
00100000
01000000
,
00000000
00010000
00100000
00000000
00001000
00010000
00001000
00000000
,
00010000
00000100
00000010
00000100
,
00001000
00000010
00000100
00000010
,
00010000
00001000
01000000
00100000
,
01000000
00010000
00100000
00001000
,
00010000
00000000
00000000
00010000
00000000
00000000
00000000
00000000
00001000
00000000
00000000
00001000
00000000
00000000
00000000
00000000
,
00010000
00000000
00000000
00010000
00000000
00000000
00000000
00000000
00000100
00000000
00000000
00000100
00000000
00000000
00000000
00000000
,
00001000
00000000
00000000
00000000
;

//---------------dance-double - ----------------
#NOTES:
     dance-double:
     :
     Hard:
     7:
     0.466,0.428,0.094,0.073,0.152,295.000,9.000,7.000,0.000,0.000,0.000,0.466,0.428,0.094,0.073,0.152,295.000,9.000,7.000,0.000,0.000,0.000:
00000000
00000000
00000000
00000000
,
00000000
00000000
00000000
00000000
,
00000000
00000000
00000000
00000000
,
00000000
00000000
00000000
00000000
,
00001000
00000000
00000000
00001000
00000000
00000000
00001000
00000000
00000000
00000000
00010000
00000000
01000000
00000000
00100000
00000000
,
00010000
00000000
00000000
00010000
00000000
00000000
00010000
00000000
00000000
00000000
00100000
00000000
00001000
00000000
00010000
00000000
,
00000100
00000000
00000000
00000100
00000000
00000000
00000100
00000000
00000000
00000000
00001000
00000000
00000010
00000000
00000100
00000000
,
00000001
00000000
00000000
00000001
00000000
00000000
00000001
00000000
00000000
00000000
00000100
00000000
00000010
00000000
00001000
00000000
,
00000100
00000000
00000000
00000100
00010000
00000000
00000000
00000000
00001000
00000000
01000000
00000000
00001000
00000000
00000000
00000000
,
00100000
00000000
00000000
00010000
01000000
00000000
00000000
00000000
00010000
00000000
10000000
00000000
00010000
00000000
00000000
00000000
,
01000000
00100000
10000000
00000000
01000000
00100000
00010000
00000000
,
10000000
00100000
01000000
00010000
00100000
01000000
00100000
00001000
,
00010000
00000100
00001000
00000010
00000100
00000001
00000010
00000100
,
00000010
00000001
00001000
00000100
00000010
00000100
00010000
00001000
,
00010000
00000100
00001000
00000010
00010000
00001000
01000000
00010000
,
00100000
01000000
10000000
00010000
01000000
00100000
10000000
00010000
,
01000000
00000000
00000000
01000000
00000000
00000000
01000000
00000000
00000000
00000000
00001000
00000000
00010000
00000000
00000000
00000000
,
00000100
00000000
00000000
00000100
00000000
00000000
00000100
00000000
00000000
00000000
00001000
00000000
00000010
00000000
00000000
00000000
,
00000100
00000001
00001000
00000000
00000100
00001000
00000100
00000000
,
00010000
00000000
00001000
00000000
00100000
00000000
00010000
00000000
01000000
00000000
00000000
01000000
00000000
00000000
01000000
00000000
,
00010000
00000000
00000000
00010000
00000000
00000000
00010000
00000000
10000000
00000000
00000000
10000000
00000000
00000000
10000000
00000000
,
00010000
00000000
00200000
00000000
02000000
00300000
20000000
03000000
,
00020000
30000000
01000000
00000000
00130000
00000000
01000000
00000000
,
00100000
00010000
01000000
00001000
00010000
00000100
00001000
00000000
,
00000010
00000100
00000001
00000000
00001000
00000100
00000010
00000000
,
00000001
00000000
00000020
00000000
00000200
00000030
00002000
00000300
,
00000001
00003100
00000010
00000001
,
00001000
00000100
00010000
00001000
01000000
00010000
00100000
00000000
,
00010000
10000000
01000000
00000000
00100000
01000000
10000000
00000000
,
00010000
00000000
00000000
01000000
00000000
00000000
00100000
00000000
10000000
00000000
00000000
01000000
00000000
00000000
00100000
00000000
,
00010000
00000000
00000000
01000000
00000000
00000000
00001000
00000000
00010000
00000000
00000000
00000100
00000000
00000000
00001000
00000000
,
00000010
00000000
00000000
00000100
00000000
00000000
00000010
00000000
00001000
00000000
00000000
00000100
00000000
00000000
00000010
00000000
,
00000001
00000000
00000000
00000000
00001000
00000000
00000000
00000000
00000100
00000000
00000000
00000010
00000100
00000000
00001000
00000000
,
00000001
00000000
00000000
00000100
00000000
00000000
00000010
00000000
00010000
00000000
00000000
00001000
00000000
00000000
01000000
00000000
,
00010000
00000000
00000000
00100000
00000000
00000000
01000000
00000000
10000000
00000000
00000000
00010000
00000000
00000000
01000000
00000000
,
00100000
10100000
01010000
00011000
,
00001100
00000110
00000011
00001001
,
00000100
00000010
00001000
00000100
00000010
00000001
00001000
00000100
,
00010000
00001000
00100000
00010000
01000000
00100000
01000000
00010000
,
10000000
01000000
00100000
00010000
01000000
00100000
10000000
00000000
,
00010000
00100000
01000000
00000000
10000000
01000000
00100000
00000000
,
00001000
00010000
00000100
00001000
00000010
00000100
00000001
00001000
,
00000100
00000010
00000001
00000100
00000010
00001000
00000100
00010000
,
00001000
00000100
00000010
00001000
00000100
00010000
00001000
00000000
,
01000000
00100000
10000000
00000000
01000000
00100000
00010000
00000000
,
10000000
00000000
00000000
01000000
00000000
00000000
00010000
00000000
00001000
00000000
00000000
00000010
00000000
00000000
00000001
00000000
,
00000100
00000000
00000000
00001000
00000000
00000000
00010000
00000000
00100000
00000000
00000000
10000000
00000000
00000000
01000000
00000000
,
10000000
00000000
00000000
00100000
00000000
00000000
01000000
00000000
00010000
00000000
00000000
00100000
00000000
00000000
00001000
00000000
,
00010000
00000000
00000000
00000100
00000000
00000000
00001000
00000000
00000010
00000000
00000000
00000000
00001001
00000000
00000000
00000000
,
00001000
00000010
00000100
00000001
00001000
00000100
00010000
00001000
,
01000000
00010000
00100000
01000000
10000000
00010000
01000000
00001000
,
00011000
00000000
00000000
00000000
;
