#TITLE:3Y3S;
#SUBTITLE:;
#ARTIST:Seiryu;
#TITLETRANSLIT:;
#SUBTITLETRANSLIT:;
#ARTISTTRANSLIT:;
#GENRE:;
#CREDIT:;
#MENUCOLOR:;
#BANNER:3Y3S-bn.png;
#BACKGROUND:3Y3S-bg.png;
#LYRICSPATH:;
#CDTITLE:ddrencorecdtitle.png;
#MUSIC:3Y3S.mp3;
#OFFSET:-1.316;
#SAMPLESTART:98.020;
#SAMPLELENGTH:12.000;
#SELECTABLE:YES;
#LISTSORT:;
#BPMS:0.000=95.500,20.000=47.750,21.000=191.000;
#STOPS:185.000=2.513
,269.000=2.199
;
#TICKCOUNT:0.000=2;
#BGCHANGES:;
#KEYSOUNDS:;
#ATTACKS:;

//---------------dance-single - ----------------
#NOTES:
     dance-single:
     :
     Hard:
     9:
     0.650,0.773,0.525,0.183,0.163:
0000
0000
0000
0000
,
0010
1000
0100
1000
0000
0010
1000
0100
1000
0000
0010
0000
0100
0000
0001
0000
,
0010
0001
0100
0001
0000
0010
0001
0100
0001
0000
0010
0000
0100
0000
1000
0010
,
0000
1000
0100
1000
0000
0010
1000
0100
1000
0000
0010
0000
0100
0000
0001
1000
,
0000
0000
0000
1000
0100
0000
0000
0010
0001
0000
0000
0000
0000
1000
0010
1000
,
0000
0000
0100
1000
0100
0000
1000
0001
,
1000
0000
0001
0100
0001
0000
1000
0001
,
1000
0000
0010
1000
0100
0000
0010
0001
,
0100
0000
0010
1000
0100
0000
0010
0001
,
0100
1100
0101
1100
,
0101
1010
0011
1010
,
0011
1100
0101
1010
,
0011
2100
0001
0010
,
3001
0011
1001
1010
,
0110
0101
1100
0110
,
0011
1001
1010
0110
,
1100
0110
1001
0011
,
0110
0000
0101
0001
0010
0000
0100
1000
,
0010
0000
0110
0001
1000
0000
0010
0100
,
1000
0000
1010
1000
0001
0000
0011
0000
,
1001
0000
1100
1000
0001
0100
1000
0100
,
0001
0000
1000
0000
1100
0000
0000
1000
0000
0000
0001
0000
0000
0100
0000
0000
,
0001
0000
0010
0000
0001
0000
0000
1000
0000
0000
0010
0000
0000
1000
0000
0000
,
0100
0000
1000
0000
1001
0000
0000
0100
0000
0000
0010
0000
0000
1000
0000
0000
,
0100
0000
0001
0000
0100
0000
0000
1000
0000
0000
0001
0000
0000
0100
0000
0000
,
0010
0000
1000
0000
0101
0000
0000
0001
0000
0000
0010
0000
0000
0100
0000
0000
,
1000
0000
0001
0000
1100
0000
0000
1000
0000
0000
0010
0000
0000
0100
0000
0000
,
0001
1000
0011
0000
1001
0000
0101
0000
,
1100
0110
0101
1100
,
0110
0000
1001
0000
0001
0000
0010
0001
,
0100
1000
0100
0000
0001
0000
0010
0000
,
0100
0000
1000
0000
0010
0000
0001
0010
,
1000
0100
0010
0001
0000
0001
0100
0010
,
1000
0000
0100
0000
0100
0000
1000
0100
,
0001
0100
1000
0000
0001
0000
1000
0010
,
0100
0000
0001
0000
1000
0000
0001
0010
,
1000
0010
0011
0001
0100
0001
1000
0001
,
1000
0100
1000
0100
1000
0000
0010
0000
0100
0000
0001
0000
0000
0000
0010
0000
,
0001
0100
0001
0000
1100
0000
1000
0000
,
0101
0000
0001
0100
0010
1000
0000
0010
,
1000
0100
0010
0000
1100
0000
0001
0000
,
0100
0001
0100
0001
0100
0000
0000
0010
0000
0000
1000
0000
0000
0100
0000
0000
,
1000
0000
0001
0000
0100
0000
0000
0001
0000
0000
0010
0000
0000
0001
0000
0000
,
1000
0100
2000
0000
3020
0000
0032
0000
,
0203
0000
1300
0010
0100
0001
0010
1000
,
0010
0001
0100
1000
0100
0001
1000
0100
,
0001
0010
0000
0000
0000
0000
0000
0000
,
0000
0000
0010
1000
0100
1000
0000
0010
,
1000
0100
1000
0000
0010
0000
0100
0000
,
0001
0000
0010
0001
0100
0001
0000
0010
,
0001
0100
0001
0000
0010
0000
0100
0000
,
1000
0010
0000
1000
0100
1000
0000
0010
,
1000
0100
1000
0000
0010
0000
0100
0000
,
0001
1000
0000
0000
0000
1000
0100
0000
,
0000
0010
0001
0000
0000
0000
0000
1000
,
0010
1000
1001
0001
0100
0001
0000
1000
,
0001
0100
0001
0000
1000
0000
0010
0000
,
1000
0000
0001
0010
0100
1000
0000
0001
,
0010
0100
1000
0000
0001
0000
0010
0000
,
1000
0010
0000
0001
0100
1000
0000
0001
,
0100
0010
1000
0000
0001
0000
0010
0000
,
0001
2000
0000
0000
3000
0010
0200
0000
,
0000
0301
0002
0000
0000
0000
0000
1003
,
0100
0010
0001
0000
2000
0010
3010
0000
,
2000
3100
0000
0000
0000
0001
0000
0001
,
0000
0001
0010
0001
0100
1000
0100
0001
,
1000
0000
0100
0000
1000
0000
0010
0000
0100
0000
0001
0000
0010
0001
0010
0000
,
0001
1000
0001
1000
0000
0000
0000
0000
0010
0000
2000
0000
0100
0000
3001
0000
,
0000
0010
0002
0100
1003
0000
1100
0000
,
1001
0000
0101
0000
0010
0002
0100
1003
,
0000
0010
2000
0100
3001
0000
1100
0000
,
1001
0000
1000
0010
0000
1000
0100
1000
,
0000
0010
1000
0001
0100
0000
0101
0000
,
0011
0000
0001
0020
0100
0030
0100
2000
,
0001
3000
0001
0200
0010
0300
0110
0000
,
0001
1000
0010
1000
0200
0001
0001
0301
,
0000
0200
1000
1000
1300
0010
1100
0000
,
0101
0000
1001
0001
0200
1000
1000
1300
,
0000
0200
0001
0001
0301
1000
0101
0000
,
1001
0000
1000
0020
0000
1030
0001
0010
,
0000
0100
1000
0001
0100
0100
0010
0010
,
1000
1000
0001
0001
1000
0100
1000
0100
,
0010
0001
0010
0001
1000
0000
0001
0000
,
0100
0010
1000
0001
0200
0000
0000
0000
,
0000
0000
0300
0000
;

//---------------dance-single - ----------------
#NOTES:
     dance-single:
     :
     Medium:
     7:
     0.484,0.571,0.239,0.143,0.000:
0000
0000
0000
0000
,
0010
1000
0000
0100
1000
0001
0100
0000
,
0010
0100
0000
0001
0010
0100
1000
0000
,
0010
1000
0000
0001
0010
0100
1000
0000
,
0100
0010
0001
0000
,
1000
0010
1000
0010
,
0100
0001
0100
0000
0010
0000
1000
0000
,
1100
0100
0010
0001
,
0100
0001
1000
0000
0001
0000
0100
0000
,
0101
0000
0010
1000
0010
0000
0100
0001
,
0100
0000
0010
1000
0010
0000
0100
0001
,
0100
0000
0001
1000
0001
0000
1000
0100
,
1000
0020
0000
0000
,
0030
0000
0100
0001
0100
0000
0010
1000
,
0010
0000
1000
0100
1000
0000
0001
0010
,
0001
0000
1000
0001
1000
0000
0010
1000
,
0010
0000
0100
0001
0100
0000
0001
1000
,
0001
0000
0010
0001
0010
0000
1000
0100
,
1000
0000
0010
1000
0010
0000
0100
0001
,
0100
0000
0001
0010
0001
0000
1000
0100
,
1000
0001
0100
0010
,
1000
0000
0001
0000
0000
1000
0000
0000
,
0010
0100
0001
0000
0000
1000
0000
0000
,
0100
1000
0001
0000
0000
0010
0000
0000
,
0100
0010
0001
0000
0000
1000
0000
0000
,
0010
0100
1001
0000
0000
0001
0000
0000
,
1000
0100
1100
0000
0000
1000
0000
0000
,
0001
0100
0101
0000
0101
0000
1100
0000
,
1100
1001
1001
0110
,
0110
0000
1001
0000
0001
0000
1000
0100
,
1000
0200
1000
0000
1000
0000
1000
0000
,
1300
0000
0001
0000
0100
0000
0001
0100
,
0001
0200
0001
0000
0001
0000
0001
0000
,
0301
0000
1000
0000
0001
0000
0010
0001
,
0010
0002
0010
0000
0010
0000
0010
0000
,
0013
0000
0001
0000
0100
0000
0001
1000
,
0001
2000
0001
0000
0001
0000
0001
0000
,
3001
0000
1000
0100
1000
0100
0000
1000
,
0100
0010
0001
0100
,
0001
0000
0010
0001
0010
0001
0000
0010
,
0001
1000
0010
0100
,
0001
2200
0000
0000
,
3300
0202
0000
0000
,
0303
1001
1001
1001
,
1001
0000
0100
0010
0100
0010
0100
1000
,
0100
1000
0001
0010
0001
0010
0100
1000
,
0001
0010
0000
0000
0000
0000
0000
0000
,
0000
0010
1000
0000
,
0100
1000
0001
0100
,
0000
0010
0100
0000
,
0001
0010
0100
1000
,
0000
0010
1000
0000
,
0001
0010
0100
1000
,
0000
0100
0000
0010
,
0000
0001
0000
0000
,
0000
0000
1000
0000
0010
0100
0000
0001
,
0000
0100
0010
0000
1000
0000
0001
0000
,
1000
0000
0010
0000
1000
0100
0000
1000
,
0000
0001
0100
0000
0001
0000
1000
0000
,
0010
0100
0000
0001
0100
0000
0000
0001
,
1000
0100
1000
0010
,
1000
0001
0000
0000
0000
1000
0100
0000
,
0000
0010
0001
0000
0000
0000
0000
0100
,
0010
0100
0000
0000
0000
0010
1000
0000
,
0000
0001
0000
0000
0000
0010
0000
0010
,
0000
0010
0001
1000
0001
1000
0010
0100
,
0010
0100
0001
1000
0001
1000
0010
0100
,
0010
0100
0000
0000
2001
0000
3001
1000
,
0000
0200
0000
1300
0010
0000
0100
0000
,
0101
0000
1001
0000
0002
0000
1003
0100
,
0000
2000
0000
3001
0100
0000
0101
0000
,
1001
0000
0001
0020
0000
0031
1000
0001
,
0000
1000
0100
0000
1000
0000
0001
0000
,
0010
0000
0001
0002
0000
0003
0000
1000
,
2000
0000
3000
0100
0200
0000
0000
0300
,
0000
1000
0100
1000
1100
0000
1000
0001
,
0000
0101
0000
0001
1000
0000
0001
0000
,
0100
0000
0010
0000
1010
0000
1000
0001
,
0000
0011
0000
0001
1000
0000
1001
0000
,
0110
0000
0010
1000
0000
0100
1000
0100
,
0000
1000
0000
0001
0010
0001
0010
0001
,
0100
0010
0100
0010
1000
0001
1000
0001
,
0100
0001
0100
0001
0100
0000
0000
0000
,
0000
0001
0100
0010
2000
0000
0000
0000
,
0000
0000
3000
0000
;

//---------------dance-single - ----------------
#NOTES:
     dance-single:
     :
     Easy:
     5:
     0.315,0.403,0.183,0.119,0.000:
0000
0000
0000
0000
,
0010
1000
0001
0010
,
0100
1000
0001
0100
,
0010
0010
0100
0100
,
0001
1000
0100
0000
,
0010
0001
0001
1000
,
1000
0001
0001
1000
,
0000
0010
1000
0100
,
0000
0010
0001
0100
,
0000
0010
0010
0100
,
0100
0010
0010
0100
,
0000
0001
0010
0100
,
0000
2002
0000
0000
,
3003
0001
0000
1000
,
0000
0001
0000
1000
,
0000
0010
0010
0100
,
0100
0001
0001
1000
,
1000
0010
0000
1000
,
0000
0001
0000
0010
,
0000
0100
0000
1000
,
0001
1000
0000
0000
,
0000
0110
0000
1000
,
0000
0110
0000
0001
,
0000
0110
0000
1000
,
0000
0110
0000
0001
,
0000
1001
0000
0100
,
0000
1001
0000
0010
,
0000
1010
0000
0101
,
0000
0010
0001
0100
,
1000
1001
0100
0001
,
0001
0010
0000
0100
,
0000
1000
0010
0100
,
0001
1000
0000
0100
,
0000
0010
0010
0100
,
1000
0010
0000
0100
,
0000
0010
0010
1000
,
0001
0010
0000
0000
,
0000
0100
0100
1000
,
0001
0100
0000
0010
,
0000
0100
0100
0001
,
1000
0100
0000
0010
,
0000
0100
1000
0010
,
0000
0100
0001
0010
,
0000
0100
0000
1000
,
0000
0001
0100
0010
,
1000
0010
0001
0100
,
1000
0000
0000
0000
,
0000
0010
0000
1000
,
0000
0001
0000
0010
,
0000
0100
0000
1000
,
0000
0001
0000
0100
,
0000
0010
0000
0010
,
0000
0100
0000
0100
,
0000
0001
0000
1000
,
0000
0100
0000
0000
,
0000
1000
1000
0001
,
0001
1000
0001
1000
,
0000
0010
0010
0100
,
0100
0010
0100
0010
,
0000
2002
0000
3003
,
0000
2002
0000
3003
,
0000
0220
0330
2002
,
3003
0010
0100
0001
,
1000
0010
0010
0100
,
0100
0001
1000
0001
,
1000
0001
0010
1000
,
0010
0001
0100
1000
,
0100
0000
0001
1000
,
0001
0100
0001
1000
,
0010
1001
1000
0001
,
1000
0100
1000
0001
,
0010
1001
0010
1000
,
0001
0010
0100
1000
,
0001
0100
1001
0000
,
0110
0000
1001
0000
,
0000
0010
1000
0100
,
0001
0100
1000
0001
,
0010
0011
0010
0001
,
0100
0010
1000
0100
,
1000
1001
0100
0001
,
0010
0100
1000
0010
,
0100
0110
0002
0003
,
0020
0030
0200
0000
,
0300
1000
2002
0000
,
0000
0000
3003
0000
;

//---------------dance-single - ----------------
#NOTES:
     dance-single:
     :
     Beginner:
     2:
     0.189,0.232,0.087,0.000,0.000:
0000
0000
0000
0000
,
0010
0000
0100
0000
,
0001
0000
1000
0000
,
0010
0000
0100
0000
,
0001
0000
1000
0000
,
0010
0010
0000
0000
,
0000
0010
0000
0000
,
0000
0100
0000
0000
,
0000
0100
0000
0000
,
0000
0001
0000
1000
,
0000
0001
0000
1000
,
0000
0001
0000
1000
,
0000
0001
0000
0000
,
0000
1000
0000
0010
,
0000
1000
0000
0010
,
0000
1000
0000
0001
,
0000
1000
0000
0001
,
0000
0100
0000
0001
,
0000
1000
0000
0001
,
0000
0010
0000
0001
,
0000
1000
0000
0100
,
0000
1000
1000
0000
,
0000
0001
0001
0000
,
0000
1000
1000
0000
,
0000
0001
0001
0000
,
0000
1000
0000
0001
,
0000
1000
0000
0001
,
0000
0100
0000
0100
,
0000
0010
0010
0010
,
0010
0010
0000
1000
,
0000
0001
0000
0010
,
0000
0001
0000
1000
,
0000
0010
0000
1000
,
0000
0001
0000
0100
,
0000
0010
0000
1000
,
0000
0001
0001
0001
,
0000
1000
0000
0010
,
0000
0100
0100
0000
,
0000
0010
0000
1000
,
0000
0100
0100
0000
,
0000
0010
0000
0001
,
0000
1000
1000
0000
,
0000
0001
0001
0000
,
0000
0010
0000
0100
,
0000
1001
0000
0001
,
0000
1000
0000
1001
,
0000
0000
0000
0000
,
0000
0010
0000
0000
,
0000
0100
0000
0000
,
0000
0001
0000
0000
,
0000
1000
0000
0000
,
0000
0010
0000
0000
,
0000
0100
0000
0000
,
0000
0001
0000
0000
,
0000
1000
0000
0000
,
0000
0010
0000
0000
,
0000
1000
0000
0001
,
0000
0010
0000
0000
,
0000
0001
0000
1000
,
0000
1001
0000
0000
,
0000
1001
0000
0000
,
0000
1001
0000
1001
,
0000
0100
0000
0100
,
0000
1001
0000
1001
,
0000
0010
0000
0010
,
0000
0100
0100
0100
,
0100
0100
0100
0100
,
0100
0000
0010
0010
,
0000
1000
1000
0000
,
0001
0000
0100
0100
,
0000
0001
0001
0000
,
1000
0000
0010
0000
,
0100
0000
0010
0000
,
0100
0000
0001
0000
,
0001
0000
1000
0000
,
0000
0000
0001
0001
,
0000
1000
1000
0000
,
1001
0000
0100
0100
,
0000
0001
0001
0000
,
1001
0000
0010
0000
,
0000
0000
0010
0000
,
0010
0000
0001
0000
,
1000
0000
0001
0000
,
0000
0000
1001
0000
;

//---------------dance-double - ----------------
#NOTES:
     dance-double:
     :
     Hard:
     9:
     0.613,0.773,0.421,0.159,0.159:
00000000
00000000
00000000
00000000
,
00000101
00000001
00000010
00000001
00000000
00000010
00000001
00000100
00000010
00000000
00001000
00000000
00000001
00000000
00001001
00000000
,
00000100
00010000
00001000
01000000
00000000
00010000
10000000
01000000
10000000
00000000
00010000
00000000
00100000
00000000
00001000
01000000
,
00000000
00001000
00010000
00001000
00000000
00010000
00000010
00001000
00000100
00000000
00001000
00000000
00000010
00000000
00000100
00000001
,
00000000
00000000
00000000
00000010
00000100
00000000
00000000
00000100
00001000
00000000
00000000
00000000
00000000
00000100
00010000
00001000
,
00000000
00000000
00100000
00010000
01000000
00000000
00100000
10000000
,
00010000
00000000
00100000
00001000
00010000
00000000
00001000
01000000
,
00010000
00000000
01000000
00100000
10000000
00000000
00100000
01000000
,
00010000
00000000
00100000
00001000
00010000
00000000
00001000
00010000
,
00000100
00001100
00001010
00000101
,
00001001
00010100
01001000
00101000
,
00010010
00000110
00001010
00011000
,
01010000
20010000
01000000
01000000
,
31000000
10010000
00110000
01001000
,
00110000
00011000
00011000
00010010
,
00010100
00011000
00001100
00010010
,
00001100
00010010
00001010
00000110
,
00001001
00000000
00000011
00000001
00000100
00000000
00000020
00001000
,
00001030
00000000
00001100
00000100
00010000
00000000
00002000
00100000
,
00103000
00000000
00101000
00100000
00010000
00000000
00110000
00000000
,
01010000
20010000
00100000
00010000
,
31000000
00000000
00000000
00000000
10000000
00000000
00000000
00010000
00000000
00000000
00100000
00000000
00000000
00001000
00000000
00000000
,
00010000
00000000
00000010
00000000
00001000
00000000
00000000
00000001
00000000
00000000
00000010
00000000
00000000
00000100
00000000
00000000
,
00010000
00000000
00001000
00000000
01000000
00000000
00000000
00010000
00000000
00000000
00100000
00000000
00000000
01000000
00000000
00000000
,
10000000
00000000
00010000
00000000
00100000
00000000
00000000
00001000
00000000
00000000
00010000
00000000
00000000
00000100
00000000
00000000
,
00001000
00000000
00000010
00000000
00000001
00000000
00000000
00000010
00000000
00000000
00001000
00000000
00000000
00000100
00000000
00000000
,
00010000
00000000
00001000
00000000
01000000
00000000
00000000
00010000
00000000
00000000
00100000
00000000
00000000
10000000
00000000
00000000
,
00100000
00000000
00001000
00000000
00010000
00000000
00000000
00010000
00000100
00000000
00000000
00000100
00001000
00000000
00000000
00001000
,
00000010
00000000
00000000
00000100
00000001
00000000
00000000
00000000
00000001
00000000
00000000
00000000
00000010
00000000
00000100
00000000
,
00001000
00000100
00001000
00000100
00001000
00000000
00000000
00000000
00000010
00000000
00000000
00000000
00010000
00000000
00001000
00000000
,
01000000
00100000
10000000
00000000
10000000
00000000
00010000
00000000
,
00010000
00000000
00100000
00000000
01000000
00000000
00100000
00001000
,
00010000
00000010
00000100
00000001
00000000
00000001
00001000
00001000
,
00000100
00000000
00001000
00000000
00001000
00000000
00000010
00010000
,
00001000
01000000
00010000
00000000
00010000
00000000
10000000
00000000
,
10000000
00000000
01000000
00000000
01000000
00000000
00100000
00001000
,
00010000
00000010
00000200
00000000
00000001
00000000
00000010
00000000
,
00001300
00000000
00000110
00000100
00000001
00001000
00000000
00000100
,
00010000
00001000
01000000
00000000
01000000
00000000
00010000
00000000
,
10000000
00000000
01000000
10000000
00100000
01000000
00000000
00010000
,
00100000
01000000
10000000
00000000
00100000
00000000
10000000
00010000
,
01000000
00000000
00000000
00000000
00010000
00000000
00000000
00100000
00000000
00000000
00001000
00000000
00000000
00010000
00000000
00000000
,
00000010
00000000
00010000
00000000
00001000
00000000
00000000
01000000
00000000
00000000
00001000
00000000
00000000
00010000
00000000
00000000
,
00000100
00001000
00000001
00000000
00001010
00000000
00101000
00000000
,
01100000
00000000
10000000
01000000
00010000
00100000
00010000
01000000
,
00001000
00010000
00000010
00001000
00000100
00000001
00000100
00010000
,
00001000
00100000
00000000
00000000
00000000
00000000
00000000
00000000
,
00000000
00000000
00000101
00000001
00000010
00000001
00000000
00000010
,
00000001
00000100
00000010
00000000
00001000
00000000
00000001
00000000
,
00001001
00000000
00000100
00010000
00001000
01000000
00000000
00010000
,
10000000
01000000
10000000
00000000
00010000
00000000
00100000
00000000
,
00001000
01000000
00000000
00001000
00010000
00001000
00000000
00010000
,
00000010
00001000
00000100
00000000
00001000
00000000
00000010
00000000
,
00000100
00000001
00000000
00000000
00000000
00000010
00000100
00000000
,
00000000
00000100
00001000
00000000
00000000
00000000
00000000
00000100
,
00010000
00001000
00010000
00000100
00001000
00000010
00000000
00001000
,
00000010
00000001
00000010
00000000
00001000
00000000
00000100
00000000
,
00010100
00000000
00000100
00010000
00001000
00100000
00000000
00010000
,
00100000
00001000
01000000
00000000
00100000
00000000
10000000
00000000
,
01000000
10000000
00000000
00010000
01000000
00010000
00000000
00100000
,
00010000
01000000
00001000
00000000
00100000
00000000
00101000
00000000
,
00100000
00002000
00000000
00000000
00000000
00013000
00000200
00000000
,
00000300
00001000
00000020
00000000
00000030
00000000
00000000
00000100
,
00000001
00001000
00000000
00000000
00000000
00020000
00001000
00030000
,
00000000
00101000
00000000
00000000
00000000
00100000
00000000
00100000
,
00000000
00100000
00010000
01000000
10000000
01000000
00010000
00100000
,
00001000
00010000
00000100
00000001
00000100
00001000
00000010
00010000
,
00001000
01000000
00000000
00000000
00100000
20000000
00010000
30100000
,
00000000
10000000
00020000
00100000
01030000
00000000
01010000
00000000
,
01001000
00000000
00010100
00000000
00000100
00020000
00001000
00030100
,
00000000
00010000
00000020
00001000
00000130
00000000
00000110
00000000
,
00011000
00000000
00010000
00100000
00000000
00010000
10000000
00100000
,
00000000
10000000
00010000
01000000
00002000
00000000
00010000
00000000
,
00100000
00000000
00013000
00000200
00001000
00000300
00001000
00000020
,
00000100
00000030
00000100
00000002
00001000
00000003
00000000
00000000
,
00000000
00000001
00001000
00000010
00010000
00001000
01000000
00100000
,
00000000
10000000
01000000
00010000
01000000
00000000
10000000
00000000
,
00010000
00000000
10010000
00000000
00100000
00010000
01000000
00001000
,
00000000
00010000
00000100
00001000
00000010
00000000
00000001
00000000
,
00000010
00000000
00001000
00000200
00000000
00010300
00000010
00000100
,
00000000
00000010
00010000
00001000
00100000
00100000
01000000
01000000
,
10000000
10000000
00010000
00010000
00100000
00100000
00001000
00001000
,
00010000
00010000
00000010
00000010
00001000
00000000
00001000
00000000
,
00000010
00010000
00001000
00100000
00202000
00000000
00000000
00000000
,
00000000
00000000
00303000
00000000
;

//---------------dance-double - ----------------
#NOTES:
     dance-double:
     :
     Medium:
     7:
     0.476,0.531,0.247,0.064,0.000:
00000000
00000000
00000000
00000000
,
00000100
00010000
00000000
00001000
00100000
00010000
01000000
00000000
,
00100000
10000000
00000000
01000000
10000000
00100000
01000000
00000000
,
00010000
00100000
00000000
00001000
00100000
00010000
00100000
00001000
,
00020000
00000000
00030200
00000000
00002300
00000000
00003000
00000010
,
00000000
00000100
00000001
00001000
,
00000100
00010000
00001000
01000000
,
01001000
01000000
00010000
00100000
,
01000000
10000000
00100000
01000000
,
01100000
10000000
10000000
00010000
,
00010000
00100000
00001000
00010000
,
00000010
00001000
00001000
00000001
,
00000001
00000020
00000000
00000000
,
00000130
00000000
00001000
00000100
00010000
00000000
00001000
00100000
,
00001000
00101000
00010000
01000000
,
00100000
00000000
10000000
01000000
00100000
00000000
00010000
01000000
,
00010000
00000000
01001000
00000000
00010000
00000000
00100000
00001000
,
00100000
00000000
00011000
00000000
00010000
00000000
00000100
00001000
,
00000010
00000000
00001000
00000000
00000100
00000000
00010000
00001000
,
01000000
00000000
00001000
00010000
00000100
00000000
00010000
00001000
,
01000000
00000000
00010000
01000000
00100000
10000000
01000000
00000000
,
10000000
00000000
10010000
00000000
00000000
00100000
00000000
00000000
,
00001000
00010000
00000100
00000000
00000000
00001000
00000000
00000000
,
00000010
00000100
00000001
00000000
00000000
00000010
00000000
00000000
,
00000100
00010000
00001000
00000000
00000000
01000000
00000000
00000000
,
00010000
10000000
00100000
00000000
00100000
00000000
01000000
00010000
,
01000000
00000000
00010000
00000000
00100000
00000000
00001000
00100000
,
00001000
00101000
00010000
00010100
,
00000010
00002010
00000010
00000010
,
00003010
00000000
00001000
00000000
00000100
00000000
00010000
00001000
,
00010000
00001000
01000000
00000000
00010000
00000000
10000000
00000000
,
01000000
00000000
00100000
00000000
00001000
00000000
00010000
00001000
,
00010000
00001000
00010000
00000000
00000100
00000000
00001000
00000000
,
00000010
00000000
00000100
00000000
00000001
00000000
00000010
00000100
,
00000010
00000100
00001000
00000000
00000010
00000000
00010000
00000000
,
00000100
00000000
00010000
00000000
00001000
00000000
00100000
00010000
,
00100000
01000000
10000000
00000000
00100000
00000000
01000000
00010000
,
00010000
00000000
00100000
00001000
00100000
00001000
00000000
00010000
,
00001000
00010000
00001000
00000000
00010000
00000000
00001000
00000000
,
00011000
00000000
00010000
00000100
00010000
00000100
00000000
00001000
,
00000100
00001000
00000100
00000000
00001100
00000000
00001010
00000000
,
00001001
00000000
00000001
00000010
00000000
00000001
00000010
00000000
,
00000001
00000000
00001000
00000100
00000000
00001000
00000100
00000000
,
00010000
00000000
00011000
00000000
00001000
00000000
00100000
00001000
,
00010000
00000000
00000100
00001000
00000100
00010000
00001000
00010000
,
00001000
00100000
00010000
00100000
00010000
01000000
00100000
01000000
,
00010000
01000000
00000000
00000000
00000000
00000000
00000000
00000000
,
00000000
00000100
00010000
00000000
,
00001000
00100000
00010000
01000000
,
00000000
00100000
10000000
00000000
,
01000000
10000000
00100000
01000000
,
00000000
00010000
00100000
00000000
,
00001000
00100000
00010000
00100000
,
00001000
00020000
00000000
00030200
,
00000000
00002300
00000000
00000000
,
00003010
00000100
00000001
00000000
,
00000010
00000100
00001000
00010000
,
00001000
00000100
00000010
00000000
,
00000100
00010000
00001000
01000000
,
00010000
00010000
00000000
10000000
01000000
10000000
00000000
00100000
,
01000000
00010000
00110000
00100000
,
00001000
00010000
00000010
00000000
00010000
00001000
00100000
00000000
,
00001000
00010000
00000010
00000000
00010010
00000000
00000010
00010000
,
00000100
00010000
00000000
00000000
00000000
00001000
00001000
00000000
,
00000000
01000000
00000000
00000000
00000000
00010000
00000000
00010000
,
00000000
00100000
10000000
00100000
00010000
00100000
10000000
00100000
,
00010000
00100000
01000000
10000000
01000000
00010000
01000000
10000000
,
01000000
00010000
00000000
00000000
00100000
00000000
00001000
00010000
,
00000000
00010100
00000000
00000100
00001000
00000000
00000100
00000000
,
00001000
00000000
00001010
00000000
00000010
00000000
00000100
00000001
,
00000000
00001001
00000000
00001000
00000100
00000000
00010000
00000000
,
00011000
00000000
00001000
01000000
00000000
00010000
01000000
00010000
,
00000000
00100000
00010000
00000000
10010000
00000000
01010000
00000000
,
11000000
00000000
10000000
00100000
00000000
00000000
00000000
01000000
,
00010000
00000000
00000000
00100000
00001000
00000000
01000000
00000000
,
01001000
00000000
00001000
00100000
00001000
00010000
00000000
00011000
,
00000000
00010000
00001000
00000000
01000000
00000000
00010000
00000000
,
10000000
00000000
10010000
00000000
10000000
00000000
00100000
01000000
,
00000000
01100000
00000000
01000000
00010000
00000000
00110000
00000000
,
00100000
00001000
00000000
00010000
00000000
00000100
00001000
00000000
,
00000010
00000100
00000001
00001000
,
00000100
00010000
00011000
00001000
,
01001000
00000000
01000000
00010000
00100000
00000000
10000000
00000000
,
01000000
00010000
00011000
00000000
;

//---------------dance-double - ----------------
#NOTES:
     dance-double:
     :
     Easy:
     4:
     0.240,0.266,0.032,0.000,0.000:
00000000
00000000
00000000
00000000
,
00001000
00000000
00010000
00001000
,
00100000
00000000
00010000
01000000
,
00100000
00000000
10000000
01000000
,
00100000
00010000
00100000
00000000
,
00001000
00010000
00010000
00001000
,
00001000
00010000
00000000
00000100
,
00000000
00001000
00001000
00000010
,
00000010
00001000
00000000
00000001
,
00000000
00000100
00000001
00000100
,
00000000
00000001
00001000
00000001
,
00000000
00001000
00000100
00001000
,
00000000
00000000
00000100
00010000
,
00000000
00001000
01000000
00001000
,
00000000
01000000
00010000
01000000
,
00000000
00100000
01000000
00100000
,
00000000
10000000
00100000
10000000
,
00000000
11000000
00000000
10000000
,
00000000
01010000
00000000
00010000
,
00000000
00101000
00000000
00011000
,
00000000
00000100
00000000
00000000
,
00000000
00001000
00000100
00000000
,
00000000
00001000
00000001
00000000
,
00000000
00000100
00000010
00000000
,
00000000
00001000
00000100
00000000
,
00000000
00010000
00000000
00001000
,
00000000
00100000
00000000
00010000
,
00000000
01000000
01000000
00100000
,
00100000
10000000
00000000
01000000
,
00000000
00100000
00010000
00000000
,
00100000
00001000
00000000
00010000
,
00000000
00000100
00000000
00001000
,
00000010
00000000
00000100
00000100
,
00000001
00001000
00000000
00000100
,
00010000
00000000
00001000
01000000
,
00000000
00010000
00000000
10000000
,
01000000
10000000
00000000
00010000
,
00000000
00100000
00100000
00000000
,
01000000
10000000
00010000
00100000
,
00000000
00001000
00001000
00000000
,
00010000
00000100
00010000
00001000
,
00000000
00100000
00001000
01000000
,
00000000
00010000
01000000
00100000
,
00000000
10000000
00000000
01000000
,
00000000
00100000
00100000
00010000
,
00010000
01000000
00001000
00010000
,
00000100
00000000
00000000
00000000
,
00000000
00001000
00000000
00000000
,
00000000
00010000
00000000
00000000
,
00000000
00100000
00000000
00000000
,
00000000
00010000
00000000
01000000
,
00000000
00100000
00000000
00000000
,
00000000
10000000
00000000
01000000
,
00000000
00100000
00000000
00010000
,
00000000
00100000
00000000
00000000
,
00000000
00001000
00000000
00010000
,
00000000
00000010
00000000
00001000
,
00000000
00000100
00000000
00010000
,
00000000
00001000
00000000
01000000
,
00000000
00100000
00000000
10000000
,
00000000
01000000
00000000
00100000
,
00000000
00001000
00000000
00010000
,
00000000
00000010
00000000
00001000
,
00000000
00000100
00000000
00010000
,
00000000
00001000
00000000
01000000
,
00000000
00010000
00010000
10000000
,
10000000
01000000
00100000
00001000
,
00010000
00000000
00001000
00001000
,
00000000
00010000
00000100
00010000
,
00000100
00000000
00001000
00001000
,
00000000
00000010
00000100
00000010
,
00000100
00000000
00000001
00000001
,
00000000
00001000
00000100
00010000
,
00001000
00000000
00100000
00000000
,
00010000
00000000
10000000
00000000
,
00100000
00000000
01000000
01000000
,
00000000
00010000
00100000
00001000
,
00010000
00000000
00000100
00000100
,
00000000
00001000
00000010
00010000
,
00001000
00000000
00100000
00000000
,
00010000
00000000
10000000
00100000
,
01000000
00010000
00100000
00000000
,
00001000
00000000
00010000
00000000
,
00000010
00001000
00000001
00000000
;
