#TITLE:Way To Go;
#SUBTITLE:;
#ARTIST:Empire of the Sun;
#TITLETRANSLIT:;
#SUBTITLETRANSLIT:;
#ARTISTTRANSLIT:;
#GENRE:;
#CREDIT:;
#BANNER:;
#BACKGROUND:BG.png;
#LYRICSPATH:;
#CDTITLE:;
#MUSIC:Way To Go.mp3;
#OFFSET:-0.080000;
#SAMPLESTART:96.839951;
#SAMPLELENGTH:12.000000;
#SELECTABLE:YES;
#BPMS:0.000000=122.500031
;
#STOPS:
;
#BGCHANGES:0.000=BG.png=1.000=0=0=0=StretchNoLoop====,
3.250=Way To Go.avi=1.000=1=0=1===CrossFade==,
234.000=BG.png=1.000=1=0=1===CrossFade==,
99999=-nosongbg-=1.000=0=0=0 // don't automatically add -songbackground-
;
#KEYSOUNDS:;
#ATTACKS:;

//---------------dance-single - ----------------
#NOTES:
     dance-single:
     :
     Hard:
     11:
     0.420297,0.419824,0.248024,0.017105,0.000000,344.000000,315.000000,29.000000,2.000000,0.000000,0.000000,0.420297,0.419824,0.248024,0.017105,0.000000,344.000000,315.000000,29.000000,2.000000,0.000000,0.000000:
0000
0000
0000
0000
,
0000
0000
0000
0000
,
0001
0100
0010
0000
0110
0000
1010
0000
,
1000
0000
0100
0000
1000
0010
1000
0001
,
0100
0001
0010
0100
,
0010
0100
0010
0000
0001
0100
0001
0000
,
1000
1010
1000
0101
,
0001
0010
0001
0000
1000
0100
1000
0000
,
0010
0110
0001
1100
,
0001
0100
0010
0100
,
0001
0010
0100
0010
0001
0010
0100
0010
,
0001
1000
0010
0100
,
0010
1000
0100
0000
0010
1000
0100
0000
,
1000
0010
0100
0010
,
0100
0001
0100
0010
0100
0001
0100
0010
,
0100
0001
0010
0100
,
1000
0010
0100
0000
1000
0010
0100
0000
,
0001
1000
0010
1000
,
0001
0010
0100
0000
0010
0100
1000
0000
,
1000
0100
0010
0001
0010
0100
1000
0001
,
0200
0310
2000
3001
,
0101
1001
1100
1001
,
1000
0100
0010
0000
0100
0010
0001
0000
,
0001
0010
0100
1000
0100
0010
0001
1000
,
0100
0010
0100
0000
0010
0001
0010
0000
,
0100
1000
0010
0100
,
0001
1100
0010
0101
,
1000
0010
0100
0000
0010
1000
0100
1000
,
0001
0100
1000
0100
,
0010
1000
0100
0000
0010
0001
0100
0000
,
0001
1100
1000
0101
,
0001
0100
1000
0100
0001
0000
1000
0000
,
0100
0010
0100
1000
,
0001
0100
0100
0000
1000
0100
0100
0000
,
1000
0100
1000
0100
1000
0001
0010
0001
,
0010
0011
1000
1100
,
0001
0100
0010
0000
0010
1000
0100
0000
,
0100
0010
0001
0000
0001
0010
0100
0000
,
0010
0001
0010
0001
0010
0100
1000
0100
,
1000
1100
0100
0110
,
0001
0100
0010
0000
0010
1000
0100
0000
,
0010
0001
0100
1000
0100
0001
1000
0000
,
0001
0100
1000
0000
0001
0100
1000
0000
,
0001
0100
1000
0100
0001
0100
1000
0000
,
0100
0010
1000
0000
0100
0010
0001
0000
,
1000
0100
0010
0000
0100
0010
0001
0000
,
1000
0010
0001
0000
1000
0010
0001
0000
,
1000
0010
0001
0010
1000
0010
0001
0000
,
1000
0100
1000
0000
0001
0010
0001
0000
,
1000
0011
1010
0011
,
1000
0100
0010
0001
1000
0100
0010
0001
,
1000
0010
0100
0001
1000
0010
0100
0001
,
1000
0101
0001
1100
,
0010
1010
0001
0011
,
0001
0100
0010
1000
0001
0100
0010
1000
,
0001
0010
0100
1000
0001
0010
0100
1000
,
0001
1100
0010
1010
,
0100
0101
0001
1001
;

//---------------dance-single - ----------------
#NOTES:
     dance-single:
     :
     Medium:
     8:
     0.329885,0.345737,0.179604,0.094078,0.000000,270.000000,249.000000,21.000000,11.000000,0.000000,0.000000,0.329885,0.345737,0.179604,0.094078,0.000000,270.000000,249.000000,21.000000,11.000000,0.000000,0.000000:
0000
0000
0000
0000
,
0000
0000
0000
0000
,
1000
0100
0010
0001
,
1000
0100
1000
0001
,
0200
0000
0000
0300
,
0010
0110
0100
0110
,
2002
0000
0000
3003
,
1000
0100
1000
0100
,
1100
0000
0011
0000
,
0101
0000
1010
0000
,
0001
0010
0100
1000
,
0001
0010
0100
1000
,
0001
0010
0001
0000
1000
0100
1000
0000
,
0001
1000
0001
0000
0100
0010
0100
0000
,
0010
1000
0100
1000
,
0001
0010
0001
1000
,
0001
0100
0001
0000
1000
0100
1000
0000
,
0100
0010
0100
0000
0010
0001
0010
0000
,
0002
0000
1003
0000
0001
0010
0001
0000
,
2000
0000
3100
0000
1000
0010
1000
0000
,
1010
0010
0100
0001
,
1000
0001
1000
0000
0001
1000
0001
0000
,
0200
0000
0310
0000
1000
0010
1000
0000
,
0002
0000
0013
0000
0100
1000
0100
0000
,
1100
0001
0010
0001
,
1000
0010
1000
0001
,
1000
0010
0001
0010
,
1000
0000
0001
0000
0100
0010
0100
0000
,
0001
1000
0100
0010
,
0001
0010
0100
0010
,
0220
0000
0000
0330
,
1000
0001
0100
0001
,
2200
0000
0000
3300
,
0001
0100
1001
0101
,
0010
1000
0010
0000
1000
0010
1000
0000
,
0010
1000
0010
0000
1000
0010
1000
0000
,
0001
0010
0001
0100
,
0010
0100
0010
0100
,
0001
0010
0001
0000
0010
0001
0010
0000
,
0001
0010
0001
0000
0010
0001
0010
0000
,
0001
1000
0010
0100
,
0010
0100
0110
1001
,
0001
0100
0010
0000
1000
0000
0100
0000
,
1000
0100
0010
0000
0001
0000
0100
0000
,
0110
0001
1001
1000
,
0100
0000
0010
0000
0001
0001
0001
0000
,
1000
0001
0100
0000
0001
0000
1000
0000
,
0001
1000
0010
0000
1000
0000
0100
0000
,
1000
1010
0001
0100
,
0001
0000
0011
0000
0010
0010
0010
0000
,
0001
1000
0001
1000
0001
0000
0100
0000
,
0010
1000
0010
1000
0010
0000
0100
0000
,
0001
0010
0001
0000
1000
0100
1000
0000
,
0001
0100
0001
0000
1000
0010
1000
0000
,
0001
0010
0001
0010
0001
0000
1000
0000
,
0001
0100
0001
0000
0100
0000
0010
0000
,
1000
0010
1000
0000
0001
0000
0100
0000
,
1001
0010
0110
1000
;

//---------------dance-single - ----------------
#NOTES:
     dance-single:
     :
     Beginner:
     2:
     0.139285,0.198419,0.111183,0.145394,0.000000,114.000000,101.000000,13.000000,17.000000,0.000000,0.000000,0.139285,0.198419,0.111183,0.145394,0.000000,114.000000,101.000000,13.000000,17.000000,0.000000,0.000000:
0000
0000
0000
0000
,
0000
0000
0000
0000
,
0001
0000
0100
0000
,
0001
0000
1000
0000
,
0010
0000
0100
0000
,
0001
0000
1000
0000
,
2002
0000
3003
0000
,
0010
0000
0100
0000
,
0220
0000
0330
0000
,
0001
0000
1000
1000
,
0001
0000
0100
0000
,
0010
0000
0100
0000
,
0001
0000
0000
1000
,
0100
0000
0001
0000
,
0010
0000
0000
0100
,
0001
0000
1000
0000
,
0010
0000
0000
0100
,
0010
0000
1000
0000
,
1001
0000
0001
0000
,
1001
0000
1000
0000
,
0220
0000
0330
0000
,
0000
0000
0010
0000
,
0110
0000
1000
0000
,
1001
0000
0001
0000
,
0220
0000
0330
0000
,
0000
0000
0000
0000
,
1000
1000
0000
0001
,
0001
0000
0100
0000
,
0010
0010
0000
0100
,
0100
0000
0001
0000
,
0200
0000
0300
0000
,
0001
0001
0000
0000
,
1000
0000
0100
0000
,
1000
0000
0010
0010
,
0100
0000
0001
0000
,
1000
0000
0100
0000
,
0020
0000
0030
0000
,
0000
0000
0000
0000
,
0001
0000
0100
0000
,
0010
0000
1000
0000
,
0200
0000
0300
0000
,
0000
0000
0010
0010
,
0110
0000
0100
0000
,
1001
0000
0010
0000
,
2002
0000
0000
3003
,
0000
0000
0001
0001
,
0001
0000
1000
0000
,
0100
0000
1000
0000
,
0220
0000
0000
0330
,
0000
0000
1000
0001
,
1000
0000
0001
0000
,
0100
0000
1000
0000
,
0200
0000
0000
0300
,
0000
0000
0010
0010
,
1000
0000
0100
0000
,
0001
0000
0100
0000
,
0002
0000
0003
0000
,
1000
0000
0001
0000
,
1001
0000
0000
0000
;

//---------------dance-single - ----------------
#NOTES:
     dance-single:
     :
     Easy:
     5:
     0.235806,0.248024,0.119736,0.213814,0.000000,193.000000,179.000000,14.000000,25.000000,0.000000,0.000000,0.235806,0.248024,0.119736,0.213814,0.000000,193.000000,179.000000,14.000000,25.000000,0.000000,0.000000:
// measure 0
0000
0000
0000
0000
,  // measure 1
0000
0000
0000
0000
,  // measure 2
0001
0100
0001
0000
,  // measure 3
1000
0100
1000
0001
,  // measure 4
1000
0000
0010
0000
,  // measure 5
0100
0010
0100
0010
,  // measure 6
2002
0000
3003
0000
,  // measure 7
0001
1000
0001
1000
,  // measure 8
0220
0000
0330
0000
,  // measure 9
0001
0000
1000
0000
,  // measure 10
0002
0103
0200
0310
,  // measure 11
0020
2030
3200
2300
,  // measure 12
3001
0100
0001
0000
,  // measure 13
1000
0100
1000
0010
,  // measure 14
0200
0310
0020
1030
,  // measure 15
2000
3002
0203
0302
,  // measure 16
1003
0100
1000
0000
,  // measure 17
0001
0010
0001
0010
,  // measure 18
1001
0100
0010
0000
,  // measure 19
1001
0010
0100
0000
,  // measure 20
0001
0100
1000
0100
,  // measure 21
0001
0100
1000
0000
,  // measure 22
0110
0001
1000
0000
,  // measure 23
0110
1000
0001
0000
,  // measure 24
0001
0010
0001
1000
,  // measure 25
0100
1000
0001
0000
,  // measure 26
1000
0010
0010
0000
,  // measure 27
0001
0010
0010
0001
,  // measure 28
1000
0100
0100
0000
,  // measure 29
0001
0100
0100
0001
,  // measure 30
1000
0001
1000
0000
,  // measure 31
0010
0100
0010
1000
,  // measure 32
0100
1000
0001
0000
,  // measure 33
0100
0001
1000
1000
,  // measure 34
0002
0000
0203
0000
,  // measure 35
0320
0000
0230
0000
,  // measure 36
0302
0000
0000
0003
,  // measure 37
0000
0000
1000
1000
,  // measure 38
2000
0000
3200
0000
,  // measure 39
0320
0000
0230
0000
,  // measure 40
1300
0001
1000
0000
,  // measure 41
0001
0100
0010
0010
,  // measure 42
0110
0001
1000
0000
,  // measure 43
1001
0100
0010
0000
,  // measure 44
1000
0100
1000
0001
,  // measure 45
0100
0010
0100
0001
,  // measure 46
1001
0010
0100
0000
,  // measure 47
0110
0001
1000
0000
,  // measure 48
1000
0001
1000
0010
,  // measure 49
0100
0010
1000
0100
,  // measure 50
1001
0100
1000
0000
,  // measure 51
1001
0100
0001
0000
,  // measure 52
0001
0010
0001
1000
,  // measure 53
0010
1000
0010
0100
,  // measure 54
1001
1000
0001
0000
,  // measure 55
1001
0001
1000
0000
,  // measure 56
0010
0100
0010
0000
,  // measure 57
0100
0001
1000
0001
,  // measure 58
1000
0000
0000
0000
;
