#TITLE:REBIRTH OF THE JAZZ;
#SUBTITLE:;
#ARTIST:Maxie x Jonny Dynamite!;
#TITLETRANSLIT:;
#SUBTITLETRANSLIT:;
#ARTISTTRANSLIT:;
#GENRE:;
#CREDIT:;
#BANNER:;
#BACKGROUND:Rebirth of the Jazz.jpg;
#LYRICSPATH:;
#CDTITLE:;
#MUSIC:REBIRTH OF THE JAZZ.mp3;
#OFFSET:-0.040001;
#SAMPLESTART:45.448036;
#SAMPLELENGTH:12.000000;
#SELECTABLE:YES;
#BPMS:0.000000=124.000000
;
#STOPS:
;
#BGCHANGES:;
#KEYSOUNDS:;
#ATTACKS:;

//---------------dance-single - ----------------
#NOTES:
     dance-single:
     :
     Hard:
     13:
     0.466172,0.505924,0.236098,0.134913,0.134913,387.000000,359.000000,28.000000,16.000000,0.000000,0.000000,0.466172,0.505924,0.236098,0.134913,0.134913,387.000000,359.000000,28.000000,16.000000,0.000000,0.000000:
0000
0000
0000
0000
,
0000
0000
0000
0000
,
0000
0000
0000
0000
,
0000
0000
0000
0000
,
0000
0000
1000
0000
0000
2000
0000
0000
0100
0000
0000
3100
0000
0000
0010
0000
,
0000
0000
0001
0000
0000
0002
0000
0000
0100
0000
0000
0103
0000
0000
0010
0000
,
0000
0000
1000
0000
0000
0100
0000
0000
0010
0000
0000
1000
0000
0000
0010
0000
,
0000
0000
0001
0000
0000
0100
0000
0000
0010
0000
0000
1000
0000
0000
0100
0000
,
0011
0000
1100
0000
0001
0100
1000
0000
,
0100
0000
0010
0000
1000
0000
0100
0000
0001
0000
0100
0000
1000
0000
0001
1000
,
0000
0001
1000
0000
0100
0000
0010
0000
0001
0000
0010
0000
1000
0000
0001
0000
,
0100
0010
1000
0100
1000
0001
0010
0001
,
1100
0001
0100
0000
0110
1000
0100
0000
,
0010
0001
0100
0010
0110
0110
0101
0000
,
1000
0100
0010
0001
0010
0010
0010
0000
,
0100
0010
0001
0100
0010
1000
1010
0010
,
1001
0000
1000
0100
0001
0100
1000
0100
,
1001
0000
0010
0100
0001
0100
1000
0100
,
0010
1000
0100
0010
0001
1000
0001
0100
,
0010
1000
0010
0000
0100
0000
0001
0000
0010
0100
0010
0000
0001
0000
1000
0000
,
0010
1000
0100
0000
1000
0001
0100
0000
,
0010
1000
0010
0100
0001
1000
0001
0000
,
1000
0100
0010
0000
0001
0100
0010
0000
,
0220
0000
0000
0330
,
1000
0100
0010
0100
1000
0100
0010
0001
,
0010
0100
0010
0001
0100
0010
1000
0100
,
0010
0001
0011
0000
1000
0100
1100
0000
,
0001
0000
0100
0000
0010
0000
1000
0000
0100
0000
0010
0001
0000
1000
0001
0000
,
1001
0100
0010
1000
0100
0010
0001
0010
,
0100
1000
0001
0100
0001
0010
1000
0000
,
0010
0001
0100
0000
1000
0100
0001
0000
,
0100
0010
1000
0000
0001
0100
0010
0000
,
2010
0000
0000
0001
0000
0000
3001
0000
0000
0000
0010
0000
0001
0000
1000
0000
,
1200
0000
0000
0010
0000
0000
0310
0000
0000
0000
0001
0000
1000
0000
0010
0000
,
0001
0000
0000
0010
0000
0000
2000
0000
0000
0000
0000
0000
3001
0000
0000
0000
,
0010
0000
0000
1000
0000
0000
0020
0000
0000
0000
0000
0000
0031
0000
0000
0000
,
1000
0100
1000
0000
0001
0010
0001
0000
,
0010
0100
0001
1000
0010
0001
0100
0000
,
0001
0010
1000
0001
1000
0100
0010
0000
,
0002
0000
1000
0000
0100
0100
0103
0000
,
1010
0100
0001
0011
0100
1000
0001
0000
,
0010
0100
1000
0001
0100
0010
1000
0000
,
0001
0001
0100
0000
0010
0010
1000
0001
,
1000
0100
0010
0001
1000
0001
0100
0010
,
0102
0000
0000
0000
1000
1000
1003
0100
,
0210
0000
0000
0000
0010
0010
0310
0000
,
0001
0010
0001
1000
0010
1000
0001
1000
,
0002
0000
0020
0003
0200
0030
1300
0000
,
1001
0000
0000
0100
0000
0000
0010
0000
0000
0100
0000
0000
1000
0000
0001
0000
,
0101
0000
0000
0010
0000
0000
1000
0000
0000
0100
0000
0000
1000
0000
0100
0000
,
0011
0000
0000
0001
0000
0000
0200
0000
0000
0000
0000
0000
0310
0000
1000
0000
,
1100
0000
0000
0001
0000
0000
0020
0000
0000
0000
0000
0000
0031
0000
0100
0000
,
1001
1000
0100
0010
0100
1000
0001
0100
,
0101
0001
0010
0100
0001
0100
1000
0100
,
0110
1000
0100
0010
0001
1000
0010
0100
,
0001
1000
0100
0001
0100
1000
0001
0100
,
0010
0000
1000
0000
0000
1000
0000
0000
0100
0000
0000
0100
0000
0000
0010
0000
,
0000
0000
0001
0000
0000
0001
0000
0000
0100
0000
0000
0100
0000
0000
0010
0000
,
0000
0000
0010
0000
0000
0001
0000
0000
0010
0000
0000
1000
0000
0000
1010
0000
,
0000
0000
0001
0000
0000
1000
0000
0000
0100
0000
0000
0001
0000
0000
1000
0000
,
0100
0000
0000
0000
;

//---------------dance-single - ----------------
#NOTES:
     dance-single:
     :
     Medium:
     9:
     0.337282,0.379443,0.075889,0.227666,0.033728,280.000000,271.000000,9.000000,27.000000,0.000000,0.000000,0.337282,0.379443,0.075889,0.227666,0.033728,280.000000,271.000000,9.000000,27.000000,0.000000,0.000000:
0000
0000
0000
0000
,
0000
0000
0000
0000
,
0000
0000
0000
0000
,
0000
0000
0000
0000
,
0010
0000
0100
0000
0001
0100
0001
0000
,
1000
0000
0100
0000
0010
0100
0010
0000
,
0001
0100
0010
1000
,
0001
0000
0100
0010
0100
0010
0100
0000
,
0001
0000
0010
0000
0100
1000
0100
0000
,
1000
0001
1000
0000
0001
0010
0001
0000
,
1000
1000
1000
0000
0100
0100
0100
0000
,
0010
0001
0010
0001
0010
0001
1000
0000
,
1001
0000
1000
0000
0001
0100
0001
0000
,
1001
0000
0001
0000
1000
0010
1000
0000
,
0001
0100
0001
1000
0001
0100
0001
0000
,
1000
0010
1000
0100
1000
0001
1000
0000
,
0002
0000
0010
0000
1000
1000
1003
0000
,
0200
0000
0010
0000
0001
0001
0301
0000
,
0100
0010
1000
0001
,
0010
0000
0100
0000
1000
0001
1000
0000
,
0020
0000
0031
2000
0000
3001
0200
0000
,
0302
0000
0013
0200
0000
1300
0020
0000
,
1030
0100
0001
0100
,
2002
0000
0000
3003
,
1000
0000
0100
0000
0010
0100
0010
0000
,
0100
0000
1000
0000
0001
0100
0001
0000
,
1000
0100
0010
0000
0001
0100
0010
0000
,
1000
0010
0100
0001
1000
0001
1000
0000
,
0001
0000
0010
0000
0100
0010
0100
0000
,
0001
0000
0100
0000
0010
1000
0010
0000
,
0100
0001
1000
0000
0001
1000
0100
0000
,
0020
0000
0000
0030
,
0001
0000
0000
0001
0000
0000
0002
0000
0000
0000
0000
0000
0003
0000
0000
0000
,
0100
0000
0000
0100
0000
0000
0200
0000
0000
0000
0000
0000
0300
0000
0000
0000
,
0010
0000
0000
1000
0000
0000
0020
0000
0000
0000
0000
0000
0030
0000
0000
0000
,
1000
0000
0000
0001
0000
0000
2000
0000
0000
0000
0000
0000
3000
0000
0000
0000
,
0001
0000
0010
0000
0001
1000
0100
0000
,
1000
0000
0010
0000
1000
0001
0100
0000
,
0001
0010
0001
0000
1000
0100
1000
0000
,
2002
0000
3000
0103
,
0110
0000
0010
0000
1000
0100
1000
0000
,
1001
0000
0100
0000
0001
0010
0001
0000
,
1000
0010
0010
0000
0100
0001
0001
0000
,
1000
0001
1000
0001
0010
0001
0010
0000
,
0012
0000
1000
0103
,
0201
0000
0010
0301
,
1000
0010
0100
0000
0100
0001
1000
0000
,
1000
0100
1000
0100
1000
0001
1000
0000
,
0001
0100
0000
0010
0000
1000
0000
0100
,
0000
0010
0000
0001
0000
0010
0000
0001
,
1000
0001
0000
0100
0000
0010
0000
1000
,
0000
0100
0000
1000
0010
1000
0100
1000
,
0010
0000
0100
0000
0001
0010
0001
0000
,
1000
0000
0100
0000
0010
0001
0010
0000
,
0001
0100
0010
0000
1000
0100
0010
0000
,
0002
0203
0320
2030
,
3001
0000
0000
0001
0000
0000
0002
0000
0000
0000
0000
0000
0013
0000
0000
0000
,
0100
0000
0000
0100
0000
0000
0200
0000
0000
0000
0000
0000
1300
0000
0000
0000
,
0010
0000
0000
1000
0000
0000
0020
0000
0000
0000
0000
0000
0130
0000
0000
0000
,
0001
0000
0000
1000
0000
0000
0200
0000
0000
0000
0000
0000
0310
0000
0000
0000
,
0110
0000
0000
0000
;

//---------------dance-single - ----------------
#NOTES:
     dance-single:
     :
     Beginner:
     3:
     0.146959,0.177073,0.067456,0.075889,0.000000,122.000000,114.000000,8.000000,9.000000,0.000000,0.000000,0.146959,0.177073,0.067456,0.075889,0.000000,122.000000,114.000000,8.000000,9.000000,0.000000,0.000000:
0000
0000
0000
0000
,
0000
0000
0000
0000
,
0000
0000
0000
0000
,
0000
0000
0000
0000
,
0001
0000
0001
0000
,
0010
0000
0010
0000
,
0001
0000
1000
0000
,
0001
0000
1000
0000
,
0100
0000
0010
0010
,
0010
0000
0100
0100
,
0100
0000
1000
0000
,
0001
0000
0010
0000
,
0110
0000
1000
0000
,
0001
0000
0100
0000
,
0110
0000
0100
0000
,
0001
0000
1000
0000
,
1001
0000
0001
0000
,
0110
0000
0100
0000
,
0001
0000
1000
0000
,
0100
0000
0100
0000
,
1000
0000
0001
0000
,
1000
1000
1000
0000
,
0001
0000
0100
0000
,
0020
0000
0000
0030
,
1000
0000
0000
0001
,
0100
0000
0000
1000
,
0100
0000
1000
0000
,
0001
0000
0100
0100
,
0110
0000
0000
0001
,
0010
0000
0000
0001
,
1000
0000
0000
0100
,
0020
0000
0000
0030
,
0001
0000
0001
0000
,
0100
0000
0100
0000
,
0010
0000
0010
0000
,
1000
0000
0100
0000
,
1000
1000
1000
0000
,
0001
0001
0001
0000
,
0100
0000
0010
0000
,
0200
0000
0000
0300
,
0010
0000
1000
0000
,
0001
0001
0001
0000
,
0010
0000
0100
0000
,
1000
1000
1000
0000
,
0001
0000
0100
0000
,
0010
0000
1000
0000
,
0001
0001
0001
0000
,
2002
0000
0000
3003
,
1000
0000
0000
0010
,
0100
0000
0000
0100
,
0001
0000
0000
1000
,
0010
0000
1000
0000
,
1001
0000
0000
0001
,
0010
0000
0000
1000
,
0010
0000
0000
0100
,
0001
0000
1000
0000
,
0020
0000
0000
0030
,
0200
0000
0000
0300
,
0002
0000
0000
0003
,
2000
0000
0000
3000
,
1001
0000
0000
0000
;

//---------------dance-single - ----------------
#NOTES:
     dance-single:
     :
     Easy:
     6:
     0.248143,0.303554,0.202369,0.177073,0.000000,206.000000,182.000000,24.000000,21.000000,0.000000,0.000000,0.248143,0.303554,0.202369,0.177073,0.000000,206.000000,182.000000,24.000000,21.000000,0.000000,0.000000:
// measure 0
0000
0000
0000
0000
,  // measure 1
0000
0000
0000
0000
,  // measure 2
0000
0000
0000
0000
,  // measure 3
0000
0000
0000
0000
,  // measure 4
1002
0000
0010
0013
,  // measure 5
2000
0000
0001
3001
,  // measure 6
0200
0000
0010
0310
,  // measure 7
2000
0000
0100
3100
,  // measure 8
1000
0001
1000
0100
,  // measure 9
0010
0001
0100
0001
,  // measure 10
1000
1000
0001
0001
,  // measure 11
0100
0010
0100
0010
,  // measure 12
1001
0100
0010
0000
,  // measure 13
1001
0010
0100
0000
,  // measure 14
1000
0100
0010
0001
,  // measure 15
0010
0100
1000
0001
,  // measure 16
2001
0000
0000
3010
,  // measure 17
1002
0000
0000
0103
,  // measure 18
0010
1000
0010
1000
,  // measure 19
0002
0013
0200
1300
,  // measure 20
1100
0000
1001
0000
,  // measure 21
0101
0000
1001
0000
,  // measure 22
0010
0100
0001
1000
,  // measure 23
0220
0000
0000
0330
,  // measure 24
1000
0100
0001
0100
,  // measure 25
1000
0001
1000
0001
,  // measure 26
1000
0100
0010
0001
,  // measure 27
0010
0100
1000
0001
,  // measure 28
0110
1000
0001
1000
,  // measure 29
0110
0001
1000
0001
,  // measure 30
1000
0010
0001
0010
,  // measure 31
2000
0000
0000
3000
,  // measure 32
0010
0001
0001
0000
,  // measure 33
1000
0100
0100
0000
,  // measure 34
1000
0001
0001
1000
,  // measure 35
1000
0001
0100
0000
,  // measure 36
0010
0010
0100
0100
,  // measure 37
0001
1000
0100
1000
,  // measure 38
0001
0010
0001
1000
,  // measure 39
0220
0000
0000
0330
,  // measure 40
1001
0000
0110
0000
,  // measure 41
1100
0000
0101
0000
,  // measure 42
1000
0100
0010
0000
,  // measure 43
0001
0100
0010
0000
,  // measure 44
2000
0000
0001
3001
,  // measure 45
0200
0000
0010
0310
,  // measure 46
1000
0100
0010
0001
,  // measure 47
2000
3200
0320
0031
,  // measure 48
1001
1000
0100
1000
,  // measure 49
1001
0001
0100
0001
,  // measure 50
0010
0100
1000
0100
,  // measure 51
0010
0001
1000
0001
,  // measure 52
1001
0010
0100
0000
,  // measure 53
1001
0100
0010
0000
,  // measure 54
1001
0100
1001
0010
,  // measure 55
2002
0000
0000
3003
,  // measure 56
0010
0010
0010
0000
,  // measure 57
1000
1000
1000
0000
,  // measure 58
0001
1000
0001
0000
,  // measure 59
0010
0100
0020
0000
,  // measure 60
0130
0000
0000
0000
;
