#TITLE:Black and Gold;
#SUBTITLE:;
#ARTIST:Sam Sparro;
#TITLETRANSLIT:;
#SUBTITLETRANSLIT:;
#ARTISTTRANSLIT:;
#GENRE:;
#CREDIT:;
#BANNER:BN.png;
#BACKGROUND:BG.png;
#LYRICSPATH:;
#CDTITLE:;
#MUSIC:Black and Gold.mp3;
#OFFSET:-1.306;
#SAMPLESTART:86.408;
#SAMPLELENGTH:12.000;
#SELECTABLE:YES;
#BPMS:0.000=136.000
;
#STOPS:
;
#BGCHANGES:0.000=Black and Gold-bg.png=1.000=0=0=1=====,
4.750=Black and Gold.avi=1.000=1=0=1===CrossFade==,
303.000=Black and Gold-bg.png=1.000=1=0=1===CrossFade==,
99999=-nosongbg-=1.000=0=0=0 // don't automatically add -songbackground-
;
#KEYSOUNDS:;
#ATTACKS:;

//---------------dance-single - ----------------
#NOTES:
     dance-single:
     :
     Beginner:
     2:
     0.174,0.194,0.059,0.132,0.000,140.000,8.000,18.000,0.000,0.000,0.000,0.174,0.194,0.059,0.132,0.000,140.000,8.000,18.000,0.000,0.000,0.000:
0000
0000
0000
0000
,
1000
0000
0000
0000
,
0001
0000
0000
0000
,
1000
0000
0000
0000
,
0001
0000
0000
0000
,
0100
0000
0000
0000
,
0001
0000
0000
0000
,
1000
0000
0000
0000
,
0020
0000
0000
0030
,
1000
0000
0100
0000
,
1000
0000
0000
0000
,
0010
0000
0100
0000
,
0010
0000
0000
0000
,
0100
0000
0001
0000
,
0100
0000
0000
0000
,
0001
0000
0010
0000
,
0001
0000
0000
0000
,
1000
0000
0001
0001
,
0002
0000
0003
0000
,
0010
0000
0100
0100
,
0200
0000
0300
0000
,
1000
0000
0010
0010
,
0020
0000
0030
0000
,
0100
0000
0001
0001
,
0002
0000
0003
0000
,
1000
1000
1000
0000
,
0010
0000
0100
0000
,
0010
0010
0010
0000
,
1000
0000
0001
0000
,
0100
0100
0100
0000
,
0001
0000
1000
0000
,
0010
0010
0010
0000
,
0200
0000
0300
0000
,
0001
0000
1000
0000
,
0001
0000
0000
0000
,
0100
0000
0010
0000
,
1000
0000
0001
0000
,
0010
0000
0100
0000
,
1000
0000
0001
0000
,
1001
0000
0100
0000
,
0110
0000
0001
0000
,
1001
0000
1000
0000
,
0010
0000
0100
0000
,
0001
0000
1000
0000
,
0010
0000
0100
0000
,
0001
0000
1000
0000
,
0100
0000
0010
0000
,
0001
0000
1000
0000
,
0100
0000
0010
0000
,
0001
0000
1000
1000
,
2000
0000
3000
0000
,
0010
0000
0100
0100
,
0200
0000
0300
0000
,
0001
0000
1000
0001
,
2000
0000
3000
0000
,
0001
0000
0001
1000
,
0002
0000
0003
0000
,
0100
0000
0010
0010
,
0020
0000
0030
0000
,
0100
0000
0100
0100
,
0200
0000
0300
0000
,
0001
0000
1000
0000
,
0100
0000
0010
0000
,
0110
0000
1000
0000
,
1001
0000
0010
0000
,
2002
0000
3003
0000
,
0001
0000
0000
0000
,
0100
0000
0000
0000
,
0010
0000
1000
1000
,
1000
0000
0100
0000
,
0010
0000
0001
0001
,
0002
0000
1003
1000
,
2000
0000
3010
0010
,
0010
0000
0100
0000
,
0110
0000
0001
0000
,
2002
0000
0000
3003
;

//---------------dance-single - Blank----------------
#NOTES:
     dance-single:
     :
     Hard:
     8:
     0.490,0.529,0.110,0.139,0.697,434.000,15.000,19.000,0.000,0.000,0.000,0.490,0.529,0.110,0.139,0.697,434.000,15.000,19.000,0.000,0.000,0.000:
0000
0000
0000
0000
,
1000
0100
0001
0010
,
0100
1000
0100
1000
,
0001
0100
1000
0100
,
0001
0010
0001
0010
,
0200
1000
0000
1300
,
0020
0001
0000
0031
,
0010
1000
0100
0001
,
0100
1000
0001
0010
,
0100
0000
1000
0100
0000
0010
0001
0000
0100
0010
0000
1000
,
0001
0000
0000
1000
0000
0000
0100
0000
0000
1000
0000
0010
,
0100
0000
0000
0001
0000
1000
0100
0000
0010
0001
0000
1000
,
0000
0000
0001
0000
0000
0000
0100
0000
0000
0100
0000
0001
,
0010
0000
0000
0100
0000
0000
1000
0000
0010
0100
0000
0001
,
0000
0000
1000
0000
0000
0001
0100
0000
1000
0100
0000
0000
,
0001
0000
0000
0010
0000
0000
0100
0000
1000
0100
0000
0001
,
0100
0010
0200
0000
,
1300
0000
0001
0010
0000
0000
0100
0000
0000
1000
0000
0010
,
0001
0000
0020
0000
0000
0200
0000
0330
0000
0001
0000
1000
,
0100
0000
0000
0010
0000
0000
0001
0000
1000
0100
0000
1000
,
0000
0000
0020
0000
0000
0000
0030
0000
0000
1000
0000
0001
,
0100
0000
0000
0010
0000
0000
0100
0000
0001
0010
0000
0002
,
0000
0000
2000
0000
0000
0000
3003
0000
0010
0100
0000
0000
,
0001
0000
0000
0100
0000
0000
1000
0000
0100
0010
0000
2000
,
0000
0000
0200
0000
0000
0000
3300
0000
0000
1000
0100
1000
,
0100
0000
0100
1000
0000
1000
0010
0000
0010
0100
0000
0100
,
0000
0000
0110
0000
0000
0000
0000
0000
0000
0100
0000
0000
,
0001
0000
0001
0010
0000
0010
0100
0000
0100
1000
0000
1000
,
0000
0000
1001
0000
0000
0001
0000
0000
0100
0001
0100
0001
,
0010
0000
0010
0100
0000
0100
1000
0000
1000
0100
0000
0020
,
0000
0000
0000
0031
0000
0000
0001
0000
0000
0010
0000
0010
,
0001
0000
0001
0100
0000
0100
1000
0000
1000
0100
0000
1000
,
0000
0000
1100
0000
0000
0000
0100
0010
0100
0010
0100
0010
,
0100
0000
0001
1000
0000
0100
0010
0000
0001
0010
0000
0100
,
1000
0000
0000
0001
0000
0000
0100
0000
0000
0010
0000
0100
,
0001
0000
1000
0100
0000
0001
0100
0000
1000
0100
0000
0010
,
0000
0000
0001
0000
0000
1000
0100
0000
1000
0010
1000
0010
,
0100
0000
0001
0100
0000
0010
1000
0000
0001
0010
0001
0010
,
0100
0000
1000
0100
0000
1000
0010
0000
0100
0001
0000
0010
,
0100
0000
0000
0110
0000
0000
1000
0100
0010
0001
0000
1000
,
0100
0000
0000
1001
0000
0000
0010
0001
0100
0010
0000
0100
,
0001
0000
0000
1000
0000
0000
0100
0000
0001
0100
0000
0000
,
1000
0000
0000
0010
0000
0000
0001
0000
0010
1000
0000
0001
,
0010
0000
0000
0100
0000
0000
1000
0000
0100
0001
0000
0000
,
0100
0000
0000
1000
0000
0000
0001
0100
0010
1000
0000
0001
,
0010
0000
0000
0100
0000
0000
1000
0000
0001
0100
0000
0000
,
0010
0000
0000
0100
0000
0000
0001
0000
1000
0010
0000
0100
,
0001
0000
1000
0100
0000
0000
1000
0000
0010
0100
0000
0000
,
0001
0010
0001
0010
0000
0000
0100
1000
0100
1000
0100
1000
,
0010
0000
0010
0100
0000
0100
0001
0000
0001
1000
0000
2000
,
0000
0000
0020
0000
0000
0000
3030
0000
0000
0100
0000
0001
,
0010
0000
0000
0100
0000
0000
1000
0000
0001
0010
0000
0001
,
0000
0000
0100
0000
0000
0001
1000
0000
0001
1000
0010
0100
,
0001
0000
1000
0100
0000
0001
0100
0000
1000
0010
0000
0200
,
0000
0000
0020
0000
0000
0000
0330
0000
0000
0001
0000
0010
,
0100
0000
0000
0001
0000
1000
0100
0000
0010
0001
0000
1000
,
0000
0000
1001
0000
0000
0000
0010
0100
0001
1000
0100
0010
,
0001
0000
0001
0100
0000
0100
0010
0000
0010
1000
0000
0001
,
0000
0000
1001
0000
0000
0010
0100
0000
0000
0001
0000
1000
,
0100
0000
0010
0001
0000
0001
0100
0000
0010
0001
0000
0010
,
0000
0000
1000
0000
0000
0001
0010
0000
0100
1000
0010
0100
,
0001
0000
0001
1000
0100
1000
0010
0000
0100
0001
0000
1000
,
0100
0000
0010
0001
0100
0010
1000
0000
0001
0010
0000
0100
,
1000
0000
0000
1001
0000
0000
0010
0100
0001
1000
0000
0001
,
0000
0000
0000
0110
0000
0000
0100
1000
0010
0100
0001
0100
,
0010
0000
1000
0001
0000
0020
0000
0000
0000
0001
0000
0000
,
0000
0000
0000
0100
0000
0000
0000
0000
0000
0031
0000
0100
,
0010
0000
1000
0001
0000
0200
0000
0000
0000
1000
0000
0000
,
0000
0000
0000
0310
0000
0100
0001
0000
0010
0001
0000
0000
,
1000
0000
0000
0010
0000
0100
0000
0000
0000
0110
0000
0000
,
0000
0000
0000
0100
0000
0001
0010
0000
0001
1000
0100
1000
,
0010
0000
0000
1010
0000
0000
0100
0000
0001
0010
0001
1000
,
0100
0000
0000
1100
0000
0000
0001
0000
0100
0010
0000
0000
,
0110
0000
0000
1000
0000
0000
0001
0000
0010
0100
0000
0110
,
0000
0000
0000
0010
0000
0000
0001
0000
1000
0001
0000
2002
,
0000
0000
0000
0000
,
3003
0000
0000
0000
;

//---------------dance-single - Blank----------------
#NOTES:
     dance-single:
     :
     Easy:
     4:
     0.317,0.305,0.161,0.367,0.000,231.000,22.000,50.000,0.000,0.000,0.000,0.317,0.305,0.161,0.367,0.000,231.000,22.000,50.000,0.000,0.000,0.000:
0000
0000
0000
0000
,
0010
0000
1000
0100
,
1000
0000
0010
0100
,
0001
0000
1000
0001
,
0100
0000
0010
0100
,
0010
0000
1000
0100
,
0010
0000
0001
0100
,
0020
0000
2030
0000
,
3001
0010
0100
0000
,
1000
0100
1000
0001
,
0200
0000
0302
0000
,
1003
0010
0100
0010
,
1000
0000
0001
0010
,
0001
1000
0010
0100
,
0010
0000
1000
0000
,
0100
0010
0001
1000
,
0010
0000
1000
0000
,
0010
0100
0010
1000
,
0200
0000
0320
0000
,
0031
0100
0010
0100
,
0002
0000
2003
0000
,
3010
0100
0001
1000
,
0200
0000
0320
0000
,
0031
0010
0100
1000
,
0002
0000
2003
0000
,
3010
0100
0010
1000
,
2002
0000
0000
3003
,
0100
0001
0010
0001
,
0220
0000
0030
0301
,
1000
0001
0010
0001
,
2002
0000
0000
3003
,
0100
0010
1000
0100
,
2200
3000
0010
1300
,
0001
0100
1000
0100
,
0002
0000
0023
0000
,
0130
1000
0010
0100
,
0020
0000
0230
0000
,
0301
0101
1000
0000
,
1000
1010
0100
0001
,
1000
0110
1000
0010
,
0100
1001
0001
0010
,
0200
1000
0000
1300
,
2000
0010
0000
3010
,
0020
0100
0000
1030
,
0002
0010
1000
1003
,
0200
1300
2000
3001
,
0002
0103
0010
1000
,
0020
0130
0200
0301
,
0010
0100
1000
0001
,
0010
0100
0010
0001
,
0200
0000
0000
0301
,
1000
0100
0010
0001
,
0002
0000
0000
1003
,
0001
0010
0100
0010
,
0002
0000
0000
0103
,
0010
1000
0100
0010
,
0200
0000
0320
0000
,
0031
1000
0100
0010
,
2002
0000
0000
3003
,
0010
0100
0010
1000
,
2020
0000
0030
3001
,
0100
0010
0110
0000
,
0100
0001
1000
2100
,
0002
3000
0103
0010
,
0110
0000
1000
0100
,
0020
0000
0031
0100
,
0101
0000
0001
1000
,
1001
0000
0010
0100
,
0101
1000
0100
0010
,
1001
0000
1000
0001
,
0101
0000
1000
0010
,
0100
0110
0100
0001
,
0010
0011
0001
1000
,
2002
0000
0003
3010
,
0020
0000
0000
0130
,
0220
0000
0000
0330
;

//---------------dance-single - Blank----------------
#NOTES:
     dance-single:
     :
     Medium:
     6:
     0.379,0.361,0.154,0.183,0.422,316.000,21.000,25.000,0.000,0.000,0.000,0.379,0.361,0.154,0.183,0.422,316.000,21.000,25.000,0.000,0.000,0.000:
0000
0000
0000
0000
,
0000
0000
1000
0000
0000
0001
0000
0000
0100
0000
0000
0010
,
0000
0000
1000
0000
0000
0001
0000
0000
0010
0000
0000
0100
,
0000
0000
1000
0000
0000
0100
0000
0000
0001
0000
0000
0100
,
0000
0000
0010
0000
0000
0100
0000
0000
0001
0000
0000
1000
,
0001
0000
0010
0000
0000
0100
0000
0000
1000
0000
0000
0010
,
0100
0000
0010
0000
0000
1000
0000
0000
0001
0000
0000
0010
,
0100
0000
1000
0000
0000
0001
0000
0000
0100
0000
0000
0010
,
1000
0000
0100
0000
0000
1000
0000
0000
0001
0000
0000
0010
,
0001
1000
0010
0100
,
0020
0100
0000
0130
,
0001
1000
0100
0010
,
0200
0001
0000
0310
,
0001
0100
1000
0100
,
0002
0010
0000
1003
,
0100
0010
0100
1000
,
0020
0000
0000
1000
0000
0000
0000
0000
0000
0130
0000
0010
,
1000
0000
0000
0100
0000
0000
1000
0000
0001
0010
0000
0001
,
0100
0000
0000
0001
0000
0000
1000
0000
0000
0100
0000
0010
,
0100
0000
0000
1000
0000
0000
0100
0000
1000
0010
0000
1000
,
0100
1000
0001
0010
,
0001
0100
0010
1000
,
0200
1000
0000
0310
,
0001
0000
0000
0100
0000
0000
0010
0000
0100
0001
0000
0010
,
0001
0100
0001
1000
,
0010
1000
0100
0010
,
2001
0000
0000
0100
0000
0000
0000
0000
0000
3001
0000
0010
,
0100
0000
0000
1000
0000
0000
0001
0000
0100
0010
0000
0200
,
0000
0000
0002
0000
0000
0000
0303
0000
0000
1000
0000
0000
,
0100
0010
0001
0100
,
0210
0001
0000
0310
,
0100
0000
0000
0001
0000
0000
0010
0000
0001
1000
0000
0200
,
0000
0000
0020
0000
0000
0000
0330
0000
0000
0001
0000
0100
,
0010
0000
0000
1000
0000
0000
0100
0000
1000
0001
0000
0020
,
0000
0000
0000
0000
0000
0000
0000
0000
0000
0031
0000
1000
,
0100
0000
0000
1000
0000
0000
0010
0000
0100
0001
0000
0010
,
0000
0000
1000
0000
0000
0100
1000
0000
0100
1000
0000
0000
,
0001
0000
0000
0020
0000
0200
0000
0000
0000
0330
0000
0000
,
0001
1000
0001
0100
,
0010
0110
0100
0001
,
1000
1001
0010
0100
,
0100
0000
1000
0000
0000
0001
0000
0000
0101
0000
0000
1000
,
0000
0000
0010
0000
0000
0100
0000
0000
0110
0000
0000
0001
,
0000
0000
0101
0000
0000
1100
0000
0000
0101
0000
0000
1100
,
0000
0000
0010
1000
0000
0100
0000
0000
1000
0000
0000
1010
,
0000
0000
0100
0001
0000
0101
0000
0000
0001
0000
0000
0011
,
0000
0000
1000
0100
0000
1100
0000
0000
0001
0000
0000
0100
,
0000
0000
0010
0100
0000
0110
0000
0000
1000
0000
0000
0100
,
0000
0000
1000
0001
0000
0010
0000
0000
0100
0000
0000
1000
,
0001
0000
1000
0010
0000
0000
0100
0000
0000
0001
0000
0000
,
0020
0001
0000
0130
,
1000
0000
0000
0010
0000
0000
0100
0000
0001
0010
0000
0001
,
0100
0000
0000
0001
0000
0000
1000
0000
0000
0010
0000
0100
,
0001
0000
0000
1000
0000
0000
0100
0000
1000
0010
0000
0010
,
0100
0000
0000
0001
0000
0000
0010
0000
0000
0100
0000
1000
,
0001
0000
0000
0100
0000
0001
0010
0000
0010
0100
0000
2000
,
0000
0000
0002
0000
0000
0000
3003
0000
0000
0100
0000
0001
,
0010
0100
1000
0010
,
0200
0000
0000
0010
0000
0000
0000
0000
0000
0310
0000
0100
,
0010
0000
0000
1000
0000
0000
0100
0000
0010
0001
0000
0001
,
0000
0000
0100
0000
0000
0010
1000
0000
1000
0001
0000
0000
,
0100
0000
0000
0010
0000
2000
0000
0000
0000
0000
0000
0000
,
3001
0010
0100
0110
,
0001
0100
0010
0110
,
1000
0100
0010
1001
,
0100
0000
0000
0010
0000
2000
0000
0000
0000
0100
0000
0000
,
0000
0001
0000
3100
,
0001
0000
0000
0100
0000
0002
0000
0000
0000
0010
0000
0000
,
0000
1000
0000
0103
,
0001
0000
0010
0100
0000
1000
0000
0000
0000
1100
0000
0000
,
0000
0000
0000
0001
0000
0000
0010
0000
0001
0100
0000
0000
,
0010
0000
0000
0110
0000
0000
1000
0000
0100
1000
0000
0000
,
0001
0000
0000
1001
0000
0000
1000
0000
0100
0010
0000
0000
,
0200
0000
2300
0000
,
3020
0000
0230
0000
,
0000
0000
0000
0300
;

//---------------dance-double - Blank----------------
#NOTES:
     dance-double:
     :
     Easy:
     1:
     0.082,0.220,0.000,0.103,0.000,64.000,0.000,14.000,0.000,0.000,0.000,0.082,0.220,0.000,0.103,0.000,64.000,0.000,14.000,0.000,0.000,0.000: // measure 0
00000000
00000000
00000000
00000000
,  // measure 1
10000000
01000000
00000000
00100000
,  // measure 2
00001000
01000000
00000000
00010000
,  // measure 3
00100000
00001000
00000000
00010000
,  // measure 4
00000200
00000000
00002300
00000000
,  // measure 5
00003001
00000010
00000000
00000100
,  // measure 6
00010000
00000010
00000000
00000100
,  // measure 7
00000001
00001000
00000000
00000010
,  // measure 8
00020000
00000000
00032000
00000000
,  // measure 9
00103000
00100000
01000000
01000000
,  // measure 10
00020000
00000000
00030200
00000000
,  // measure 11
00001300
00000001
00001000
00000010
,  // measure 12
00000200
00000000
00000000
00000301
,  // measure 13
00000100
00000010
00000100
00000001
,  // measure 14
00002000
00000000
00003200
00000000
,  // measure 15
00010300
00001000
00100000
00001000
,  // measure 16
00020000
00000000
02030000
00000000
,  // measure 17
13000000
10000000
00100000
01000000
,  // measure 18
00200000
00000000
00000000
10300000
,  // measure 19
00100000
01000000
00001000
00100000
,  // measure 20
00020000
00000000
00000000
00130000
,  // measure 21
00001000
00010000
00000100
00001000
,  // measure 22
00000020
00000000
00000000
00000030
,  // measure 23
00000000
00000000
00000000
00000000
,  // measure 24
00000000
00000000
00000000
00000000
,  // measure 25
00000000
00000000
00000000
00000000
,  // measure 26
00000000
00000000
00000000
00000000
,  // measure 27
00000000
00000000
00000000
00000000
,  // measure 28
00000000
00000000
00000000
00000000
,  // measure 29
00000000
00000000
00000000
00000000
,  // measure 30
00000000
00000000
00000000
00000000
,  // measure 31
00000000
00000000
00000000
00000000
,  // measure 32
00000000
00000000
00000000
00000000
,  // measure 33
00000000
00000000
00000000
00000000
,  // measure 34
00000000
00000000
00000000
00000000
,  // measure 35
00000000
00000000
00000000
00000000
,  // measure 36
00000000
00000000
00000000
00000000
,  // measure 37
00000000
00000000
00000000
00000000
,  // measure 38
00000000
00000000
00000000
00000000
,  // measure 39
00000000
00000000
00000000
00000000
,  // measure 40
00000000
00000000
00000000
00000000
,  // measure 41
00000000
00000000
00000000
00000000
,  // measure 42
00000000
00000000
00000000
00000000
,  // measure 43
00000000
00000000
00000000
00000000
,  // measure 44
00000000
00000000
00000000
00000000
,  // measure 45
00000000
00000000
00000000
00000000
,  // measure 46
00000000
00000000
00000000
00000000
,  // measure 47
00000000
00000000
00000000
00000000
,  // measure 48
00000000
00000000
00000000
00000000
,  // measure 49
00000000
00000000
00000000
00000000
,  // measure 50
00000000
00000000
00000000
00000000
,  // measure 51
00000000
00000000
00000000
00000000
,  // measure 52
00000000
00000000
00000000
00000000
,  // measure 53
00000000
00000000
00000000
00000000
,  // measure 54
00000000
00000000
00000000
00000000
,  // measure 55
00000000
00000000
00000000
00000000
,  // measure 56
00000000
00000000
00000000
00000000
,  // measure 57
00000000
00000000
00000000
00000000
,  // measure 58
00000000
00000000
00000000
00000000
,  // measure 59
00000000
00000000
00000000
00000000
,  // measure 60
00000000
00000000
00000000
00000000
,  // measure 61
00000000
00000000
00000000
00000000
,  // measure 62
00000000
00000000
00000000
00000000
,  // measure 63
00000000
00000000
00000000
00000000
,  // measure 64
00000000
00000000
00000000
00000000
,  // measure 65
00000000
00000000
00000000
00000000
,  // measure 66
00000000
00000000
00000000
00000000
,  // measure 67
00000000
00000000
00000000
00000000
,  // measure 68
00000000
00000000
00000000
00000000
,  // measure 69
00000000
00000000
00000000
00000000
,  // measure 70
00000000
00000000
00000000
00000000
,  // measure 71
00000000
00000000
00000000
00000000
,  // measure 72
00000000
00000000
00000000
00000000
,  // measure 73
00000000
00000000
00000000
00000000
,  // measure 74
00000000
00000000
00000000
00000000
,  // measure 75
10000000
00000000
00000000
00000000
;
