#TITLE:威風堂々;
#SUBTITLE:;
#ARTIST:kradness;
#TITLETRANSLIT:ifuudoudou;
#SUBTITLETRANSLIT:;
#ARTISTTRANSLIT:;
#GENRE:;
#CREDIT:;
#BANNER:ifuudoudou.png;
#BACKGROUND:;
#LYRICSPATH:;
#CDTITLE:;
#MUSIC:ifuudoudou.ogg;
#OFFSET:-0.019000;
#SAMPLESTART:89.702766;
#SAMPLELENGTH:14.999998;
#SELECTABLE:YES;
#BPMS:0.000000=130.018005
;
#STOPS:
;
#BGCHANGES:;
#KEYSOUNDS:;
#ATTACKS:;

//---------------dance-single - ----------------
#NOTES:
     dance-single:
     :
     Beginner:
     1:
     0.157249,0.186515,0.000000,0.000000,0.000000,126.000000,126.000000,0.000000,0.000000,0.000000,0.000000,0.157249,0.186515,0.000000,0.000000,0.000000,126.000000,126.000000,0.000000,0.000000,0.000000,0.000000:
0000
0000
0000
0000
,
0000
0000
0000
0000
,
0000
0000
0000
0000
,
0000
0000
0000
0000
,
1000
0000
0000
0000
,
0001
0000
1000
0000
,
0001
0000
0100
0000
,
0100
0000
0010
0000
,
0010
0000
1000
0000
,
0001
0000
1000
0000
,
0001
0000
0100
0000
,
0010
0000
1000
0000
,
0100
0000
0100
0000
,
1000
0000
1000
0000
,
0001
0000
0001
0000
,
0100
0100
0100
0000
,
0010
0000
0010
0000
,
1000
0000
1000
0000
,
0001
0000
0001
0000
,
0100
0100
0100
0000
,
0010
0000
0010
0000
,
1000
0000
1000
0000
,
0001
0000
0001
0000
,
1000
0000
0000
0000
,
1000
1000
1000
0000
,
0001
0001
0001
0000
,
0100
0100
0100
0000
,
0010
0000
0010
0000
,
1000
0000
1000
0000
,
0001
0000
0001
0000
,
0100
0000
0100
0000
,
0010
0010
0010
0000
,
1000
0000
0001
0000
,
1000
0000
0010
0000
,
1000
0000
0000
0000
,
0001
0000
0000
0000
,
1000
0000
0000
0000
,
0001
0000
0100
0000
,
0001
0000
0100
0000
,
0001
0001
0001
0001
,
1000
0000
1000
0000
,
1000
0000
1000
0000
,
0010
0000
0010
0000
,
0100
0000
0100
0000
,
0001
0000
0001
0000
,
1000
1000
1000
0000
,
0010
0000
0010
0000
,
0100
0100
0100
0000
,
0001
0000
0001
0000
,
1000
1000
1000
0000
,
0001
0001
0001
0000
,
0100
0100
0100
0000
,
0010
0000
0010
0000
,
0100
0100
0100
0000
,
0001
0001
0001
0000
,
1000
1000
1000
0000
,
0010
0000
0010
0000
,
0100
0000
0001
0000
,
1000
0000
0001
0000
,
0100
0000
0010
0000
,
0100
0000
0010
0000
,
0100
0000
0000
0000
;

//---------------dance-single - ----------------
#NOTES:
     dance-single:
     :
     Easy:
     6:
     0.285794,0.373030,0.288290,0.000000,0.000000,229.000000,196.000000,33.000000,0.000000,0.000000,0.000000,0.285794,0.373030,0.288290,0.000000,0.000000,229.000000,196.000000,33.000000,0.000000,0.000000,0.000000:
0000
0000
0000
0000
,
0000
0000
0000
0000
,
0000
0000
0000
0000
,
0000
0000
0000
0000
,
0001
0000
1000
0000
,
0001
0000
0100
0000
,
0010
0000
0010
0000
,
1000
0000
1000
0000
,
0001
0000
0001
0000
,
0100
0000
0100
0000
,
0010
0000
0010
0000
,
1000
0000
1000
0000
,
0001
0000
0100
0100
,
0010
0000
1000
1000
,
0001
0000
0100
0100
,
0001
0001
0100
1000
,
1000
0100
0001
0010
,
1000
0010
0001
0100
,
0010
0100
0001
1000
,
0100
0100
0100
0100
,
1000
0010
0100
0010
,
0001
0010
0100
0010
,
1000
0001
1000
0001
,
0100
0001
0100
0000
,
0001
0001
1001
0000
,
1000
1000
1010
0000
,
0010
0010
0110
0000
,
0100
0100
0101
0000
,
1001
1001
1001
0000
,
0110
0110
0110
0000
,
1001
1001
1001
0000
,
0110
0110
0110
0000
,
1000
0001
0100
0001
,
0010
0001
0100
0001
,
0010
0001
0000
0000
,
1000
0000
0001
0000
,
1000
1000
1000
0010
,
0100
0100
0100
0001
,
1000
0001
0100
0100
,
0010
0010
0010
0010
,
1000
0100
0001
1000
,
0100
0001
0001
0010
,
1000
0001
0010
1000
,
1000
0100
0001
1000
,
0100
0100
0001
0010
,
0010
1000
0100
0100
,
0001
0010
0010
1000
,
1001
0110
1001
0000
,
0010
0010
0010
0010
,
0100
0001
0010
0001
,
0100
0010
1000
0010
,
0100
0001
0100
1000
,
0100
0001
0100
0010
,
1010
1000
1001
0001
,
0101
0100
0110
0010
,
1010
1000
1001
0001
,
0101
0100
0110
0100
,
0110
0010
1000
0001
,
0100
0001
0010
0001
,
0010
0100
1000
0100
,
1100
1001
1100
1001
,
0101
0000
0000
0000
;

//---------------dance-single - ----------------
#NOTES:
     dance-single:
     :
     Medium:
     9:
     0.374403,0.483541,0.253346,0.026208,0.000000,300.000000,271.000000,29.000000,3.000000,0.000000,0.000000,0.374403,0.483541,0.253346,0.026208,0.000000,300.000000,271.000000,29.000000,3.000000,0.000000,0.000000:
0000
0000
0000
0000
,
0000
0000
0000
0000
,
0000
0000
0000
0000
,
0000
0000
0000
0000
,
0100
0010
1000
0001
,
1000
0010
0100
0010
,
1000
0100
0010
0001
,
0100
0001
1000
0010
,
1000
0001
0100
0001
,
0010
0001
1000
0100
,
1000
0010
0100
0010
,
1000
0001
0100
0001
,
0010
0000
0001
0000
1000
0001
1000
0000
,
0100
0000
1000
0000
0100
1000
0100
0000
,
0010
0000
0001
0000
1000
0001
1000
0000
,
0001
0001
0100
1000
,
1000
0010
0001
0001
,
0100
0010
1000
1000
,
0001
0000
0001
0000
0100
0010
0100
0000
,
0010
1000
0100
0000
0001
0100
1000
0000
,
0010
0001
0010
1000
,
0001
0100
0001
0000
1000
0100
1000
0000
,
0010
0100
0000
0100
0010
0000
1000
0001
,
1000
0100
1000
0001
,
0100
0001
0100
0000
0001
0000
0010
0001
,
0010
0000
0001
0000
1001
0000
0100
1000
,
0100
0000
1000
0000
1010
0000
0010
0100
,
0010
0000
0100
0000
0101
0000
0001
1000
,
0001
1001
1001
1010
,
1010
0110
0110
0101
,
0101
1001
1001
1100
,
1100
0110
0110
0011
,
0011
0000
0001
0100
0010
0000
1000
0000
,
0001
0000
1000
0001
1000
0000
0001
0100
,
0001
0000
0100
0000
,
0010
0000
0000
0000
,
1000
0000
0001
0000
0010
0001
0010
0000
,
0001
0000
0100
0000
0010
0100
0010
0000
,
1000
0000
0100
0000
1000
0100
1000
0000
,
0001
0100
1000
0000
0001
0100
1000
0000
,
1000
0100
0001
0000
1000
0100
0001
0000
,
1000
0010
0001
0000
1000
0010
0001
0000
,
0001
0000
0100
0000
1000
0100
0001
0000
,
0001
0010
1000
0010
,
0001
0000
1100
0000
0001
0000
1000
0001
,
1000
0001
1000
0000
0010
0000
0110
0000
,
0010
0100
0000
0100
0010
0000
1000
0100
,
1000
0100
0010
0001
0010
0001
0100
0010
,
0100
0100
0010
0010
1000
0001
0100
0000
,
0001
1000
0001
0000
1000
0000
0100
1000
,
0100
0000
0010
0000
0001
0000
1000
0001
,
1000
0000
0001
0000
0100
0000
0010
0100
,
0010
0100
0010
1000
,
1001
0001
0101
0100
,
0110
0010
1010
1000
,
1100
0100
0110
0010
,
0011
0001
0101
0100
,
0010
0000
1000
0001
1000
0000
0100
0000
,
1000
0001
1000
0000
0001
0000
0010
0000
,
0001
0000
0100
0010
0200
0000
0310
0100
,
0020
0130
0001
1000
,
0002
0000
0003
0000
;

//---------------dance-single - ----------------
#NOTES:
     dance-single:
     :
     Hard:
     12:
     0.587812,0.568718,0.594052,0.174721,0.148513,471.000000,403.000000,68.000000,20.000000,100.000000,0.000000,0.587812,0.568718,0.594052,0.174721,0.148513,471.000000,403.000000,68.000000,20.000000,100.000000,0.000000:
// measure 0
0000
0000
0000
0000
,  // measure 1
0000
0000
0000
0000
,  // measure 2
0000
0000
0000
0000
,  // measure 3
0000
0000
0000
0000
,  // measure 4
0010
1001
0000
1000
0010
1000
0000
0001
,  // measure 5
0100
0001
0000
0110
0000
1001
0000
0010
,  // measure 6
1000
0000
0001
1000
0001
0000
0011
0000
0000
0000
1100
0000
0000
0000
0010
0001
,  // measure 7
0000
0000
0100
1000
0000
0000
0010
0001
0000
0000
0100
1000
0000
0000
0001
0000
,  // measure 8
1000
1001
0000
0101
0000
1100
0000
1010
,  // measure 9
0000
0011
0000
1001
0000
1010
0000
0100
,  // measure 10
0010
0110
0000
1001
0000
0110
0000
1001
,  // measure 11
0000
1100
0000
0011
0000
1100
0000
0011
,  // measure 12
0000
0000
0001
1000
0001
0000
1000
0000
0100
0000
0010
0000
0100
0000
1000
0000
,  // measure 13
0000
0000
1000
0001
1000
0000
0001
0000
0010
0000
0100
0000
0010
0000
0001
0000
,  // measure 14
0000
0000
1000
0001
1000
0000
0100
0000
0010
0000
0001
0000
0010
0000
0100
0000
,  // measure 15
1000
0100
0001
0100
1000
0100
0001
0100
,  // measure 16
1000
0000
0001
0100
0001
0000
1000
0000
0010
0000
0010
0000
0001
0000
2000
0000
,  // measure 17
0000
0000
3001
1000
0001
0000
1000
0000
0100
0000
0100
0000
0001
0000
2000
0000
,  // measure 18
0000
0000
3100
0000
0010
0001
0010
0000
0100
0000
1000
0000
0010
0000
1000
0000
,  // measure 19
0001
0100
1000
0010
0001
0100
1000
0010
,  // measure 20
0001
0101
0000
1000
1010
1000
0001
1000
,  // measure 21
0001
0100
1000
0010
0001
0100
0020
0000
,  // measure 22
1030
1010
0000
0001
0011
0001
1000
0100
,  // measure 23
0010
0001
0202
0000
0000
0000
0000
0303
,  // measure 24
0001
0000
0001
0000
1000
0000
1000
0000
0010
0000
0100
0010
0100
0000
0001
0000
,  // measure 25
1000
0000
1000
0000
0010
0000
0010
0000
1000
0000
0001
0000
0100
0001
0100
0000
,  // measure 26
1000
0000
0100
0000
0001
0000
0100
0000
0010
0000
1000
0100
1000
0000
0001
0000
,  // measure 27
0100
0000
0100
0000
0010
0000
0010
0000
1000
0000
0001
1000
0001
0000
0010
0000
,  // measure 28
0011
MMMM
0011
MMMM
0011
MMMM
0011
MMMM
,  // measure 29
1100
MMMM
1100
MMMM
1100
MMMM
1100
MMMM
,  // measure 30
1001
MMMM
1001
MMMM
1001
MMMM
1001
MMMM
,  // measure 31
0011
0001
0110
0010
1100
0100
1001
1000
,  // measure 32
0010
0010
0100
0000
0001
0001
1000
1000
,  // measure 33
0010
0000
0100
0001
0100
0000
0001
0000
0010
0000
0100
0000
1000
0000
0001
0000
,  // measure 34
1000
0000
0010
1000
0000
0000
0001
0010
0000
0000
1000
0100
0000
0000
0001
1000
,  // measure 35
0000
0000
0010
0001
0000
2000
0000
3000
0000
0000
MMMM
0000
0000
0000
0000
0000
,  // measure 36
0100
0100
0010
1000
0001
0001
0100
1000
,  // measure 37
0000
1000
1000
0100
0001
0001
0010
1000
,  // measure 38
0000
1000
1000
0010
0001
0001
0100
0100
,  // measure 39
0001
0100
1000
0100
0001
0100
1000
0100
,  // measure 40
0001
0000
0001
0000
0010
0000
0010
0000
0200
0000
0000
0000
1300
0001
1000
0000
,  // measure 41
0100
0100
0010
0010
0002
0000
0103
0010
,  // measure 42
0110
0000
0000
0010
1000
0100
1000
0001
,  // measure 43
0100
0000
0100
0000
0010
0100
0010
0000
0100
0000
0100
0000
0010
0000
0010
0000
,  // measure 44
1000
2002
3003
0001
1002
1003
0100
0001
,  // measure 45
0010
1000
0100
0001
0010
1000
0002
0000
,  // measure 46
1003
2002
3003
0001
0102
0103
0010
0100
,  // measure 47
1001
0110
1001
0110
,  // measure 48
0001
0000
0001
0000
0001
0000
0001
0000
2002
3003
0000
0000
0000
0000
0000
0000
,  // measure 49
1000
0000
1000
0000
0010
0000
0010
0000
0100
0000
0001
1000
0001
0000
1000
0000
,  // measure 50
0010
0000
0010
0000
0100
0000
0100
0000
0001
0000
1000
0000
0010
1000
0010
0000
,  // measure 51
0100
0000
0100
0000
0001
0000
0010
0000
0001
0000
1000
0100
1000
0000
0010
0000
,  // measure 52
0100
0000
0100
0000
0010
0000
0010
0000
1001
0000
1000
0001
1000
0000
0010
0000
,  // measure 53
0110
MMMM
1001
MMMM
0110
MMMM
1001
MMMM
,  // measure 54
1100
MMMM
0011
MMMM
1100
MMMM
0011
MMMM
,  // measure 55
1010
MMMM
0011
MMMM
1010
MMMM
0011
MMMM
,  // measure 56
1100
1000
0110
0100
0011
0010
1001
0001
,  // measure 57
2000
0000
3010
1000
0001
0001
0100
1000
,  // measure 58
0100
0100
0001
0010
0001
1000
0100
0010
,  // measure 59
0002
0100
0103
0010
1000
1000
0100
0010
,  // measure 60
0001
0100
0000
0000
1000
0010
0000
0000
0100
0001
0000
0000
1000
0010
0000
0000
,  // measure 61
1000
0000
0100
0000
0001
0000
0010
0000
1000
0100
1000
0100
2000
0000
0000
0000
,  // measure 62
3000
0000
0000
0000
;
