#TITLE:xepher (light and darkness dragon mix);
#SUBTITLE:;
#ARTIST:Tatsh;
#TITLETRANSLIT:;
#SUBTITLETRANSLIT:;
#ARTISTTRANSLIT:;
#GENRE:;
#CREDIT:;
#BANNER:Xepher -Light and Darkness Dragon Remix-.png;
#BACKGROUND:Xepher -Light and Darkness Dragon Remix--bg.png;
#LYRICSPATH:;
#CDTITLE:;
#MUSIC:Xepher -Light and Darkness Dragon Remix-.ogg;
#OFFSET:-3.999000;
#SAMPLESTART:49.331547;
#SAMPLELENGTH:15.000000;
#SELECTABLE:YES;
#BPMS:0.000000=179.975998
;
#STOPS:
;
#BGCHANGES:;
#KEYSOUNDS:;
#ATTACKS:;

//---------------dance-single - ----------------
#NOTES:
     dance-single:
     :
     Beginner:
     1:
     0.127683,0.174774,0.000000,0.000000,0.000000,101.000000,101.000000,0.000000,0.000000,0.000000,0.000000,0.127683,0.174774,0.000000,0.000000,0.000000,101.000000,101.000000,0.000000,0.000000,0.000000,0.000000:
0000
0000
0000
0000
,
0000
0000
0000
0000
,
0000
0000
0000
0000
,
0000
0000
0000
0000
,
0000
0000
0000
0000
,
0000
0000
0000
0000
,
0001
0000
0000
0000
,
1000
0000
0000
0000
,
0100
0000
0000
0000
,
1000
0000
0000
0000
,
0010
0000
0000
0000
,
0100
0000
0000
0000
,
0001
0000
0000
0000
,
1000
0000
0000
0000
,
0000
0000
0000
0000
,
0000
0000
0000
0000
,
0000
0000
0000
0000
,
0001
0000
1000
0000
,
0001
0000
0000
0000
,
0100
0000
0010
0000
,
0100
0000
0000
0000
,
0010
0000
1000
0000
,
0010
0000
0000
0000
,
1000
0000
0100
0000
,
1000
0000
0000
0000
,
0001
0000
0001
0000
,
0001
0000
0000
0000
,
0100
0000
0100
0000
,
0000
0000
0000
0000
,
0010
0000
0010
0000
,
0000
0000
0000
0000
,
1000
0000
1000
1000
,
0000
0000
0000
0000
,
0001
0000
0000
0000
,
1000
0000
1000
0000
,
0010
0000
0010
0000
,
0100
0000
0100
0000
,
0001
0000
0001
0000
,
1000
0000
1000
0000
,
0010
0000
0010
0000
,
0100
0000
0100
0000
,
0001
0000
0001
0000
,
1000
0000
1000
0000
,
0100
0000
0100
0000
,
0010
0000
0010
0000
,
0001
0000
0001
0000
,
1000
0000
0000
0100
,
0000
0000
1000
0000
,
0010
0000
0100
0000
,
0001
0000
0010
0000
,
0100
0000
1000
0000
,
0001
0000
0010
0000
,
0001
0000
0000
0000
,
1000
0000
0000
0000
,
0100
0000
0000
0000
,
0100
0000
0000
0000
,
0010
0000
0000
0000
,
0010
0000
0000
0000
,
0001
0000
0000
0000
,
0001
0000
0000
0000
,
1000
0000
0000
0000
,
1000
0000
0000
0000
,
0100
0000
0000
0000
,
0100
0000
0000
0000
,
0010
0000
0010
0000
,
0001
0000
0001
0000
,
1000
0000
1000
0000
,
0100
0000
0000
0000
,
0100
0000
0100
0000
,
0010
0000
0000
0000
,
0001
0000
0001
0000
,
1000
0000
0000
0000
,
1000
0000
0000
0000
,
0010
0000
0010
0000
,
0100
0000
0000
0000
,
0100
0000
0000
0000
,
0001
0000
0000
0000
,
1000
0000
0000
0000
,
0001
0000
1000
0000
,
0001
0000
0000
0000
;

//---------------dance-single - ----------------
#NOTES:
     dance-single:
     :
     Easy:
     5:
     0.265480,0.419458,0.097343,0.194685,0.000000,210.000000,199.000000,11.000000,22.000000,0.000000,0.000000,0.265480,0.419458,0.097343,0.194685,0.000000,210.000000,199.000000,11.000000,22.000000,0.000000,0.000000:
0000
0000
0000
0000
,
0000
0000
0000
0000
,
0000
0000
0000
0000
,
0000
0000
0000
0000
,
0000
0000
0000
0000
,
0000
0000
0000
0000
,
1000
0000
0000
0000
,
0010
0000
1000
0000
,
0010
0000
0100
0000
,
0010
0000
1000
0000
,
0001
0000
0100
0000
,
0010
0000
0100
0000
,
0002
0000
0000
0000
,
2003
0000
0000
0000
,
0000
0000
0000
0000
,
3010
0000
0000
0000
,
0000
0000
0000
0000
,
0100
0100
0001
0010
,
0001
0000
0000
0000
,
1000
1000
0010
0100
,
0001
0000
0000
0000
,
0100
0100
0010
1000
,
0001
0000
0000
0000
,
1000
1000
0010
0100
,
0000
0000
0001
0000
,
1000
1000
0010
0010
,
0100
0000
0001
0000
,
1000
1000
0001
0001
,
0010
0000
0100
0000
,
0100
0100
1000
1000
,
0001
0000
0010
0000
,
0001
0001
1000
1000
,
0100
0100
0010
0010
,
0002
0000
0000
0000
,
1003
0100
1000
0010
,
0100
0001
0010
0001
,
1000
1000
0010
0010
,
0100
0000
0001
0000
,
0010
0010
0100
0100
,
1000
0000
0001
0000
,
0100
0010
0100
0000
,
0001
0010
0001
0000
,
2000
0000
3200
0000
,
0320
0000
0032
0000
,
2003
0100
3200
0010
,
0301
0000
0001
0000
,
1000
0100
1000
0010
,
0200
0010
0310
0001
,
0002
1000
1003
0100
,
0010
0001
1000
0100
,
2000
0010
3010
0100
,
0010
1000
0001
0010
,
0002
0000
0000
0000
,
0203
0000
0000
0000
,
0310
1000
0010
0100
,
0001
0010
0100
1000
,
0002
1003
0010
0100
,
0020
1030
0001
1000
,
0200
0310
0001
0010
,
0011
0001
0100
0010
,
0110
0100
0001
1000
,
1001
1000
0010
0100
,
0002
0000
1003
0100
,
2000
0000
3010
0100
,
0020
0000
0130
0001
,
0100
0000
0001
0010
,
0001
0000
1000
0100
,
1100
0000
0010
0100
,
0110
0000
0101
0000
,
1001
0000
1000
0010
,
1010
0000
0110
0000
,
0101
0000
0001
0000
,
1000
0000
0000
0000
,
0002
0000
2003
0000
,
3010
0000
0100
0000
,
0001
0000
1000
0000
,
0001
0010
0001
0100
,
0010
0000
0000
0000
,
0001
1000
0001
1000
,
1001
0000
0000
0000
;

//---------------dance-single - ----------------
#NOTES:
     dance-single:
     :
     Medium:
     9:
     0.336274,0.454413,0.097343,0.194685,0.000000,266.000000,255.000000,11.000000,22.000000,0.000000,0.000000,0.336274,0.454413,0.097343,0.194685,0.000000,266.000000,255.000000,11.000000,22.000000,0.000000,0.000000:
0000
0000
0000
0000
,
0000
0000
0000
0000
,
0000
0000
0000
0000
,
0000
0000
0000
0000
,
0000
0000
0000
0000
,
0000
0000
0000
0000
,
0002
0000
0000
0000
,
2003
0000
0000
0000
,
3020
0000
0230
0000
,
0302
0000
2003
0000
,
3002
0000
0023
0000
,
0230
0000
2300
0000
,
3002
0000
0000
0000
,
0203
0000
0000
0000
,
0000
0000
0000
0000
,
0300
0000
0000
0000
,
0000
0000
0000
0000
,
0001
0000
1000
0000
0001
1000
0001
0000
,
0100
0010
0100
0010
,
1000
0100
1000
0100
,
0010
0001
0010
0001
,
0100
0000
0010
0000
0100
0010
0100
0000
,
0010
1000
0100
1000
,
0001
0100
0010
0100
,
0001
1000
0001
1000
,
0001
0100
0001
0100
,
0000
0000
0010
0000
,
1000
0000
0100
0000
1000
0100
1000
0000
,
0001
0000
0000
0000
,
0100
0000
0010
0000
0100
0010
0100
0000
,
0010
0000
0000
0000
,
1000
0000
0100
0000
1000
0100
1000
0000
,
0001
0100
0010
0100
,
0020
0000
0000
0000
,
1030
0001
1000
0000
0001
0000
0100
0000
,
0010
0100
0001
0010
,
0100
1000
0100
0000
1000
0000
0001
0000
,
0101
0100
0010
1000
,
0100
0010
0001
0010
,
0100
1000
0001
0100
,
0010
1000
0010
0000
0100
0001
0100
0000
,
0001
0010
0001
0000
0010
0100
0010
0000
,
0100
1000
0001
0100
,
0101
0100
0010
1000
,
0100
0010
0001
1000
,
1001
1001
0110
0110
,
0001
0010
0100
1000
,
0002
0000
0100
0003
0010
0000
1000
0000
,
0200
0310
0002
1003
,
0100
1000
0010
0100
,
0002
1003
2000
3010
,
0100
0100
0001
0001
,
0010
0000
0000
0000
,
0100
1000
0010
0100
,
0001
0100
0001
0000
0100
0001
0100
0000
,
0010
1000
0010
0000
1000
0010
1000
0000
,
0100
0010
0001
0100
,
0110
0010
0110
0100
,
0101
0001
1000
0100
,
1000
0010
0100
0010
,
1000
0001
0100
0001
,
0010
0001
0010
0000
0100
1000
0100
0000
,
1000
0001
0100
0001
,
1000
0010
0100
0010
,
1000
0001
0100
0001
,
1000
1000
0010
0010
,
0100
0001
0100
1000
,
0100
0001
0010
1000
,
0020
0000
0032
0000
,
0103
0010
1000
0010
,
0100
0100
0100
0100
,
0101
0000
0001
1000
,
0001
0000
0000
0000
,
2000
0000
3020
0000
,
0130
0001
0100
0000
0001
0000
1000
0000
,
0001
1000
0001
0000
1000
0000
0010
0000
,
0100
0010
0100
0000
0010
0000
1000
0000
,
0100
0000
0000
0000
,
0010
0001
0100
0010
,
1010
0000
0000
0000
;

//---------------dance-single - ----------------
#NOTES:
     dance-single:
     :
     Challenge:
     18:
     0.907688,1.168111,0.141589,0.504411,1.092891,718.000000,702.000000,16.000000,57.000000,0.000000,0.000000,0.907688,1.168111,0.141589,0.504411,1.092891,718.000000,702.000000,16.000000,57.000000,0.000000,0.000000:
// measure 0
0000
0000
0000
0000
,  // measure 1
0000
0000
0000
0000
,  // measure 2
0000
0000
0000
0000
,  // measure 3
0000
0000
0000
0000
,  // measure 4
0000
0000
0000
0000
,  // measure 5
0000
0000
0000
0000
,  // measure 6
2001
0000
0000
0000
0000
0000
0000
0000
0000
0000
0000
0000
0000
0000
3010
0100
,  // measure 7
0020
0000
0000
0230
,  // measure 8
0302
0000
2003
0000
,  // measure 9
3200
0000
0320
0000
,  // measure 10
0032
0000
2003
0000
,  // measure 11
3020
0000
0000
0000
,  // measure 12
0230
0000
0000
0000
,  // measure 13
0302
0000
0000
0000
,  // measure 14
0000
0000
0000
0000
,  // measure 15
0003
0000
0000
0000
,  // measure 16
0000
0000
0000
0000
0000
0000
0000
0000
0000
0000
0001
1000
0001
0000
1000
0000
,  // measure 17
0010
0000
0110
0000
0100
0001
0010
0100
,  // measure 18
1000
0000
0001
1000
0001
0000
0100
0000
0010
0100
0010
0000
1000
0000
0001
0000
,  // measure 19
0010
0000
0001
0000
0100
0000
0000
0000
0010
1000
0010
0000
0100
0000
0001
0000
,  // measure 20
1000
0000
0010
1000
0010
0000
1000
0001
1000
0000
0001
0000
0100
0000
0010
0000
,  // measure 21
0100
0000
0001
0000
1000
0000
0100
1000
0100
0000
0010
0000
0001
0000
1000
0000
,  // measure 22
0001
0000
0100
0001
0100
0000
0001
1000
0001
0000
0100
0000
0001
0000
0010
0000
,  // measure 23
0001
0000
0001
0000
1000
0100
1000
0010
,  // measure 24
1000
0000
0001
0000
1000
0000
0010
0000
0100
0010
0000
0010
1000
0001
1000
0000
,  // measure 25
0010
1000
0010
1000
0001
0100
0001
0100
0010
1000
0010
1000
0001
0000
0001
0000
,  // measure 26
0010
0000
0001
0000
0100
0000
0010
1000
0000
1000
0001
1000
0001
1000
0001
0000
,  // measure 27
0010
0001
0010
0001
0100
0001
0100
0001
1000
0001
1000
0001
0100
0000
0100
0000
,  // measure 28
0010
0000
1000
0000
0001
0000
1000
0001
1000
0001
0100
0000
0001
0100
0001
0100
,  // measure 29
0001
0010
0100
1000
0001
0010
0100
1000
0001
0010
0100
1000
0010
0000
0010
0000
,  // measure 30
1000
0000
0100
0000
1000
0000
0001
1000
0000
0001
0100
0000
0001
0010
0001
0000
,  // measure 31
1000
0100
0010
0001
1000
0100
0010
0001
1000
0100
0010
0001
0100
0010
0200
0000
,  // measure 32
0300
0000
0010
0000
0010
0000
0010
0000
0010
0100
0010
0100
0010
0100
0010
0100
,  // measure 33
0020
0000
0000
0000
,  // measure 34
1030
0100
0010
0100
1000
0100
0010
0100
1000
0100
0010
0100
1000
0100
0010
0000
,  // measure 35
0001
0010
0100
0010
0001
0010
0100
0010
0001
0010
0100
0010
0001
0010
0100
0000
,  // measure 36
0010
0001
1000
0001
0010
0001
1000
0001
0010
0001
1000
0001
0010
0001
1000
0000
,  // measure 37
0100
1000
0001
1000
0100
1000
0001
1000
0100
1000
0001
1000
0100
1000
0001
0000
,  // measure 38
1000
0100
1000
0001
0010
0001
1000
0100
1000
0001
0010
0001
1000
0100
1000
0000
,  // measure 39
0010
0100
0010
1000
0001
1000
0010
0100
0010
1000
0001
1000
0010
0100
0010
0000
,  // measure 40
1000
0100
0010
0001
0100
0000
0001
0010
0100
1000
0010
0000
1000
0001
0100
0010
,  // measure 41
0100
0100
0000
0000
0010
0010
1000
0001
1000
0100
0010
0001
1000
0001
0010
0100
,  // measure 42
2000
0000
3200
0000
1300
0100
0010
0001
0010
0100
1000
0000
0001
0000
0100
0000
,  // measure 43
0002
0000
0023
0000
0031
0010
0100
1000
0100
0010
0001
0000
1000
0000
0010
0000
,  // measure 44
2000
0000
0100
0000
0100
0000
3100
0010
0002
0000
0100
0000
0100
0000
0103
0000
,  // measure 45
0110
0000
0010
0000
1010
0000
1000
0000
0001
1000
0001
1000
0010
0000
0100
0010
,  // measure 46
0200
0000
0001
0000
0001
0000
0301
1000
0020
0000
1000
0000
1000
0000
1030
0000
,  // measure 47
1001
0000
0001
0000
0101
0000
0100
0010
0100
0010
1000
0000
0100
0000
1000
0000
,  // measure 48
2100
0000
0100
0000
0100
0000
3100
0001
0200
0000
0010
0000
0310
0001
0010
0001
,  // measure 49
0010
0000
0100
0000
1000
0100
0010
0001
1000
0001
0010
0100
1000
0001
1000
0000
,  // measure 50
1001
0000
0001
0000
0010
0001
0010
0001
0200
0000
0000
0000
0301
1000
0001
1000
,  // measure 51
0200
0000
0000
0000
1300
0100
0010
0001
1000
0001
0010
0100
1000
0001
1000
0000
,  // measure 52
2002
0000
0000
3003
,  // measure 53
1000
0100
0010
0001
0010
0100
1000
0100
0010
0001
0010
0100
2000
0000
0000
0000
,  // measure 54
3001
0100
0010
0100
0001
0100
0010
0100
0001
0100
0010
0100
0001
0000
0001
0000
,  // measure 55
1000
0010
0100
0010
1000
0010
0100
0010
1000
0010
0100
0010
1000
0000
1000
0000
,  // measure 56
0010
0100
0001
0100
0010
0100
0001
0100
0010
0100
1000
0100
0010
0000
0010
0000
,  // measure 57
0100
0010
1000
0010
0100
0010
1000
0010
0001
0010
1000
0010
0100
0000
0010
0000
,  // measure 58
2000
0001
3020
0001
2030
0001
3020
0001
2030
0001
3020
0001
1030
0000
2000
0000
,  // measure 59
3002
1000
0023
1000
0032
1000
0023
1000
0032
1000
0023
1000
0031
0000
0002
0000
,  // measure 60
1003
0100
0010
0001
1000
0100
0010
0001
1000
0100
0010
0001
1000
0100
0010
0001
,  // measure 61
1000
0010
0100
0001
1000
0010
0100
0001
1000
0010
0100
0001
1000
0010
0100
0001
,  // measure 62
2000
0000
0000
0000
0000
0000
3001
0010
0002
0000
0000
0000
0000
0000
1003
0100
,  // measure 63
1000
0000
0100
0000
0010
0000
0001
0100
0002
0000
0100
0000
0000
0000
0013
1000
,  // measure 64
0010
0000
1000
0000
0001
0000
0100
0010
1000
0100
0010
0001
0100
0000
0010
0000
,  // measure 65
0110
0000
0100
0000
0001
0010
0100
1000
0100
0010
0001
0100
1000
0100
0001
0000
,  // measure 66
2000
0000
0100
0000
0100
0000
0100
3100
0100
0000
1000
0000
0001
0000
0100
0000
,  // measure 67
0002
0000
0010
0000
0010
0013
0010
0000
0001
0000
1000
0000
0100
0000
0010
0000
,  // measure 68
0001
0000
1000
0100
0010
0001
0010
0100
1000
0000
0001
0010
0100
1000
0100
0010
,  // measure 69
0001
0000
0000
0000
1000
0100
0010
0100
0010
0100
0010
0100
0010
0001
1000
0000
,  // measure 70
1001
0000
0001
0000
0101
0000
0100
0010
0100
0000
0010
0000
1010
0000
1000
0100
,  // measure 71
2000
0000
0000
0000
3001
0010
0100
1000
0001
1000
0100
0010
0001
1000
0001
0000
,  // measure 72
2002
0000
0000
3003
,  // measure 73
0002
0000
2003
0000
,  // measure 74
3001
0010
0100
1000
0010
0000
0100
0010
0000
0001
0010
0000
1000
0000
0001
0000
,  // measure 75
1000
0100
0010
0001
0100
0000
0010
0001
0000
0010
1000
0000
0001
0000
1000
0000
,  // measure 76
0001
0010
0100
1000
0010
0000
0100
0010
0000
0100
0010
0000
0110
0000
2002
0000
,  // measure 77
0000
0000
0000
3003
,  // measure 78
1000
0100
1000
0100
1000
0100
0020
0000
0031
0010
0001
0010
0001
0010
0001
0010
,  // measure 79
0200
0000
0000
0000
,  // measure 80
0300
0000
0000
0000
;

//---------------dance-single - ----------------
#NOTES:
     dance-single:
     :
     Hard:
     14:
     0.635887,0.809049,0.283178,0.194685,0.216808,503.000000,471.000000,32.000000,22.000000,0.000000,0.000000,0.635887,0.809049,0.283178,0.194685,0.216808,503.000000,471.000000,32.000000,22.000000,0.000000,0.000000:
// measure 0
0000
0000
0000
0000
,  // measure 1
0000
0000
0000
0000
,  // measure 2
0000
0000
0000
0000
,  // measure 3
0000
0000
0000
0000
,  // measure 4
0000
0000
0000
0000
,  // measure 5
0000
0000
0000
0000
,  // measure 6
2000
0000
0000
0000
,  // measure 7
3002
0000
0000
0203
,  // measure 8
0320
0000
2030
0000
,  // measure 9
3200
0000
0320
0000
,  // measure 10
0032
0000
0203
0000
,  // measure 11
0320
0000
0000
0000
,  // measure 12
2030
0000
0000
0000
,  // measure 13
3002
0000
0000
0000
,  // measure 14
0000
0000
0000
0000
,  // measure 15
0003
0000
0000
0000
,  // measure 16
0000
0000
0000
0000
,  // measure 17
1001
0000
0001
0000
0100
0001
0010
0100
,  // measure 18
1000
0000
1010
0000
0010
1000
0001
0000
,  // measure 19
0101
0000
0100
0000
0010
1000
0100
0010
,  // measure 20
0001
0000
1100
0000
0001
0010
0001
0010
,  // measure 21
1000
0000
0101
0000
1000
0100
1000
0100
,  // measure 22
0001
0000
1100
0000
0010
0100
1000
0100
,  // measure 23
0010
0000
0011
0000
0001
0100
1000
0100
,  // measure 24
0001
0000
0100
0000
0100
0000
0010
0000
1000
0001
0000
1000
0001
1000
0001
0000
,  // measure 25
0100
0010
1000
0100
0010
0001
0100
0100
,  // measure 26
0000
0010
1000
0001
0100
0001
0010
0100
,  // measure 27
1000
0001
1000
0000
0010
0000
0100
0000
0001
0010
0001
0000
1000
0000
0010
0000
,  // measure 28
0000
0010
1000
0001
1000
0100
0010
0001
,  // measure 29
0100
0001
0100
0000
0010
0000
1000
0000
0100
0010
0100
0000
1000
0000
0010
0000
,  // measure 30
0000
0010
0100
0000
0100
0001
0010
0001
,  // measure 31
1000
0100
1000
0000
0010
0000
0100
0000
0001
0010
0001
0000
1000
0000
0010
0000
,  // measure 32
0000
0100
0100
0100
0001
0010
0100
0220
,  // measure 33
0000
0000
0000
0330
,  // measure 34
1000
0001
1000
0000
0100
0000
0010
0000
0001
0000
0010
0000
0100
0000
1000
0000
,  // measure 35
0001
1000
0001
0000
0010
0000
0100
0000
1000
0000
0100
0000
0010
0000
0001
0000
,  // measure 36
1000
0100
1000
0000
0001
0000
0010
0000
0001
0000
0100
0000
0010
0000
1000
0000
,  // measure 37
1010
0000
0000
0000
1000
0000
0001
0000
1001
0000
0000
0000
0001
0100
0001
0000
,  // measure 38
0010
0000
0001
0000
0100
0000
0010
0000
1000
0100
1000
0000
0100
0000
0010
0000
,  // measure 39
0001
0001
0001
0001
0100
0100
0100
0100
,  // measure 40
0010
0010
0010
0010
0010
0010
0010
0010
,  // measure 41
1000
1000
1000
1000
1000
1000
1000
1000
,  // measure 42
0001
0000
0010
0001
0101
0000
0100
0010
,  // measure 43
1000
0100
0010
0001
0010
0100
1000
0000
,  // measure 44
1001
0000
0100
0001
0101
0000
1000
0010
,  // measure 45
1010
0000
0000
0000
1100
0000
0000
0000
0110
0000
0000
0010
0001
0000
1000
0000
,  // measure 46
0001
0100
0010
1000
0001
0000
1000
0100
,  // measure 47
1000
0100
0010
0001
0010
0001
0100
0010
,  // measure 48
0110
0000
1000
0000
0110
0000
0001
0100
,  // measure 49
0110
0000
0010
1000
0100
0010
0001
1000
,  // measure 50
1001
0000
0000
0000
1000
0000
0100
0000
1100
0000
0000
0000
0001
0010
0001
0000
,  // measure 51
0011
0000
0100
0010
0100
0001
0010
0100
,  // measure 52
2000
0000
0000
0000
,  // measure 53
0001
0001
0001
0001
0001
0001
0001
0001
,  // measure 54
3001
0000
0010
0000
0100
0000
1000
0000
0010
0100
0010
0000
1000
0000
0001
0000
,  // measure 55
1000
0100
1000
0000
0100
0000
0010
0000
0001
0100
0001
0000
0100
0000
0010
0000
,  // measure 56
1000
0001
1000
0000
0001
0000
0100
0000
0001
1000
0001
0000
0100
0000
0010
0000
,  // measure 57
1000
0100
1000
0000
0001
0000
0010
0000
0001
0100
0001
0000
0001
0000
0001
0000
,  // measure 58
1000
0001
1000
0000
1000
0000
1000
0000
0010
0100
0010
0000
0010
0000
0010
0000
,  // measure 59
0100
0001
0100
0000
0100
0000
0100
0000
0001
1000
0001
0000
1000
0000
0100
0000
,  // measure 60
0010
0100
0010
0000
0001
0000
0010
0000
0100
1000
0100
0000
1000
0000
0001
0000
,  // measure 61
0200
0010
0010
0010
0010
0010
0010
0010
,  // measure 62
1300
0000
0100
0000
0010
0000
0001
1000
0001
0000
0010
0000
0100
0000
1000
0000
,  // measure 63
0001
0000
0010
0000
0100
0000
1000
0001
1000
0000
0100
0000
0010
0000
0001
0000
,  // measure 64
1000
0100
0001
1000
0010
0001
1000
0100
,  // measure 65
0101
0000
0000
0000
1000
0000
0001
0000
0010
0001
0010
0001
0010
0000
0001
0000
,  // measure 66
0101
0000
0000
0000
0001
0000
0100
0000
0010
0100
0010
0000
1000
0000
0100
0000
,  // measure 67
1100
0000
0000
0000
0001
0000
1000
0000
0001
0010
0001
0000
0100
0000
0010
0000
,  // measure 68
0110
0000
0010
1000
1010
0000
1000
0001
,  // measure 69
0101
0000
0000
0000
0001
0000
1000
0000
0100
0010
0100
0010
0100
0000
1000
0000
,  // measure 70
1001
0000
0001
0100
0101
0000
1000
0010
,  // measure 71
1010
0000
1000
0100
0010
0001
0010
0100
,  // measure 72
2000
0000
0000
0000
,  // measure 73
3002
0000
0203
0000
,  // measure 74
0301
0010
0001
0010
0001
0000
1000
0100
0000
0100
1000
0000
0010
0000
0100
0000
,  // measure 75
0001
1000
0001
1000
0001
0000
1000
0010
0000
0010
1000
0000
0100
0000
0010
0000
,  // measure 76
0001
1000
0001
1000
0001
0000
1000
0100
0000
0100
1000
0000
0010
0000
0200
0000
,  // measure 77
0000
0000
0000
0000
,  // measure 78
0301
0010
0100
1000
0001
0010
0100
1000
,  // measure 79
2002
0000
3003
0000
;
