#TITLE:X-Rave;
#SUBTITLE:;
#ARTIST:DM Ashura;
#TITLETRANSLIT:;
#SUBTITLETRANSLIT:;
#ARTISTTRANSLIT:;
#GENRE:;
#CREDIT:;
#BANNER:;
#BACKGROUND:X-Rave-bg.jpg;
#LYRICSPATH:;
#CDTITLE:;
#MUSIC:X-Rave.ogg;
#OFFSET:-0.996000;
#SAMPLESTART:61.353374;
#SAMPLELENGTH:14.999998;
#SELECTABLE:YES;
#BPMS:0.000000=147.000000
;
#STOPS:
;
#BGCHANGES:;
#KEYSOUNDS:;
#ATTACKS:;

//---------------dance-single - ----------------
#NOTES:
     dance-single:
     :
     Beginner:
     2:
     0.089658,0.142850,0.000000,0.000000,0.000000,67.000000,67.000000,0.000000,0.000000,0.000000,0.000000,0.089658,0.142850,0.000000,0.000000,0.000000,67.000000,67.000000,0.000000,0.000000,0.000000,0.000000:
0000
0000
0000
0000
,
0000
0000
0000
0000
,
0000
0000
0000
0000
,
0000
0000
0000
0000
,
0000
0000
0000
0000
,
0010
0000
0000
0000
,
0001
0000
0000
0000
,
0001
0000
0000
0000
,
1000
0000
0000
0000
,
1000
0000
0000
0000
,
0010
0000
0000
0000
,
1000
0000
0000
0000
,
0001
0000
0000
0000
,
0100
0000
0000
0000
,
0100
0000
0000
0000
,
0010
0000
0000
0000
,
0010
0000
0000
0000
,
1000
0000
0000
0000
,
1000
0000
0000
0000
,
0001
0000
0000
0000
,
0001
0000
0000
0000
,
0100
0000
0000
0000
,
0100
0000
0000
0000
,
0010
0000
0000
0000
,
0010
0000
0000
0000
,
1000
0000
0000
0000
,
1000
0000
0000
0000
,
0001
0000
0001
0000
,
0100
0000
0100
0000
,
0010
0000
0000
0000
,
0010
0000
0010
0000
,
1000
0000
0000
0000
,
0001
0000
0001
0000
,
0100
0000
0000
0000
,
0100
0000
0100
0000
,
0010
0000
0000
0000
,
0000
0000
0000
0000
,
1000
0000
1000
0000
,
0001
0000
0001
0000
,
1000
0000
1000
0000
,
0001
0000
0001
0000
,
0100
0000
0000
0000
,
0100
0000
0000
0000
,
0010
0000
0000
0000
,
0010
0000
0000
0000
,
1000
0000
0000
0000
,
1000
0000
0000
0000
,
0001
0000
0000
0000
,
0001
0000
0000
0000
,
0100
0000
0000
0000
,
0100
0000
0000
0000
,
0010
0000
0000
0000
,
0010
0000
0000
0000
,
1000
0000
0000
0000
,
1000
0000
0000
0000
,
0001
0000
0001
0000
,
0001
0000
0001
0000
,
0100
0000
0000
0000
,
0100
0000
0000
0000
,
0010
0000
0000
0000
,
0010
0000
0000
0000
,
1000
0000
0000
0000
;

//---------------dance-single - ----------------
#NOTES:
     dance-single:
     :
     Easy:
     4:
     0.204741,0.259238,0.009367,0.290385,0.000000,153.000000,152.000000,1.000000,31.000000,0.000000,0.000000,0.204741,0.259238,0.009367,0.290385,0.000000,153.000000,152.000000,1.000000,31.000000,0.000000,0.000000:
0000
0000
0000
0000
,
0000
0000
0000
0000
,
0000
0000
0000
0000
,
0000
0000
0000
0000
,
0000
0000
0000
0000
,
1000
0000
1000
0000
,
0001
0000
0001
0000
,
0100
0000
0100
0000
,
0010
0000
0000
0000
,
1000
0000
1000
0000
,
0002
0000
0203
0000
,
0320
0000
2030
0000
,
3200
0000
0320
0000
,
0032
0000
2003
0000
,
3000
0100
0000
0100
,
0000
0010
0000
0010
,
0000
1000
0000
1000
,
0000
0001
0000
0001
,
0100
0000
0000
0000
,
0100
0010
0100
0000
,
0010
1000
0010
0000
,
1000
0001
1000
0000
,
0001
0100
0001
0000
,
1000
0010
1000
0000
,
0100
1000
0100
0000
,
0001
0100
0001
0000
,
1000
0010
1000
0000
,
0001
0001
0200
0000
,
0310
0010
2000
0000
,
3001
0001
0000
0000
,
1000
1000
0020
0030
,
0100
0100
0002
0003
,
1000
1000
0020
0030
,
0100
0100
0002
0003
,
1000
0001
2000
0000
,
3010
0000
0000
0000
,
0100
0100
0100
0100
,
0010
1000
1001
0000
,
0001
0100
0020
0030
,
1000
0100
2000
3000
,
0001
0010
0002
0003
,
0100
0010
2000
3000
,
0001
1000
0020
0030
,
1000
0100
2000
3000
,
0001
0010
0002
0003
,
0100
0010
0200
0300
,
0010
1000
0020
0030
,
1000
0001
2000
3000
,
0001
0100
0002
0003
,
1000
0100
2000
3000
,
0010
0100
0020
0030
,
0100
0001
0200
0300
,
0001
1000
0002
0003
,
1000
0100
1000
0100
,
0010
0001
0010
0001
,
0100
0000
0100
0000
,
0010
0000
0010
0000
,
1000
0001
1000
0000
,
0001
1000
0001
0000
,
1000
0100
1000
0000
,
0100
0010
0100
0010
,
0002
0000
0003
0000
;

//---------------dance-single - ----------------
#NOTES:
     dance-single:
     :
     Medium:
     9:
     0.369337,0.460868,0.346588,0.177978,0.000000,276.000000,239.000000,37.000000,19.000000,0.000000,0.000000,0.369337,0.460868,0.346588,0.177978,0.000000,276.000000,239.000000,37.000000,19.000000,0.000000,0.000000:
0000
0000
0000
0000
,
0000
0000
0000
0000
,
0000
0000
0000
0000
,
0000
0000
0000
0000
,
0000
0000
0000
0000
,
1000
1000
0001
0001
,
0010
0010
0100
0100
,
1000
1000
0001
0001
,
0200
0000
0000
0000
,
0310
1000
0010
0000
1000
0100
1000
0000
,
0001
0011
0010
0110
,
0100
1100
1000
1001
,
0001
0101
0100
0110
,
0010
1000
0010
0000
1000
0100
1000
0000
,
0001
0010
0001
0000
0100
0010
0100
0000
,
0010
0010
1000
1000
,
0001
1000
0001
0000
1000
0100
1000
0000
,
0100
0100
0010
0010
,
0022
0000
0000
0033
,
0100
1000
0100
0001
,
0010
1000
0100
0001
,
0010
1000
0001
1000
,
0010
0001
0100
0010
,
0100
0000
0001
0000
1000
0000
0100
0100
,
1000
0010
0100
0001
,
1000
0001
0100
0010
,
1000
0100
1000
0000
0001
0010
0001
0000
,
0100
0100
0020
0000
,
1030
1000
0002
0003
,
0100
0100
0020
2030
,
3200
0320
0032
0103
,
0010
1000
0200
2300
,
3020
0230
0302
1003
,
0200
2300
3020
0130
,
0001
1000
0001
0000
1000
0100
1000
0000
,
0010
0000
0000
0000
,
0100
0100
0100
0100
,
0001
1000
0001
0000
1000
0000
0100
0000
,
1000
0100
1000
0000
1100
0000
0010
0000
,
0110
0100
0101
0001
,
1001
1100
1100
0001
,
0101
0110
0110
0010
,
1010
1100
1100
0100
,
0101
0011
1100
0100
,
0101
0011
1010
0100
,
1000
0100
0010
0000
0001
0010
0100
0000
,
1000
0100
0010
0000
0001
0010
0100
0000
,
1000
0100
1000
0000
0001
0100
0001
0000
,
1000
0001
1001
1000
,
1100
0110
0011
0000
,
0011
0110
1100
0000
,
1001
0110
1001
0000
,
0010
1001
0110
0000
,
1000
0100
1000
0000
0001
0000
0001
0000
,
0100
0010
0100
0000
0001
0000
0001
0000
,
1000
0100
1000
0000
0010
0000
0010
0000
,
0100
0100
0100
0000
0001
0000
1000
0000
,
0001
0001
0001
0000
1000
0000
0100
0000
,
1000
1000
1000
0000
0010
0000
0010
0000
,
0100
0100
0001
0001
,
1000
1000
1000
0000
0001
0001
0001
0000
,
0200
0000
0300
0000
;

//---------------dance-single - ----------------
#NOTES:
     dance-single:
     :
     Hard:
     13:
     0.620914,0.662498,0.103040,0.206079,0.355955,464.000000,453.000000,11.000000,22.000000,0.000000,0.000000,0.620914,0.662498,0.103040,0.206079,0.355955,464.000000,453.000000,11.000000,22.000000,0.000000,0.000000:
// measure 0
0000
0000
0000
0000
,  // measure 1
0000
0000
0000
0000
,  // measure 2
0000
0000
0000
0000
,  // measure 3
0000
0000
0000
0000
,  // measure 4
0000
0000
0000
0000
,  // measure 5
0000
0000
1001
0000
0000
1000
0000
0000
1010
0000
0000
0010
0000
0000
0110
0000
,  // measure 6
0000
0100
0001
0100
1000
0100
0001
0000
,  // measure 7
1000
0001
0100
0010
1000
0001
0100
0010
,  // measure 8
2002
0000
0000
3003
,  // measure 9
1000
0000
0100
0000
0010
0000
0001
0000
0100
0010
0100
0000
0001
0000
0010
0000
,  // measure 10
0100
0000
1000
0000
1001
0000
0000
0001
0000
0100
0001
0000
0100
0000
0010
0000
,  // measure 11
1000
0000
0100
0000
1000
0000
0000
0001
0000
0010
0001
0000
1000
0000
0100
0000
,  // measure 12
0010
0000
0001
0000
0100
0000
0000
0100
0000
0010
0100
0000
1000
0000
0100
0000
,  // measure 13
0010
0000
0010
0000
0100
0000
0000
0001
1000
0001
1000
0000
0001
0000
0010
0000
,  // measure 14
0001
0000
0100
0000
0010
0000
0000
0010
1000
0010
1000
0000
0100
0000
0010
0000
,  // measure 15
0001
0000
0100
0000
0010
0000
0000
0100
0001
0100
0001
0000
1000
0000
0100
0000
,  // measure 16
1000
0000
0010
0000
1000
0000
0000
0001
1000
0001
1000
0000
0100
0000
0100
0000
,  // measure 17
0010
0000
0001
0000
0100
0000
0000
0010
0100
0010
0100
0000
0001
0000
1000
0000
,  // measure 18
2002
0000
0000
3003
,  // measure 19
0010
0100
0010
0000
1000
0100
1000
0001
,  // measure 20
0010
0000
0002
0000
0000
0000
0103
0000
0010
1000
0010
0000
1000
0000
0100
0000
,  // measure 21
1200
0000
0000
0000
1300
0000
0001
0000
0100
1000
0100
0000
0020
0000
0000
0000
,  // measure 22
1030
0001
1000
0000
0001
0000
0100
0000
0010
0000
1000
0000
0010
0000
0100
0000
,  // measure 23
0010
0000
1000
0100
1000
0000
0010
0000
0100
0000
0001
0000
0020
0000
0000
0000
,  // measure 24
0031
0000
1000
0001
1000
0000
0100
0000
1000
0000
0001
0000
0020
0000
0000
0000
,  // measure 25
0031
1000
1000
0010
0100
0100
0010
0010
,  // measure 26
1000
0000
0100
0000
0001
0000
1000
0000
0010
0000
0001
0000
0100
0010
0100
0000
,  // measure 27
0020
1000
2030
0001
3002
0100
0103
0010
,  // measure 28
2000
0010
3010
0100
0001
0010
0001
0100
,  // measure 29
2000
0100
3100
0010
1000
0001
0010
0002
,  // measure 30
0000
1003
0100
2000
0010
3010
0100
0020
,  // measure 31
0100
0130
0001
0200
0000
0301
1000
0001
,  // measure 32
0001
0000
0010
0000
0010
0000
2000
0000
0010
0000
3010
0000
0001
1000
0001
0000
,  // measure 33
0100
0010
0100
0000
0010
1000
0010
0000
1000
0000
0100
0000
0010
0000
0001
0000
,  // measure 34
0010
0000
0100
0000
0010
0000
1000
0000
0010
0000
0001
0000
0100
0010
0100
0000
,  // measure 35
0220
0000
0000
0000
0000
0000
0000
0330
,  // measure 36
0001
0000
1000
0000
0001
0000
1000
0000
0001
1000
0001
0000
1000
0001
1000
0000
,  // measure 37
0001
0100
1000
0001
0010
1000
0001
0000
,  // measure 38
1000
0100
0010
1000
0010
0001
0100
0000
,  // measure 39
0001
0010
0100
0001
0100
1000
0010
0000
,  // measure 40
0100
0000
0001
0000
0010
0000
1000
0000
0010
0000
0001
1000
0001
0000
0000
0000
,  // measure 41
0100
0001
0100
1000
0100
0001
0100
0010
,  // measure 42
1000
0010
0100
0001
0100
0010
1000
0000
,  // measure 43
0001
0100
0000
0001
0100
0000
0010
0000
1000
0100
0000
1000
0100
0000
0010
0000
,  // measure 44
0001
0100
0000
0001
0100
0000
0010
0000
1000
0001
1000
0000
0001
0100
0001
0100
,  // measure 45
0010
1000
0100
0001
0010
1000
0100
0000
,  // measure 46
0001
0010
1000
0001
0100
1000
0010
0000
,  // measure 47
0100
0001
0000
1000
0001
0000
0100
0000
0010
1000
0000
0001
1000
0000
0100
0000
,  // measure 48
0010
0000
0001
0000
1000
0000
0001
0000
0010
0001
0000
0010
0001
0000
0100
0000
,  // measure 49
0010
1000
0000
0010
1000
0000
0001
0000
0100
0001
0000
0100
0001
0000
0010
0000
,  // measure 50
0001
1000
0000
0010
1000
0000
0100
0000
0010
0000
0001
0000
0100
0000
0000
0000
,  // measure 51
0010
0000
1000
0000
0010
0001
0010
0000
1000
0000
0100
0000
0010
0100
0010
0000
,  // measure 52
0001
0000
0010
0000
0100
0000
1000
0000
0100
0010
0100
0000
0010
0100
0010
0000
,  // measure 53
0001
0000
1000
0000
0100
0000
0000
1000
0010
0100
0010
0000
1000
0000
0001
0000
,  // measure 54
1000
0000
0100
0000
0010
0000
0000
0010
0001
0100
0001
0000
1000
0000
0100
0000
,  // measure 55
0110
0000
0010
0000
0100
0000
0000
1000
0100
1000
0001
0000
1000
0000
0100
0000
,  // measure 56
0010
0000
0010
0000
0001
0000
0000
0100
0001
0100
0010
0000
0001
0000
0010
0000
,  // measure 57
0100
0000
0100
0000
0001
0000
0000
1000
0001
1000
0001
0000
0010
0000
0001
0000
,  // measure 58
1000
0000
0100
0000
1100
0000
0000
0001
1000
0001
1000
0000
0010
0000
0100
0000
,  // measure 59
0001
0000
0100
0000
0101
0000
0000
0001
1000
0001
1000
0000
0010
0000
1000
0000
,  // measure 60
0001
0000
0010
0000
0100
0000
0000
1000
0001
1000
0001
1000
0010
0100
0010
0100
,  // measure 61
0020
0000
0030
0000
;

//---------------dance-single - ----------------
#NOTES:
     dance-single:
     :
     Challenge:
     16:
     0.849743,1.008150,0.384057,0.074938,0.927357,635.000000,594.000000,41.000000,8.000000,0.000000,0.000000,0.849743,1.008150,0.384057,0.074938,0.927357,635.000000,594.000000,41.000000,8.000000,0.000000,0.000000:
// measure 0
0000
0000
0000
0000
,  // measure 1
0000
0000
0000
0000
,  // measure 2
0000
0000
0000
0000
,  // measure 3
0000
0000
0000
0000
,  // measure 4
0000
0000
0000
0000
,  // measure 5
0000
0000
1001
0000
0000
0101
0000
0000
0110
0000
0000
1010
0000
0000
1001
0000
,  // measure 6
0001
0010
0001
0010
0001
0010
0001
0010
0100
1000
0100
1000
0100
1000
0100
1000
,  // measure 7
0010
0100
0010
0100
0010
0100
0010
0100
0001
0010
0100
1000
0010
0100
0001
0010
,  // measure 8
0200
0000
0000
0300
,  // measure 9
1000
0000
0000
0100
0000
0000
0010
0000
0000
0001
0000
0000
0100
0000
0000
0010
0000
0000
1000
0000
0000
0100
0000
0000
0010
0000
0001
0000
0010
0000
0001
0000
0000
0010
0000
0000
0001
0000
1000
0000
0001
0000
1000
0000
0000
0001
0000
0000
,  // measure 10
1000
0000
0100
0000
1100
0000
0000
1000
0001
0010
0001
0000
0100
0000
0110
0000
,  // measure 11
0010
0000
1000
0000
1100
0000
0000
0001
0010
0001
0100
0000
0010
0000
0010
0000
,  // measure 12
0100
0000
0001
0000
0011
0000
0000
0010
1000
0010
0001
0000
0100
0000
0101
0000
,  // measure 13
0001
0000
1001
0000
1010
0000
0000
0100
0001
0100
1000
0000
0100
0000
0101
0000
,  // measure 14
0001
0000
0100
0000
1100
0000
0000
1000
0100
0010
0001
0000
1000
0000
1010
0000
,  // measure 15
0010
0000
0100
0000
0001
0000
0000
0001
0010
0100
1000
0000
1010
0000
0010
0000
,  // measure 16
0110
0000
0100
0000
0101
0000
0000
0001
0100
1000
0100
0000
0101
0000
0011
0000
,  // measure 17
0010
0000
0100
0000
1100
0000
0000
1000
0100
0001
0100
0000
1000
0000
1010
0000
,  // measure 18
0200
0000
0010
0000
0310
0000
0000
1000
0001
0010
0001
0100
0001
0010
0001
0100
,  // measure 19
0010
0000
1000
0000
0100
0000
0000
0000
1000
0001
1000
0000
0001
0000
0100
0000
,  // measure 20
0000
0000
0010
0000
1000
0000
0100
0000
0010
0100
0010
0100
0010
0000
0001
0000
,  // measure 21
1001
0000
0000
0000
1000
0000
0100
0010
0100
0010
0001
0010
0001
0000
0000
0000
,  // measure 22
1000
0010
1000
0010
0100
0000
0001
0000
1000
0001
1000
0001
0010
0000
0001
0000
,  // measure 23
0100
0000
0010
1000
0010
0000
1000
0100
0001
0000
0001
0100
1000
0000
0000
0000
,  // measure 24
0001
0000
0010
0000
0100
0000
1000
0000
0010
0100
0010
0000
1001
0000
0000
0000
,  // measure 25
1000
0100
1000
0010
0100
0001
0010
0100
,  // measure 26
2000
0000
0000
0000
3002
0000
0000
0000
0103
0000
0010
0000
1000
0100
0010
0001
,  // measure 27
0200
0001
0301
0000
2000
0010
3010
0000
,  // measure 28
0100
0001
0010
1000
0010
0001
0100
0000
,  // measure 29
0010
1000
0100
1000
0001
0010
0001
0100
,  // measure 30
0010
1000
0000
0010
1000
0000
0001
0000
0100
0000
0001
0010
0000
0001
0100
0000
,  // measure 31
0001
0100
1000
0001
0010
1000
0001
1000
,  // measure 32
0010
0100
0010
0001
0010
1000
0100
0000
,  // measure 33
0010
0001
0010
0001
0100
0010
0100
0010
1000
0100
1000
0100
0010
0001
0010
0001
,  // measure 34
1000
0001
1000
0001
0100
0001
0100
0001
0010
0100
0010
0100
1000
0001
1000
0001
,  // measure 35
0200
0000
0000
0000
,  // measure 36
0310
0000
0000
0000
0000
0000
0010
0000
0000
0000
0000
0000
0010
0000
0000
0000
0000
0000
0010
0000
0000
0000
0000
0000
0100
0000
0001
0000
0100
0000
0001
0000
0000
1000
0000
0000
0010
0000
1000
0000
0010
0000
1000
0000
0000
0100
0000
0000
,  // measure 37
0010
0000
0001
0000
1000
0010
1000
0000
0010
0100
0010
0000
0100
0001
0100
0000
,  // measure 38
0001
1000
0001
0000
1000
0000
0100
0000
0010
0001
0010
0000
0001
0010
0001
0000
,  // measure 39
0100
0010
0000
0100
0010
0100
0010
0000
1000
0100
0000
1000
0100
1000
0100
0000
,  // measure 40
0010
0001
0010
0001
0010
0001
0010
0000
0100
0010
0100
0010
0100
0010
0100
0000
,  // measure 41
1000
0001
0000
0001
0100
0001
0010
0000
0100
1000
0000
1000
0010
1000
0001
0000
,  // measure 42
0100
0001
0000
0001
0010
0100
1000
0000
0010
1000
0000
1000
0100
0010
0001
0000
,  // measure 43
0100
0010
0100
0000
0010
1000
0010
0000
1000
0001
1000
0000
0001
0100
0001
0000
,  // measure 44
0100
0010
1000
0000
1000
0001
0100
0000
0100
0010
0100
0010
1000
0001
1000
0001
,  // measure 45
0100
0000
0010
0000
1000
0000
0100
0000
0010
0001
0000
0001
1000
0000
0100
0000
,  // measure 46
1000
0010
0100
0000
0100
0010
0001
0000
0001
0010
1000
0000
1000
0010
0100
0000
,  // measure 47
0001
0100
0010
0000
0010
1000
0100
0000
0100
0001
0100
0000
0100
1000
0010
0000
,  // measure 48
0100
0001
0100
0001
0010
0001
0010
0000
0100
1000
0100
1000
0010
1000
0010
0000
,  // measure 49
0100
0001
1000
0000
1000
0100
0010
0000
0010
0001
0100
0000
0100
0010
1000
0000
,  // measure 50
0001
0010
0001
0100
0001
0010
0001
0000
1000
0010
1000
0100
1000
0010
1000
0000
,  // measure 51
1000
0001
1000
0001
1000
0001
1000
0001
0100
0010
0100
0010
0100
0010
0100
0010
,  // measure 52
1000
0000
0000
0100
0000
0000
1000
0000
0000
0100
0000
0000
0010
0000
0000
0001
0000
0000
0010
0000
0000
0001
0000
0000
0100
0000
0010
0000
0100
0000
0010
0000
0000
1000
0000
0000
0001
0000
0100
0000
0001
0000
0100
0000
0000
0010
0000
0000
,  // measure 53
1000
0000
0100
0000
1100
0000
0000
0100
0010
0001
0010
0000
0001
0000
1001
0000
,  // measure 54
1000
0000
0010
0000
0110
0000
0000
0100
0001
0010
0100
0000
1100
0000
1010
0000
,  // measure 55
0010
0000
0100
0001
0010
0000
0100
1000
0001
1000
0010
0000
0110
0000
0100
0000
,  // measure 56
0101
0000
0001
0010
0001
0000
0001
1000
0100
1000
0010
0000
0110
0000
0100
0000
,  // measure 57
0101
0000
0001
1000
0001
0000
0001
0010
0100
1000
0100
0000
0010
0000
0001
0000
,  // measure 58
0101
0000
1001
0000
1100
0000
0000
0100
0010
0001
0010
0001
1000
0001
1000
0000
,  // measure 59
0010
0000
1010
0000
1001
0000
0000
0100
0010
1000
0100
0000
1000
0000
1001
0000
,  // measure 60
0011
0000
0010
0000
0110
0000
0100
0000
1000
0010
1000
0010
0100
0001
0100
0001
,  // measure 61
0020
0000
0030
0000
;
