#TITLE:Virtual Sunrise (xac remix);
#SUBTITLE:;
#ARTIST:kors k;
#TITLETRANSLIT:;
#SUBTITLETRANSLIT:;
#ARTISTTRANSLIT:;
#GENRE:;
#CREDIT:;
#BANNER:Virtual Sunrise (xac remix).png;
#BACKGROUND:Virtual Sunrise (xac remix)-bg.png;
#LYRICSPATH:;
#CDTITLE:;
#MUSIC:Virtual Sunrise (xac remix).ogg;
#OFFSET:-1.347000;
#SAMPLESTART:78.047554;
#SAMPLELENGTH:15.000000;
#SELECTABLE:YES;
#BPMS:0.000000=175.000000
;
#STOPS:
;
#BGCHANGES:;
#KEYSOUNDS:;
#ATTACKS:;

//---------------dance-single - ----------------
#NOTES:
     dance-single:
     :
     Beginner:
     3:
     0.133858,0.175688,0.000000,0.008676,0.000000,108.000000,108.000000,0.000000,1.000000,0.000000,0.000000,0.133858,0.175688,0.000000,0.008676,0.000000,108.000000,108.000000,0.000000,1.000000,0.000000,0.000000:
0000
0000
0000
0000
,
0000
0000
0000
0000
,
0000
0000
0000
0000
,
0000
0000
0000
0000
,
0001
0000
0000
1000
,
0000
0000
0010
0000
,
0100
0000
0000
0100
,
0000
0000
0000
0000
,
0001
0000
0000
0001
,
0000
0000
1000
0000
,
0010
0000
0000
1000
,
0000
0000
0010
0000
,
0100
0000
0001
0000
,
0100
0000
0000
0000
,
0010
0000
1000
0000
,
0010
0000
0000
0000
,
0100
0000
0100
0000
,
0001
0000
0001
0000
,
1000
0000
1000
0000
,
0100
0000
0100
0000
,
0010
0000
0010
0000
,
0001
0000
0001
0000
,
1000
0000
1000
0000
,
0001
0000
0001
0000
,
0100
0000
0000
0000
,
0100
0000
0000
0000
,
0010
0000
0000
0000
,
0010
0000
0000
0000
,
1000
0000
0000
0000
,
1000
0000
0000
0000
,
0001
0000
0000
0000
,
0001
0000
0000
0000
,
0100
0000
0000
0000
,
0100
0000
0000
0000
,
0010
0000
0000
0000
,
0010
0000
0000
0000
,
1000
0000
0000
0000
,
1000
0000
0000
0000
,
0001
0000
0000
0000
,
0001
0000
0000
0000
,
0100
0000
0000
0000
,
0010
0000
1000
0000
,
0010
0000
0000
0000
,
0100
0000
0001
0000
,
0100
0000
0000
0000
,
0001
0000
1000
0000
,
0001
0000
0000
0000
,
1000
0000
0000
0000
,
0010
0000
0000
0000
,
1000
0000
0100
0000
,
1000
0000
0000
0000
,
0001
0000
0100
0000
,
0001
0000
0000
0000
,
0010
0000
0001
0000
,
0010
0000
0000
0000
,
0100
0000
1000
0000
,
0100
0000
0000
0000
,
0001
0000
0100
0000
,
1000
0000
0010
0000
,
1000
0000
0001
0000
,
1000
0000
0000
0000
,
0010
0000
0100
0000
,
0010
0000
0000
0000
,
1000
0000
0001
0000
,
1000
0000
0000
0000
,
0100
0000
1000
0000
,
0100
0000
0000
0000
,
0010
0000
0010
0000
,
0001
0000
0000
0000
,
0001
0000
0001
0000
,
0100
0000
0000
0000
,
0010
0000
0010
0000
,
1000
0000
0000
0000
,
0000
0000
0000
0000
,
0001
0000
0000
0000
,
0100
0000
0100
0000
,
0010
0000
0000
0000
,
1000
0000
1000
0000
,
0010
0000
0000
0000
,
0100
0000
0100
0000
,
0002
0000
0000
0000
,
0003
0000
0000
0000
;

//---------------dance-single - ----------------
#NOTES:
     dance-single:
     :
     Easy:
     5:
     0.278870,0.316239,0.000000,0.086760,0.000000,225.000000,225.000000,0.000000,10.000000,0.000000,0.000000,0.278870,0.316239,0.000000,0.086760,0.000000,225.000000,225.000000,0.000000,10.000000,0.000000,0.000000:
0000
0000
0000
0000
,
0000
0000
0000
0000
,
0000
0000
0000
0000
,
0000
0000
0000
0000
,
1000
0100
1000
0000
,
0010
0000
0100
0000
,
0001
1000
0001
0000
,
1000
0000
0010
0000
,
1000
0100
1000
0000
,
0001
0000
0010
0000
,
0001
0000
0100
0000
,
0010
0000
1000
0000
,
0010
0100
0001
0100
,
0010
1000
0010
0100
,
0001
1000
0001
1000
,
0002
0000
0000
0000
,
1003
1000
0010
0000
,
0100
0100
0001
0000
,
0010
0010
0001
0000
,
1000
1000
0100
0000
,
0001
0001
0100
0000
,
1000
1000
0010
0000
,
0001
0001
0010
0000
,
1000
0001
1000
0000
,
0001
0100
0010
0000
,
0100
0010
1000
0000
,
0010
0100
0001
0000
,
0010
1000
0010
0000
,
0001
0100
1000
0000
,
0001
0010
1000
0000
,
0001
1000
0001
0000
,
1000
0100
1000
0000
,
0010
0100
0001
0100
,
0010
1000
0010
0100
,
0001
0000
1000
0000
,
0010
1000
0010
0000
,
0100
0001
0010
0000
,
0100
1000
0010
0100
,
0001
0000
1000
0000
,
0010
1000
0010
1000
,
0002
0000
0000
0000
,
0103
0010
1000
0010
,
0200
0000
0000
0000
,
0301
1000
0001
0010
,
0002
0000
0000
0000
,
0103
0010
1000
0010
,
0200
0000
0000
0000
,
0301
0010
1000
0010
,
0002
0000
0000
0000
,
1003
0100
1000
0010
,
0100
0001
0010
0001
,
1000
0100
1000
0010
,
0100
0001
0100
0010
,
1000
1000
0001
0001
,
0100
0100
0100
0100
,
0010
0010
0010
0010
,
1000
1000
0001
0001
,
0100
0100
0010
0010
,
1000
0001
1000
0000
,
0001
0010
0001
0000
,
0100
0010
0100
0000
,
0010
1000
0010
0000
,
1000
0001
1000
0000
,
0001
0100
0001
0000
,
0100
0010
0100
0000
,
0010
1000
0010
0000
,
1000
0100
1000
0000
,
0001
1000
0001
0000
,
1000
0001
1000
0000
,
0010
1000
0010
0000
,
1000
0100
1000
0100
,
0010
0001
0010
0001
,
0200
0000
0000
0000
,
0300
0000
0000
0000
,
0010
0000
1000
0000
,
0010
0010
0100
0100
,
0002
0000
0000
0000
,
1003
1000
0100
0100
,
0020
0000
0000
0000
,
0031
1000
0001
1000
,
0002
0000
0000
0000
,
0003
0000
0000
0000
;

//---------------dance-single - ----------------
#NOTES:
     dance-single:
     :
     Medium:
     10:
     0.396615,0.421652,0.026028,0.841568,0.082422,320.000000,317.000000,3.000000,97.000000,0.000000,0.000000,0.396615,0.421652,0.026028,0.841568,0.082422,320.000000,317.000000,3.000000,97.000000,0.000000,0.000000:
0000
0000
0000
0000
,
0000
0000
0000
0000
,
0000
0000
0000
0000
,
0000
0000
0000
0000
,
0001
1000
0000
0010
1000
0000
0100
0000
,
0000
0010
0001
0100
,
0001
0010
0000
0100
1000
0000
1001
0000
,
0000
0001
0100
0000
0100
0000
0010
0000
,
1000
0001
0000
0001
0100
0000
0010
1000
,
0010
1000
0010
0001
,
0010
1000
0000
0010
0001
0000
0100
0000
,
0010
1000
0000
0001
1000
0000
0010
0000
,
0100
0100
0001
0001
,
0010
1000
0010
0001
,
0100
0010
1000
0010
0100
0000
0010
0000
,
0100
0001
0010
0001
,
1001
1000
1100
0100
,
0100
0010
0001
1000
,
0002
0203
0320
2030
,
3200
0320
0032
2003
,
3200
2300
3020
0230
,
0302
0023
0032
0203
,
0320
2030
3200
2300
,
3002
0203
0320
2030
,
3020
0230
0302
0023
,
0032
2003
3200
2300
,
3020
0230
0302
0023
,
0032
2003
3200
0302
,
0203
2300
3020
0032
,
0023
2030
3200
0320
,
0032
0023
0230
2300
,
3002
2003
3020
2030
,
3002
0203
0320
0230
,
2300
3020
0230
2300
,
3002
0203
0320
0230
,
0302
0023
2030
3020
,
0032
0203
2300
3200
,
0302
0023
2030
3020
,
0032
0203
2300
3200
,
0302
0023
0230
2300
,
3001
0010
0001
0100
,
0020
1000
0100
1000
,
0031
1000
0100
1000
,
0020
0100
0001
0100
,
0031
1000
0010
1000
,
0200
0010
0001
0010
,
0301
0000
1000
0000
,
0010
0100
0001
0100
,
0020
0000
0000
0000
,
1030
0000
0000
1000
0000
0000
0001
0000
1000
0000
0000
0000
0010
0000
0000
0000
,
0100
0001
0010
0100
,
0010
0000
0000
0001
0000
0000
1000
0000
0001
0000
0000
0100
0000
0000
0001
0000
,
0100
0010
1000
0001
,
1000
0000
0000
0001
0000
0000
1000
0000
0001
0000
0000
1000
0000
0000
0001
0000
,
1000
0010
0100
0010
,
0100
0001
0100
0000
0001
0000
0010
0000
,
0100
0100
1000
0010
,
1000
0000
0000
0100
0000
0000
1000
0000
0100
0000
0000
1000
0000
0000
0100
0000
,
0010
0001
0010
0001
,
0010
0000
0000
0100
0000
0000
0010
0000
0100
0000
0000
1000
0000
0000
0100
0000
,
1000
0001
1000
0001
,
0100
0000
0000
0010
0000
0000
0100
0000
0010
0000
0000
0100
0000
0000
0010
0000
,
0100
0001
1000
0001
,
1000
0000
0000
0001
0000
0000
1000
0000
0001
0000
0000
1000
0000
0000
0001
0000
,
0100
0010
0100
0001
,
1000
0000
0000
0001
0000
0000
0010
0000
0001
0000
0000
0010
0000
0000
0001
0000
,
0010
0100
1000
0010
,
0100
0000
0000
0100
0000
0000
0010
0000
0100
0000
0000
0010
0000
0000
0100
0000
,
0001
0010
0001
1000
,
0001
0000
0000
0100
0000
0000
0001
0000
0100
0000
0000
0001
0000
0000
0100
0000
,
0001
1000
0100
1000
,
0010
0100
0010
0000
0010
0100
0010
0000
,
0200
0000
0000
0000
,
0301
1000
0001
1000
,
0020
0000
0000
0000
,
0130
0001
0100
0001
,
2000
0000
0000
0000
,
3010
1000
0010
1000
,
0002
0000
0000
0000
,
0013
0001
0010
0001
,
0200
0000
0000
0000
,
0300
0000
0000
0000
;

//---------------dance-single - ----------------
#NOTES:
     dance-single:
     :
     Hard:
     13:
     0.598641,0.702753,0.321011,0.503206,0.338362,483.000000,446.000000,37.000000,58.000000,0.000000,0.000000,0.598641,0.702753,0.321011,0.503206,0.338362,483.000000,446.000000,37.000000,58.000000,0.000000,0.000000:
// measure 0
0000
0000
0000
0000
,  // measure 1
0000
0000
0000
0000
,  // measure 2
0000
0000
0000
0000
,  // measure 3
0000
0000
0000
0000
,  // measure 4
2000
0100
0000
3002
0100
0000
2003
0010
,  // measure 5
0000
3001
0010
0100
1000
0001
1000
0000
,  // measure 6
0001
0200
0000
1300
0200
0000
0301
0020
,  // measure 7
0000
1030
0020
0000
0031
1000
0010
0000
,  // measure 8
0010
2000
0000
3001
0100
1000
0200
0000
,  // measure 9
0310
2000
0000
3010
0001
0010
0100
0000
,  // measure 10
0100
0001
0010
0100
1000
0001
0200
0000
,  // measure 11
0310
1000
0001
1000
0100
0010
0001
0000
,  // measure 12
0002
0100
0103
0010
2000
0100
3100
0010
,  // measure 13
0200
0001
0301
0100
2000
0010
3010
0001
,  // measure 14
0010
0010
1000
1000
0001
0001
0100
0100
,  // measure 15
0220
0000
0000
0330
,  // measure 16
1001
0000
0101
0000
0001
0100
1000
0000
,  // measure 17
0101
0000
0011
0000
0001
0010
1000
0000
,  // measure 18
0011
0000
0101
0000
0001
0100
1000
0000
,  // measure 19
1100
0000
0000
0000
1001
0000
0000
0000
1000
0000
0100
0000
0001
0000
0000
0001
,  // measure 20
0100
1000
0010
0000
0010
0100
0001
0000
,  // measure 21
1000
0100
0001
0000
0001
0100
1000
0000
,  // measure 22
0001
0000
0000
0001
1000
0000
0010
0000
1000
0000
0100
0000
0001
0000
0000
0000
,  // measure 23
0001
0100
1000
0000
0010
0001
0010
0100
,  // measure 24
0001
0100
0000
0000
0100
1000
0000
0000
1000
0010
0000
0000
0010
0100
0000
0000
,  // measure 25
0100
0001
0000
0000
0001
0010
0000
0000
0010
0001
0000
0000
0001
1000
0000
0000
,  // measure 26
1000
0010
0000
0000
0010
0001
0000
0000
0001
0100
0000
0000
0100
1000
0000
0000
,  // measure 27
1000
0010
0000
0000
0110
0000
0000
0000
1001
0000
0000
0000
0110
0000
0000
0010
,  // measure 28
1000
0000
0100
0000
1000
0000
0000
0000
0001
0000
0100
0001
0100
0000
0000
0000
,  // measure 29
0001
0000
1000
0001
1000
0000
0000
0000
0100
0000
0010
0100
0010
0000
0000
0000
,  // measure 30
1001
0000
0000
0000
0001
0000
0000
0010
0000
0000
0100
0000
1000
0000
0000
0010
,  // measure 31
0000
0000
0100
0000
0010
0000
0000
0100
0000
0000
0001
0000
1000
0000
0001
0000
,  // measure 32
0100
0010
0000
0000
0010
0100
0000
0000
0100
0001
0000
0000
0001
1000
0000
0000
,  // measure 33
1000
0010
0000
0000
0010
0100
0000
0000
0100
0001
0000
0000
0001
1000
0000
0000
,  // measure 34
1000
0100
0000
0000
0100
0001
0000
0000
0001
0010
0000
0000
0010
1000
0000
0000
,  // measure 35
1010
0000
0000
0000
0110
0000
0000
0000
0101
0000
0000
0000
0011
0000
0000
0010
,  // measure 36
0100
1000
0100
0000
1000
0001
1000
0000
,  // measure 37
0100
0010
0100
0000
0010
0001
0010
0000
,  // measure 38
0001
1000
0100
0010
0001
0100
0010
1000
,  // measure 39
0001
0010
0100
1000
1100
0000
0011
0000
,  // measure 40
1002
0000
0000
0000
,  // measure 41
0203
0320
2030
3200
,  // measure 42
0000
0000
0000
0000
,  // measure 43
2300
3020
0032
0023
,  // measure 44
0000
0000
0000
0000
,  // measure 45
0230
0302
2003
3002
,  // measure 46
2003
0000
0000
0000
,  // measure 47
3020
0230
0302
0023
,  // measure 48
0032
1000
1000
1000
,  // measure 49
2003
0000
0000
0010
0000
0000
0010
0000
0010
0000
0000
0010
0000
0000
0010
0000
,  // measure 50
3002
0100
0100
0100
,  // measure 51
2003
0000
0000
0001
0000
0000
0001
0000
0001
0000
0000
0001
0000
0000
0001
0000
,  // measure 52
3100
0010
1000
0010
0100
0010
0001
0000
,  // measure 53
0001
0010
1000
0100
0001
0100
0010
0100
,  // measure 54
1000
0010
0001
0010
1000
0100
0001
0100
,  // measure 55
1000
0001
1000
0000
0001
0000
0100
0000
0001
0010
0001
0000
1000
0000
0010
0000
,  // measure 56
0100
0001
0000
0000
0001
0100
0000
0000
0100
1000
0000
0000
1000
0100
0000
0000
,  // measure 57
0101
0000
0000
0011
0000
0000
0010
0000
0110
0000
0000
1001
0000
0000
1000
0000
,  // measure 58
0001
0010
0000
0000
0010
1000
0000
0000
1000
0010
0000
0000
0010
0001
0000
0000
,  // measure 59
0101
0000
0000
0110
0000
0000
0010
0000
1010
0000
0000
1001
0000
0000
0001
0000
,  // measure 60
0100
0000
0010
0000
0010
0000
0000
0000
0100
0000
0010
0100
0010
0000
0000
0000
,  // measure 61
0100
0000
0001
0010
0001
0000
1000
0000
0001
0000
0100
0001
0100
0000
0010
0000
,  // measure 62
1000
0000
0100
0000
1100
0000
0000
0001
0100
0000
0010
0000
0010
0000
0000
0000
,  // measure 63
1000
0001
1000
0000
0100
0000
0010
0000
0001
1000
0001
0000
0100
0000
0010
0000
,  // measure 64
0100
0001
0000
0000
0001
1000
0000
0000
1000
0010
0000
0000
0010
0100
0000
0000
,  // measure 65
0110
0000
0000
1010
0000
0000
1000
0000
1001
0000
0000
0101
0000
0000
0100
0000
,  // measure 66
0010
1000
0000
0000
1000
0100
0000
0000
0100
0001
0000
0000
0001
0100
0000
0000
,  // measure 67
0110
0000
0000
0011
0000
0000
0001
0000
0101
0000
0000
0110
0000
0000
0010
0100
,  // measure 68
0010
1000
0000
0000
1000
0001
0000
0000
0001
0100
0000
0000
0100
0010
0000
0000
,  // measure 69
0010
0100
0001
0000
0001
0100
1000
0000
,  // measure 70
1000
0100
0001
0100
0010
1000
0010
0100
,  // measure 71
0001
0010
0001
0000
0100
0000
0010
0000
1000
0010
1000
0000
0001
0000
0100
0000
,  // measure 72
0020
0000
0000
0000
,  // measure 73
2030
3200
0320
0032
,  // measure 74
0000
0000
0000
0000
,  // measure 75
0023
2030
3020
0032
,  // measure 76
0000
0000
0000
0000
,  // measure 77
0203
2300
3200
0302
,  // measure 78
0023
0000
0000
0000
,  // measure 79
0032
2003
3200
0320
,  // measure 80
0032
0000
0000
0000
,  // measure 81
0003
0000
0000
0000
;

//---------------dance-single - ----------------
#NOTES:
     dance-single:
     :
     Challenge:
     15:
     0.674246,0.878441,0.277631,0.260279,0.481516,544.000000,512.000000,32.000000,30.000000,0.000000,0.000000,0.674246,0.878441,0.277631,0.260279,0.481516,544.000000,512.000000,32.000000,30.000000,0.000000,0.000000:
// measure 0
0000
0000
0000
0000
,  // measure 1
0000
0000
0000
0000
,  // measure 2
0000
0000
0000
0000
,  // measure 3
0000
0000
0000
0000
,  // measure 4
1000
0200
0000
0301
0200
0000
1300
0200
,  // measure 5
0000
0301
0100
1000
0001
0010
0100
0000
,  // measure 6
1000
0020
0000
0031
0020
0000
1030
0020
,  // measure 7
0000
0031
0010
0100
0001
0010
0100
0000
,  // measure 8
1000
0010
0000
0010
0001
0010
0100
0000
,  // measure 9
0100
0001
0000
0001
0100
1000
0100
0000
,  // measure 10
0001
1000
0000
1000
0010
1000
0100
0000
,  // measure 11
0010
0001
0000
0001
0100
1000
0100
0000
,  // measure 12
0001
0000
0010
0000
0001
0000
0010
0100
0010
0000
0100
0000
1000
0000
0010
1000
,  // measure 13
0010
0000
0100
0000
0010
0000
0100
0001
0100
0000
0001
0000
1000
0000
1000
0000
,  // measure 14
0010
0010
0100
0100
0001
0001
1000
0010
,  // measure 15
0100
0001
0100
0001
0100
0001
0100
0001
0100
0001
0100
0001
0100
0001
0100
0001
,  // measure 16
0100
0000
0000
0100
0010
0000
0000
0000
1000
0000
0001
1000
0001
0000
0000
0000
,  // measure 17
1000
0010
0001
0000
0001
0010
1000
0000
,  // measure 18
0100
0010
0001
0000
0001
0010
0100
0000
,  // measure 19
0100
0000
1000
0000
0001
0000
0000
0000
0001
0000
1000
0000
0100
0000
0000
0100
,  // measure 20
1000
0000
1010
0000
0010
0100
0001
0000
,  // measure 21
0001
0100
0010
0000
1000
0001
0100
0000
,  // measure 22
0001
0000
0000
0001
1000
0000
0010
0000
1000
0000
0100
0010
0100
0000
0000
0000
,  // measure 23
0010
0000
0001
0100
0001
0000
0000
0000
1000
0010
1000
0010
0100
0001
0100
0001
,  // measure 24
0010
0000
0001
0010
0100
1000
0010
0000
,  // measure 25
1000
0000
0001
0000
0011
0000
0000
0000
0001
0000
0100
0010
0100
0000
0000
0000
,  // measure 26
1010
0000
1000
0100
0010
0001
0100
0000
,  // measure 27
1010
0000
0000
0000
0110
0000
0000
0000
0100
0000
0001
0000
1000
0000
0000
1000
,  // measure 28
0010
0000
0100
0000
0001
0000
0000
0000
0100
0000
0001
0010
0001
0000
0000
0000
,  // measure 29
1000
0000
0100
0010
0100
0000
0010
0000
0001
0000
1000
0100
1000
0000
0000
0000
,  // measure 30
0001
0000
0000
0000
0011
0000
0000
0010
0001
0000
1000
0000
0100
0000
0000
1000
,  // measure 31
0010
0000
0100
0000
0010
0000
0000
1010
0000
0000
1000
0000
0001
0000
0000
0000
,  // measure 32
0001
0010
0000
0000
0010
0100
0000
0000
0100
1000
0000
0000
1000
0010
0000
0000
,  // measure 33
0010
0100
0000
0000
0100
0001
0000
0000
0001
1000
0000
0000
1000
0010
0000
0000
,  // measure 34
0010
0001
0000
0000
0001
0100
0000
0000
0100
1000
0000
0000
1000
0010
0000
0000
,  // measure 35
0010
0001
0000
0000
0001
1000
0000
0000
1000
0001
0000
0000
0001
0100
0000
0010
,  // measure 36
0100
0010
1000
0100
0010
0001
0100
0000
,  // measure 37
0100
0001
0100
0010
1000
0100
1000
0000
,  // measure 38
0010
0100
0001
0010
0100
1000
0001
0000
,  // measure 39
1000
0100
1000
0100
1000
0100
0010
0001
0010
0001
0010
0001
0100
0010
0100
0010
,  // measure 40
0200
0000
0000
0000
,  // measure 41
0302
0023
0230
2300
,  // measure 42
0000
0000
0000
0000
,  // measure 43
3200
0320
0032
0023
,  // measure 44
0000
0000
0000
0000
,  // measure 45
0230
2300
3002
0203
,  // measure 46
0320
0000
0000
0000
,  // measure 47
2030
3020
0032
0023
,  // measure 48
2030
0000
0000
0000
,  // measure 49
3010
0000
0000
0010
0000
0000
0010
0000
0100
0000
0000
0100
0000
0000
0100
0001
,  // measure 50
1000
0010
0110
0101
,  // measure 51
0001
0000
0000
0001
0000
0000
0001
0100
0010
0000
0000
0010
0000
0000
0010
1000
,  // measure 52
0001
0010
0100
0010
0001
0010
0100
0000
,  // measure 53
1000
0100
0010
0100
0001
0100
0010
0000
,  // measure 54
0001
0010
0100
1000
0010
0100
0001
0100
,  // measure 55
0010
0001
0010
0100
0010
0000
0100
0000
0001
1000
0001
0010
0001
0100
0001
0010
,  // measure 56
0001
0100
0101
0000
0011
0000
0110
0000
,  // measure 57
0100
0000
1000
0100
1000
0000
0001
0000
0010
0001
0000
1000
0001
0000
1000
0001
,  // measure 58
1000
0000
0010
0000
0100
0000
0001
0000
0010
0000
0100
0001
0100
0000
0000
0000
,  // measure 59
1100
0000
1000
0010
0000
0010
1000
0000
0100
0010
0000
0010
0100
1000
0100
1000
,  // measure 60
0001
0000
0000
0000
1001
0000
0000
0000
0100
0000
0001
1000
0010
0000
0000
0000
,  // measure 61
1000
0000
0010
0100
0001
0000
1000
0000
0001
0100
0000
0001
1000
0000
0010
0000
,  // measure 62
1000
0000
0000
0000
1001
0000
0000
0001
0100
0000
0100
0000
0110
0000
0000
0000
,  // measure 63
0010
0000
1000
0000
0001
0100
0001
0100
0010
1000
0010
1000
0100
0010
0100
0010
,  // measure 64
0001
0000
1000
0000
1100
0000
0000
0000
0010
1000
0000
0001
1000
0000
0000
0000
,  // measure 65
0001
0010
0000
0001
0100
0000
0010
0000
1000
0100
0000
1000
0100
0000
0010
0001
,  // measure 66
0010
0001
1001
0000
0100
0010
0100
0001
,  // measure 67
1000
0001
0000
0010
0001
0000
0010
0100
1000
0100
1000
0100
0010
0001
0100
0001
,  // measure 68
0100
0010
1001
0000
0001
0010
0011
0000
,  // measure 69
1000
0100
1100
0000
0001
0100
0101
0000
,  // measure 70
0001
0010
0100
0001
0100
1000
0010
0100
,  // measure 71
0001
0010
0001
0010
0001
0010
0001
0010
0100
1000
0100
1000
0100
1000
0100
1000
,  // measure 72
0020
0000
0000
0000
,  // measure 73
1030
1100
0110
0012
,  // measure 74
0000
0000
0000
0000
,  // measure 75
0013
0110
1100
2001
,  // measure 76
0000
0000
0000
0000
,  // measure 77
3010
0101
0010
1100
,  // measure 78
0020
0000
0000
0000
,  // measure 79
1030
0110
0001
0110
,  // measure 80
2000
0000
0000
0000
,  // measure 81
3000
0000
0000
0000
;
