#VERSION:0.83;
#TITLE:Venom (DDR Edition);
#SUBTITLE:;
#ARTIST:kors k vs L.E.D.-G;
#TITLETRANSLIT:;
#SUBTITLETRANSLIT:;
#ARTISTTRANSLIT:;
#GENRE:;
#ORIGIN:;
#CREDIT:;
#BANNER:Venom.png;
#BACKGROUND:;
#PREVIEWVID:;
#JACKET:Venom-jacket.png;
#CDIMAGE:;
#DISCIMAGE:;
#LYRICSPATH:;
#CDTITLE:;
#MUSIC:Venom.ogg;
#OFFSET:0.025000;
#SAMPLESTART:80.698044;
#SAMPLELENGTH:14.999999;
#SELECTABLE:YES;
#DISPLAYBPM:190.000000;
#BPMS:0.000=190.073,
252.000=209.750,
256.000=190.072;
#STOPS:;
#DELAYS:;
#WARPS:;
#TIMESIGNATURES:0.000=4=4;
#TICKCOUNTS:0.000=4;
#COMBOS:0.000=1;
#SPEEDS:0.000=1.000=0.000=0;
#SCROLLS:0.000=1.000;
#FAKES:;
#LABELS:0.000=Song Start;
#BGCHANGES:;
#KEYSOUNDS:;
#ATTACKS: TIME=50.48:LEN=3.79:MODS=3.5x, Sudden, Overhead, Midi-note;

//---------------dance-single - ----------------
#NOTEDATA:;
#CHARTNAME:;
#STEPSTYPE:dance-single;
#DESCRIPTION:;
#CHARTSTYLE:;
#DIFFICULTY:Beginner;
#METER:3;
#RADARVALUES:0.147279,0.192342,0.007694,0.000000,0.000000,134.000000,133.000000,1.000000,0.000000,0.000000,0.000000,0.000000,0.000000,0.000000,0.147279,0.192342,0.007694,0.000000,0.000000,134.000000,133.000000,1.000000,0.000000,0.000000,0.000000,0.000000,0.000000,0.000000;
#CREDIT:;
#ATTACKS:TIME=50.48:LEN=3.79:MODS=3.5x, Sudden, Overhead, Midi-note:TIME=50.48:LEN=3.79:MODS=3.5x, Sudden, Overhead, Midi-note:TIME=50.48:LEN=3.79:MODS=3.5x, Sudden, Overhead, Midi-note:TIME=50.48:LEN=3.79:MODS=3.5x, Sudden, Overhead, Midi-note:TIME=50.48:LEN=3.79:MODS=3.5x, Sudden, Overhead, Midi-note:TIME=50.48:LEN=3.79:MODS=3.5x, Sudden, Overhead, Midi-note:TIME=50.48:LEN=3.79:MODS=3.5x, Sudden, Overhead, Midi-note:TIME=50.48:LEN=3.79:MODS=3.5x, Sudden, Overhead, Midi-note:TIME=50.48:LEN=3.79:MODS=3.5x, Sudden, Overhead, Midi-note;
#DISPLAYBPM:190.000000;
#NOTES:
// measure 0
0000
0000
0000
0000
,  // measure 1
0000
0000
0000
0000
,  // measure 2
0000
0000
0000
0000
,  // measure 3
0000
0000
0000
0000
,  // measure 4
0000
0000
0000
0000
,  // measure 5
0000
0000
0000
0000
,  // measure 6
0000
0000
0000
0000
,  // measure 7
0000
0000
0000
0000
,  // measure 8
0010
0000
0000
0000
,  // measure 9
0100
0000
0000
0000
,  // measure 10
0001
0000
0000
0000
,  // measure 11
1000
0000
0000
0000
,  // measure 12
0001
0000
1000
0000
,  // measure 13
0001
0000
0100
0000
,  // measure 14
0001
0000
1000
0000
,  // measure 15
0001
0000
0000
0000
,  // measure 16
1000
0000
0001
0000
,  // measure 17
1000
0000
0010
0000
,  // measure 18
1000
0000
0100
0000
,  // measure 19
1000
0000
0000
0000
,  // measure 20
0010
0000
0100
0000
,  // measure 21
0010
0000
0001
0000
,  // measure 22
0010
0000
0100
0000
,  // measure 23
0010
0000
0000
0000
,  // measure 24
1000
0000
1000
0000
,  // measure 25
0001
0000
0001
0000
,  // measure 26
0100
0000
0100
0000
,  // measure 27
0010
0000
0010
0000
,  // measure 28
1000
0000
1000
0000
,  // measure 29
0001
0000
0001
0000
,  // measure 30
0100
0000
0100
0000
,  // measure 31
0010
0000
0000
0000
,  // measure 32
1000
0000
1000
0000
,  // measure 33
0001
0000
0001
0000
,  // measure 34
0100
0000
0100
0000
,  // measure 35
0010
0000
0000
0000
,  // measure 36
0010
0000
0000
0000
,  // measure 37
1000
0000
0000
0000
,  // measure 38
0001
0000
0000
0000
,  // measure 39
0100
0000
0000
0000
,  // measure 40
0001
0000
0000
0000
,  // measure 41
0010
0000
0000
0000
,  // measure 42
0001
0000
0000
0000
,  // measure 43
1000
0000
0000
0000
,  // measure 44
0001
0000
0000
0000
,  // measure 45
0100
0000
0000
0000
,  // measure 46
0001
0000
0000
0000
,  // measure 47
0010
0000
0000
0000
,  // measure 48
0100
0000
0000
0000
,  // measure 49
1000
0000
0000
0000
,  // measure 50
0001
0000
0000
0000
,  // measure 51
1000
0000
0000
0000
,  // measure 52
0010
0000
0000
0000
,  // measure 53
0100
0000
0000
0000
,  // measure 54
0010
0000
0000
0000
,  // measure 55
1000
0000
0000
0000
,  // measure 56
0001
0000
0000
0000
,  // measure 57
0100
0000
0000
0000
,  // measure 58
0001
0000
0000
0000
,  // measure 59
1000
0000
0000
0000
,  // measure 60
0010
0000
0000
0000
,  // measure 61
1000
0000
0000
0000
,  // measure 62
0001
0000
0000
0000
,  // measure 63
1001
0000
0000
0000
,  // measure 64
1000
0000
1000
0000
,  // measure 65
1000
0000
0010
0000
,  // measure 66
1000
0000
0000
0000
,  // measure 67
0001
0000
0100
0000
,  // measure 68
0001
0000
0000
0000
,  // measure 69
0010
0000
0001
0000
,  // measure 70
0010
0000
0000
0000
,  // measure 71
0001
0000
0000
0000
,  // measure 72
1000
0000
0000
0000
,  // measure 73
0001
0000
1000
0000
,  // measure 74
0001
0000
0000
0000
,  // measure 75
0100
0000
0010
0000
,  // measure 76
0100
0000
0000
0000
,  // measure 77
0001
0000
1000
0000
,  // measure 78
0001
0000
1000
0000
,  // measure 79
0001
0000
0000
0000
,  // measure 80
0100
0000
0010
0000
,  // measure 81
0100
0000
0001
0000
,  // measure 82
1000
0000
0001
0000
,  // measure 83
1000
0000
0010
0000
,  // measure 84
1000
0000
0100
0000
,  // measure 85
1000
0000
0001
0000
,  // measure 86
0100
0000
0001
0000
,  // measure 87
0010
0000
0000
0000
,  // measure 88
0001
0000
1000
0000
,  // measure 89
0001
0000
1000
0000
,  // measure 90
0100
0000
1000
0000
,  // measure 91
0100
0000
1000
0000
,  // measure 92
0010
0000
0100
0000
,  // measure 93
0010
0000
0100
0000
,  // measure 94
0001
0000
0010
0000
,  // measure 95
0001
0000
0010
0000
,  // measure 96
0100
0000
0000
0000
,  // measure 97
0000
0000
0000
0000
,  // measure 98
0100
0000
0000
0000
,  // measure 99
0000
0000
0000
0000
,  // measure 100
1000
0000
0000
0000
;

//---------------dance-single - ----------------
#NOTEDATA:;
#CHARTNAME:;
#STEPSTYPE:dance-single;
#DESCRIPTION:;
#CHARTSTYLE:;
#DIFFICULTY:Easy;
#METER:6;
#RADARVALUES:0.292359,0.346215,0.000000,0.007694,0.000000,266.000000,266.000000,0.000000,1.000000,0.000000,0.000000,0.000000,0.000000,0.000000,0.292359,0.346215,0.000000,0.007694,0.000000,266.000000,266.000000,0.000000,1.000000,0.000000,0.000000,0.000000,0.000000,0.000000;
#CREDIT:;
#ATTACKS:TIME=50.48:LEN=3.79:MODS=3.5x, Sudden, Overhead, Midi-note:TIME=50.48:LEN=3.79:MODS=3.5x, Sudden, Overhead, Midi-note:TIME=50.48:LEN=3.79:MODS=3.5x, Sudden, Overhead, Midi-note:TIME=50.48:LEN=3.79:MODS=3.5x, Sudden, Overhead, Midi-note:TIME=50.48:LEN=3.79:MODS=3.5x, Sudden, Overhead, Midi-note:TIME=50.48:LEN=3.79:MODS=3.5x, Sudden, Overhead, Midi-note:TIME=50.48:LEN=3.79:MODS=3.5x, Sudden, Overhead, Midi-note:TIME=50.48:LEN=3.79:MODS=3.5x, Sudden, Overhead, Midi-note:TIME=50.48:LEN=3.79:MODS=3.5x, Sudden, Overhead, Midi-note;
#DISPLAYBPM:190.000000;
#NOTES:
// measure 0
0000
0000
0000
0000
,  // measure 1
0000
0000
0000
0000
,  // measure 2
0000
0000
0000
0000
,  // measure 3
0000
0000
0000
0000
,  // measure 4
0000
0000
0000
0000
,  // measure 5
0000
0000
0000
0000
,  // measure 6
0000
0000
0000
0000
,  // measure 7
0000
0000
0000
0000
,  // measure 8
1000
0000
1000
0000
,  // measure 9
0001
0000
0001
0000
,  // measure 10
0100
0000
0100
0000
,  // measure 11
0010
0000
0010
0000
,  // measure 12
1000
0000
1000
0000
,  // measure 13
0001
0000
0001
0000
,  // measure 14
0100
0000
0100
0000
,  // measure 15
0010
0000
0010
0000
,  // measure 16
1000
0000
1000
0000
,  // measure 17
0001
0100
0001
0000
,  // measure 18
1000
0010
1000
0000
,  // measure 19
0010
0100
0010
0000
,  // measure 20
0100
0001
0100
0000
,  // measure 21
0001
1000
0001
0000
,  // measure 22
1000
0100
1000
0001
,  // measure 23
0010
0000
0000
0000
,  // measure 24
0001
0100
0001
0000
,  // measure 25
1000
0010
1000
0000
,  // measure 26
0010
0100
0010
0000
,  // measure 27
0100
0001
0100
0000
,  // measure 28
0001
1000
0001
0000
,  // measure 29
1000
0100
1000
0000
,  // measure 30
0010
0100
0010
0000
,  // measure 31
0100
0001
0100
0000
,  // measure 32
0001
1000
0001
0000
,  // measure 33
1000
0100
1000
0000
,  // measure 34
0010
1000
0010
0000
,  // measure 35
1000
0100
1000
0000
,  // measure 36
0001
0010
0001
0000
,  // measure 37
0100
0010
0100
0000
,  // measure 38
0010
1000
0001
0000
,  // measure 39
1000
0001
0100
0000
,  // measure 40
0001
0000
0000
0000
,  // measure 41
0000
0000
0000
0000
,  // measure 42
1000
0000
0000
0000
,  // measure 43
0010
0000
0000
0000
,  // measure 44
0100
0000
0000
0000
,  // measure 45
0100
0000
0000
0000
,  // measure 46
0010
1000
0010
1000
,  // measure 47
0001
0100
0001
0100
,  // measure 48
0010
0010
1000
1000
,  // measure 49
0001
0001
0100
0100
,  // measure 50
0010
0010
1000
1000
,  // measure 51
0100
0001
0100
0010
,  // measure 52
0001
0001
0010
0100
,  // measure 53
0010
0001
1000
0001
,  // measure 54
0100
0100
0010
1000
,  // measure 55
0010
0010
0100
0001
,  // measure 56
1000
1000
0100
0000
,  // measure 57
0001
0001
0100
0000
,  // measure 58
1000
1000
0010
0000
,  // measure 59
0001
0001
0010
0000
,  // measure 60
1000
0100
0010
0001
,  // measure 61
0100
0010
1000
0000
,  // measure 62
0001
0010
0100
1000
,  // measure 63
0020
0000
0000
0000
,  // measure 64
0130
0001
1000
0000
,  // measure 65
0001
1000
0010
0000
,  // measure 66
1000
0001
0100
0000
,  // measure 67
0001
1000
0010
0000
,  // measure 68
1000
0100
1000
0000
,  // measure 69
0001
0100
0010
0000
,  // measure 70
0100
0001
1000
0000
,  // measure 71
0010
1000
0100
0000
,  // measure 72
0010
0001
0100
0010
,  // measure 73
0100
0001
1000
0001
,  // measure 74
0100
0010
1000
0010
,  // measure 75
0100
0001
0010
0100
,  // measure 76
1000
1000
0001
0000
,  // measure 77
0100
0100
0001
0000
,  // measure 78
0010
0010
0001
1000
,  // measure 79
0100
1000
0010
0100
,  // measure 80
0001
0000
1000
0000
,  // measure 81
0001
0100
0001
0000
,  // measure 82
1000
1000
0010
0100
,  // measure 83
0010
0000
0100
0000
,  // measure 84
0001
1000
0001
1000
,  // measure 85
0010
1000
0010
0100
,  // measure 86
0001
0000
1000
0001
,  // measure 87
1000
0001
0100
0000
,  // measure 88
0010
0100
0010
0100
,  // measure 89
0001
1000
0001
1000
,  // measure 90
0100
0000
1000
0100
,  // measure 91
1000
0100
0010
0001
,  // measure 92
0010
0000
0001
0100
,  // measure 93
0001
0000
1000
0100
,  // measure 94
1000
0000
0010
0000
,  // measure 95
0100
0010
0100
0000
,  // measure 96
0010
0000
0000
0000
,  // measure 97
0100
0000
0000
0000
,  // measure 98
0001
0000
0000
0000
,  // measure 99
1000
0000
0001
0000
,  // measure 100
1000
0000
0000
0000
;

//---------------dance-single - ----------------
#NOTEDATA:;
#CHARTNAME:;
#STEPSTYPE:dance-single;
#DESCRIPTION:;
#CHARTSTYLE:;
#DIFFICULTY:Medium;
#METER:10;
#RADARVALUES:0.424251,0.500088,0.046162,0.007694,0.000000,386.000000,380.000000,6.000000,1.000000,0.000000,0.000000,0.000000,0.000000,0.000000,0.424251,0.500088,0.046162,0.007694,0.000000,386.000000,380.000000,6.000000,1.000000,0.000000,0.000000,0.000000,0.000000,0.000000;
#CREDIT:;
#ATTACKS:TIME=50.48:LEN=3.79:MODS=3.5x, Sudden, Overhead, Midi-note:TIME=50.48:LEN=3.79:MODS=3.5x, Sudden, Overhead, Midi-note:TIME=50.48:LEN=3.79:MODS=3.5x, Sudden, Overhead, Midi-note:TIME=50.48:LEN=3.79:MODS=3.5x, Sudden, Overhead, Midi-note:TIME=50.48:LEN=3.79:MODS=3.5x, Sudden, Overhead, Midi-note:TIME=50.48:LEN=3.79:MODS=3.5x, Sudden, Overhead, Midi-note:TIME=50.48:LEN=3.79:MODS=3.5x, Sudden, Overhead, Midi-note:TIME=50.48:LEN=3.79:MODS=3.5x, Sudden, Overhead, Midi-note:TIME=50.48:LEN=3.79:MODS=3.5x, Sudden, Overhead, Midi-note;
#DISPLAYBPM:190.000000;
#NOTES:
// measure 0
0000
0000
0000
0000
,  // measure 1
0000
0000
0000
0000
,  // measure 2
0000
0000
0000
0000
,  // measure 3
0000
0000
0000
0000
,  // measure 4
0000
0000
0000
0000
,  // measure 5
0000
0000
0000
0000
,  // measure 6
0000
0000
0000
0000
,  // measure 7
0000
0000
0000
0000
,  // measure 8
0001
0100
0001
0000
,  // measure 9
1000
0010
1000
0000
,  // measure 10
0010
0100
0010
0100
,  // measure 11
0001
1000
0001
1000
,  // measure 12
0100
0010
0100
0010
,  // measure 13
0001
1000
0001
1000
,  // measure 14
0010
0100
0010
0100
,  // measure 15
0001
1000
0001
1000
,  // measure 16
0001
0001
0100
0100
,  // measure 17
0010
0010
1000
1000
,  // measure 18
0001
0001
0100
0100
,  // measure 19
0010
0010
1000
1000
,  // measure 20
0001
1000
0001
0000
1000
0001
1000
0000
,  // measure 21
0010
0100
0010
0000
0100
0010
0100
0000
,  // measure 22
0001
1000
0001
1000
,  // measure 23
0010
0000
0000
0000
,  // measure 24
0100
0001
1000
0001
,  // measure 25
0100
0000
0010
0000
1000
0001
1000
0000
,  // measure 26
0001
0000
0100
0000
0010
0100
0010
0000
,  // measure 27
0100
0001
1000
0001
,  // measure 28
1000
0000
0100
0000
0010
0100
0010
0000
,  // measure 29
0001
1000
0001
1000
,  // measure 30
0100
1000
0100
0000
0010
0000
0001
0000
,  // measure 31
0100
0001
0100
0000
0001
1000
0001
0000
,  // measure 32
1000
0010
1000
0010
,  // measure 33
0100
0001
0010
0001
,  // measure 34
0100
0010
1000
0010
,  // measure 35
1010
1000
0100
0010
,  // measure 36
0011
0001
0100
0010
,  // measure 37
1000
0001
1000
0001
,  // measure 38
1000
0001
1000
0001
0000
0001
0100
0000
,  // measure 39
0010
1000
0100
0010
,  // measure 40
0001
0000
0000
0000
,  // measure 41
0000
0000
0000
0000
,  // measure 42
1000
0000
0000
0000
,  // measure 43
0001
0000
0000
0000
,  // measure 44
0100
0000
0010
0000
,  // measure 45
0100
0000
0010
0000
,  // measure 46
1000
0001
1000
0000
0001
1000
0001
0000
,  // measure 47
1000
0000
0000
0000
,  // measure 48
0010
0000
0100
0010
0000
0100
0010
0000
,  // measure 49
0100
0000
0010
0100
0000
0010
0100
0000
,  // measure 50
0001
0000
1000
0001
0000
1000
0001
0000
,  // measure 51
1000
0000
0001
1000
0000
0001
1000
0000
,  // measure 52
0100
0000
0010
0001
0000
0010
0001
0000
,  // measure 53
0001
0000
0100
0001
0000
0100
0001
0000
,  // measure 54
1000
0000
0010
1000
0000
0010
1000
0000
,  // measure 55
0001
0000
0100
0001
0000
0100
0001
0000
,  // measure 56
1000
0100
0010
0001
,  // measure 57
0100
0000
0010
0100
0000
0010
0100
0000
,  // measure 58
0001
0000
1000
0001
0000
1000
0001
0000
,  // measure 59
1000
0000
0100
1000
0000
0100
1000
0000
,  // measure 60
0010
0000
0100
0010
0000
0100
0010
0000
,  // measure 61
0100
0000
0001
1000
0000
0001
1000
0000
,  // measure 62
0001
0000
0100
0001
0000
0100
0001
0000
,  // measure 63
2000
0000
0000
0000
,  // measure 64
3001
0100
0010
0100
,  // measure 65
0001
1000
0001
0000
1000
0000
0010
0000
,  // measure 66
0100
0010
1000
0100
,  // measure 67
0010
0000
0001
0010
0000
0001
0010
0000
,  // measure 68
0001
0100
0010
0100
,  // measure 69
0010
0000
1000
0010
0000
1000
0010
0000
,  // measure 70
0100
0010
1000
0001
,  // measure 71
1001
0000
0000
0110
0000
0000
1001
0000
,  // measure 72
0001
0100
0001
1000
,  // measure 73
0001
0000
1000
0001
0000
0001
1000
0000
,  // measure 74
0010
0100
0010
0100
,  // measure 75
0001
0000
1000
0001
0000
0001
1000
0000
,  // measure 76
0001
0100
1000
0100
,  // measure 77
0001
0000
0010
0001
0000
0001
0010
0000
,  // measure 78
0001
0100
0001
0000
1000
0001
1000
0000
,  // measure 79
0100
0010
0001
0100
,  // measure 80
0010
1000
0010
0000
0100
0000
0001
0000
,  // measure 81
0010
0000
0001
0000
0100
0001
0100
0000
,  // measure 82
0001
0000
0010
0000
0001
0100
0001
0000
,  // measure 83
1000
0100
1000
0010
,  // measure 84
0100
0000
0010
0000
1000
0100
1000
0000
,  // measure 85
0001
0000
0100
0000
0001
0010
0001
0000
,  // measure 86
0100
0000
0010
0000
1000
0010
1000
0000
,  // measure 87
0100
0010
0001
0100
,  // measure 88
0001
0100
0001
0000
1000
0000
0010
0000
,  // measure 89
1000
0010
1000
0000
0100
0000
0010
0000
,  // measure 90
0001
0000
0100
0000
0001
1000
0001
0000
,  // measure 91
1000
0010
0100
0010
,  // measure 92
0100
0000
0001
0000
0010
0001
0010
0000
,  // measure 93
0100
0000
1000
0000
0100
1000
0100
0000
,  // measure 94
0010
0001
1000
0001
,  // measure 95
1000
0010
0100
0010
,  // measure 96
0110
0000
0000
0000
,  // measure 97
1000
0000
0001
0000
,  // measure 98
0000
0000
1000
0000
0000
0010
0000
0000
,  // measure 99
0100
0010
1000
0001
,  // measure 100
1000
0000
0000
0000
;

//---------------dance-single - ----------------
#NOTEDATA:;
#CHARTNAME:;
#STEPSTYPE:dance-single;
#DESCRIPTION:;
#CHARTSTYLE:;
#DIFFICULTY:Hard;
#METER:14;
#RADARVALUES:0.699025,0.846304,0.361602,0.284666,0.126946,636.000000,589.000000,47.000000,37.000000,4.000000,0.000000,0.000000,0.000000,0.000000,0.699025,0.846304,0.361602,0.284666,0.126946,636.000000,589.000000,47.000000,37.000000,4.000000,0.000000,0.000000,0.000000,0.000000;
#CREDIT:;
#ATTACKS:TIME=50.480000:LEN=3.790000:MODS=3.5x, Sudden, Overhead, Midi-note:TIME=50.480000:LEN=3.790000:MODS=3.5x, Sudden, Overhead, Midi-note:TIME=50.480000:LEN=3.790000:MODS=3.5x, Sudden, Overhead, Midi-note:TIME=50.790916:LEN=5.000000:MODS=Speed 2x:TIME=50.790916:LEN=3.000000:MODS=Reverse;
#DISPLAYBPM:190.000000;
#NOTES:
// measure 0
0000
0000
0000
0000
,  // measure 1
0000
0000
0000
0000
,  // measure 2
0000
0000
0000
0000
,  // measure 3
0000
0000
0000
0000
,  // measure 4
0000
0000
0000
0000
,  // measure 5
0000
0000
0000
0000
,  // measure 6
0000
0000
0000
0000
,  // measure 7
0000
0000
0000
0000
,  // measure 8
1000
0100
1000
0001
0100
0001
1000
0010
,  // measure 9
1000
0001
0100
0001
0010
0100
1000
0000
,  // measure 10
0001
0100
1000
1000
0100
0001
1000
0010
,  // measure 11
0001
0001
0010
1000
0001
0100
0001
0000
,  // measure 12
1000
0010
1000
0001
0100
0100
0001
0010
,  // measure 13
0100
1000
0000
1000
0100
0001
0100
1000
,  // measure 14
0000
1000
0010
0100
0000
0100
0010
0001
,  // measure 15
0000
0001
0010
0100
0001
1000
0100
1000
,  // measure 16
0001
0100
0001
0010
0000
0010
0001
0000
,  // measure 17
1000
0001
0000
0100
0001
0010
0001
1000
,  // measure 18
0000
1000
0010
0100
0000
0010
0100
0000
,  // measure 19
0100
0001
0000
0001
1000
0100
0010
0001
,  // measure 20
0100
0010
0100
0010
0001
0010
0001
0010
,  // measure 21
1000
0010
1000
0010
0100
0010
0100
0010
,  // measure 22
1000
0100
0010
0001
1000
0001
0010
0100
,  // measure 23
2000
0000
0000
0000
,  // measure 24
3001
0100
0001
0100
1000
0100
1000
0100
,  // measure 25
0010
1000
0100
0010
0001
0100
0010
1000
,  // measure 26
0100
0100
0001
0100
0000
0100
0010
0000
,  // measure 27
0001
0010
0000
0010
0001
0100
1000
0100
,  // measure 28
0010
0100
0010
0001
0000
0001
0010
0100
,  // measure 29
0001
0010
0100
1000
0001
1000
0001
0010
,  // measure 30
0000
0010
0001
0100
0000
0100
1000
0000
,  // measure 31
1000
0000
0100
0000
0001
0000
0101
0000
0000
0000
0100
0000
0001
0000
1000
0100
,  // measure 32
1000
0010
0100
0001
0000
0001
0010
0100
,  // measure 33
1000
0100
0010
1000
0010
0100
1000
0010
,  // measure 34
0000
0010
0100
0001
0000
0001
0010
0000
,  // measure 35
0010
0100
0000
0100
1000
0000
1000
0010
,  // measure 36
1000
0100
1000
0100
0010
0001
0010
0001
,  // measure 37
0100
0010
0100
0010
1000
0100
0010
0001
,  // measure 38
1000
0000
1000
0001
0000
0001
1000
0000
,  // measure 39
1000
0100
0010
0001
0000
0100
0010
1000
,  // measure 40
1001
0000
0000
0000
,  // measure 41
MMMM
0000
0000
0000
,  // measure 42
0110
0000
0000
0000
,  // measure 43
1001
0000
0000
0000
,  // measure 44
1000
1000
0100
0100
0010
0010
0001
0001
,  // measure 45
1000
1000
0001
0001
0010
0010
0100
0100
,  // measure 46
2000
0000
0000
0000
,  // measure 47
3002
0000
0203
0000
,  // measure 48
0301
0000
0010
0002
0000
1003
0100
1000
,  // measure 49
0010
0000
0000
0010
0000
0000
0020
0000
0000
0000
1030
0000
0100
0000
0010
0000
,  // measure 50
0001
0010
0000
0001
1000
0000
0002
0000
0000
0000
0103
0000
0010
0000
1000
0000
,  // measure 51
0100
0000
0000
1000
0000
0000
0002
0000
0000
0000
0000
0000
0013
0000
0001
0000
,  // measure 52
0100
0010
0000
0100
0010
0000
2000
0000
0000
0000
3001
0000
1000
0000
0010
0000
,  // measure 53
1000
0000
0000
1001
0000
0000
0001
0000
0000
0000
1000
0000
0001
0000
0010
0000
,  // measure 54
0100
0010
0000
0001
0010
0000
0100
0010
0000
0001
0010
0000
0001
0000
1000
0000
,  // measure 55
1001
0000
0000
0101
0000
0000
0220
0000
0000
0000
0000
0000
0330
0000
0000
0000
,  // measure 56
1001
0000
0000
0101
0000
0000
0012
0000
0000
0000
1003
0000
0010
0000
1000
0000
,  // measure 57
1100
0000
0000
1010
0000
0000
2002
0000
0000
0000
3003
0000
0001
0000
0100
0000
,  // measure 58
0010
0100
0000
0010
1000
0000
0020
0000
0000
0000
1030
0000
0100
0000
0010
0000
,  // measure 59
0011
0000
0000
0101
0000
0000
2002
0000
0000
0000
3003
0000
1000
0000
0100
0000
,  // measure 60
0010
0100
0000
1000
0100
0000
0010
0100
0000
1000
0100
0000
0010
0000
0001
0000
,  // measure 61
1001
0000
0000
1100
0000
0000
1020
0000
0000
0000
0130
0000
0001
0000
0010
0000
,  // measure 62
0001
0100
0000
0001
1000
0000
0010
1000
0000
0100
1000
0000
0010
0000
1000
0000
,  // measure 63
0002
0000
0000
0000
,  // measure 64
1003
1000
0001
0001
0100
0100
0010
0010
,  // measure 65
1000
0000
1000
0001
0000
0001
0100
0010
,  // measure 66
1000
0100
0010
0001
0100
0010
1000
0001
,  // measure 67
0010
0000
0010
1000
0000
1000
0100
0010
,  // measure 68
0001
0100
0010
0100
0001
0100
0010
0100
,  // measure 69
0001
0000
0001
0100
0000
0100
1000
0100
,  // measure 70
0010
0100
1000
0010
0100
0010
0001
0010
,  // measure 71
0100
0000
0000
0000
0100
0000
0110
0000
0000
0000
0010
0000
1000
0000
0001
1000
,  // measure 72
0001
1000
0001
0010
0100
1000
0001
0100
,  // measure 73
0101
0000
1001
1010
0000
0010
1000
0100
,  // measure 74
1000
0100
0010
0001
0100
0010
1000
0010
,  // measure 75
0110
0000
0100
0000
0010
0000
0110
0000
0100
0000
0001
0000
1001
0000
1000
0010
,  // measure 76
1000
0001
1000
0010
0100
0001
0100
0010
,  // measure 77
1010
0000
1100
1001
0000
0001
0010
0001
,  // measure 78
0100
0000
0010
0000
0100
0000
0010
0000
1000
0000
0010
0000
1000
0001
1000
0001
,  // measure 79
0100
0001
0100
0001
0000
0001
0010
0100
,  // measure 80
1000
1000
0010
0100
0010
0001
0010
0100
,  // measure 81
0010
1001
0000
0100
1000
0100
0010
0002
,  // measure 82
0000
0103
0001
2000
0000
3010
0110
0000
,  // measure 83
0101
2001
0000
3001
0010
0010
0001
0001
,  // measure 84
1000
0100
0010
0100
1000
0001
0010
0100
,  // measure 85
0010
0001
0000
0001
1000
0100
0010
0001
,  // measure 86
0100
0000
0100
1001
0000
0010
1001
0000
,  // measure 87
0010
0000
0100
0000
0110
0000
1010
0000
0000
0000
1000
0000
0001
0000
0100
0001
,  // measure 88
0100
0100
0010
1000
0100
1000
0001
0010
,  // measure 89
0001
0002
0000
0103
0010
1000
0100
0010
,  // measure 90
0000
0010
0100
1000
0001
0010
0022
0033
,  // measure 91
0001
0202
0303
0010
2020
3030
1001
0202
,  // measure 92
0303
1000
0001
0100
0001
0001
0010
0010
,  // measure 93
0100
0100
1000
1000
0010
0100
0010
0100
,  // measure 94
0001
0100
1000
2200
3300
0100
0202
0303
,  // measure 95
0001
0000
0011
0000
0010
0000
0210
0000
0000
0000
1300
0000
0001
1000
0001
0000
,  // measure 96
2000
0000
0000
0000
0000
0001
0000
0000
,  // measure 97
0100
0000
0100
0000
0010
0010
0010
0000
,  // measure 98
0000
0000
0001
0000
0000
0100
0000
0000
,  // measure 99
0001
0000
0010
0000
0001
0001
0001
0000
,  // measure 100
3100
0000
0000
0000
;
