#TITLE:Vision;
#SUBTITLE:;
#ARTIST:nora3;
#TITLETRANSLIT:;
#SUBTITLETRANSLIT:;
#ARTISTTRANSLIT:;
#GENRE:;
#CREDIT:;
#BANNER:VISION.png;
#BACKGROUND:;
#LYRICSPATH:;
#CDTITLE:;
#MUSIC:VISION.ogg;
#OFFSET:-1.388000;
#SAMPLESTART:48.442879;
#SAMPLELENGTH:14.999999;
#SELECTABLE:YES;
#BPMS:0.000000=173.000000
,128.000000=346.000000
,143.000000=173.000000
;
#STOPS:142.000000=0.173000
;
#BGCHANGES:;
#KEYSOUNDS:;
#ATTACKS:;

//---------------dance-single - ----------------
#NOTES:
     dance-single:
     :
     Beginner:
     3:
     0.164184,0.239019,0.000000,0.008328,0.000000,138.000000,138.000000,0.000000,1.000000,0.000000,0.000000,0.164184,0.239019,0.000000,0.008328,0.000000,138.000000,138.000000,0.000000,1.000000,0.000000,0.000000:
0000
0000
0000
0000
,
0000
0000
0000
0000
,
1000
0000
0000
0000
,
0000
0000
0000
0000
,
1000
0000
0010
0000
,
1000
0000
0001
0000
,
0100
0000
0000
0000
,
0010
0000
0010
0000
,
1000
0000
1000
0000
,
0001
0000
0001
0000
,
0100
0000
0100
0000
,
0010
0000
0010
0000
,
1000
0000
1000
0000
,
0001
0000
0001
0000
,
0100
0000
0100
0000
,
0010
0000
0010
0000
,
1000
0000
0001
0000
,
1000
0000
0100
0000
,
1000
0000
0010
0000
,
0100
0000
0010
0000
,
1000
0000
0001
0000
,
1000
0000
0001
0000
,
0010
0000
0010
0000
,
0100
0000
0100
0000
,
1000
0000
1000
0000
,
0001
0000
0001
0000
,
0100
0000
0100
0000
,
0010
0000
0010
0000
,
1000
1000
1000
0000
,
0001
0001
0001
0000
,
0100
0000
0100
0000
,
0010
0000
0010
0000
,
1000
0000
0000
0000
,
0000
0000
0000
0000
,
0001
0000
0001
0000
,
0100
0000
0100
0000
,
0010
0000
0010
0000
,
2000
0000
3001
0000
,
0001
0000
0000
0000
,
0100
0000
0100
0000
,
0010
0000
0010
0000
,
1000
0000
0000
0000
,
0001
0000
0001
0000
,
0100
0000
0100
0000
,
0010
0000
0010
0000
,
1000
0000
1000
0000
,
0001
0000
0100
0000
,
0001
0000
0000
0000
,
0010
0000
0010
0000
,
0100
0000
0000
0000
,
0100
0000
0000
0000
,
0000
0000
0000
0000
,
1000
0000
0000
0000
,
0000
0000
0000
0000
,
0010
0000
0000
0000
,
0010
0000
0000
0000
,
0100
0000
0000
0000
,
0100
0000
0000
0000
,
0001
0000
0000
0000
,
1000
0000
0000
0000
,
0100
0000
0000
0000
,
1000
0000
0000
0000
,
0010
0000
0010
0000
,
0100
0000
0100
0000
,
0001
0000
0001
0000
,
1000
0000
1000
0000
,
0010
0000
0010
0000
,
0100
0000
0100
0000
,
0001
0000
0001
0000
,
1000
0000
1000
0000
,
0100
0000
0100
0000
,
0010
0000
0010
0000
,
0001
0000
0001
0000
,
1000
0000
1000
0000
,
0010
0000
0100
0000
,
0010
0000
0100
0000
,
0001
0000
1000
0000
,
0001
0000
1000
0000
,
0100
0000
0010
0000
,
0001
0000
0010
0000
,
0100
0000
1000
0000
,
0001
0000
1000
0000
,
0001
0000
0000
0000
;

//---------------dance-single - ----------------
#NOTES:
     dance-single:
     :
     Easy:
     5:
     0.242707,0.307311,0.016656,0.024985,0.000000,204.000000,202.000000,2.000000,3.000000,0.000000,0.000000,0.242707,0.307311,0.016656,0.024985,0.000000,204.000000,202.000000,2.000000,3.000000,0.000000,0.000000:
0000
0000
0000
0000
,
0000
0000
0000
0000
,
0100
0100
0100
0000
,
0010
0010
0010
0000
,
1000
0000
0001
0000
,
1000
0000
0100
0000
,
0010
0001
0010
0000
,
0001
0000
1000
0000
,
0001
1000
0001
0000
,
0100
0010
0100
0000
,
0010
1000
0010
0000
,
1000
0001
1000
0000
,
0001
0001
0001
0000
,
0100
0100
0100
0000
,
0010
0000
0010
0000
,
1000
0000
1000
0000
,
0001
0000
0001
0000
,
0100
0000
0100
0000
,
0010
0000
0010
0000
,
1000
0000
1000
0001
,
1000
0000
0001
0000
,
1000
0000
0001
0000
,
0100
0000
0000
0000
,
0010
0000
1000
0010
,
1000
0000
0010
0000
,
0100
0000
0001
0100
,
0001
0000
1000
0000
,
0010
0000
1000
0100
,
0010
0000
0010
0001
,
0100
0000
0100
0010
,
1000
0000
1000
0001
,
0010
0000
0010
0100
,
2000
0000
0000
0000
,
0000
0000
0000
0000
,
3001
0001
0100
0000
,
0010
0010
0110
0000
,
1000
1000
1001
0000
,
0001
0000
1000
0000
,
0001
1000
0001
0000
,
0100
0100
0010
0010
,
1000
0000
0001
0000
,
2000
0000
3001
0000
,
0200
0000
0310
0000
,
1000
1000
0010
0010
,
0100
0000
0001
0001
,
0010
0010
1000
1000
,
0010
0000
0001
0100
,
1000
0000
0001
0010
,
1000
0000
0100
0000
,
0001
0000
0010
0000
,
1000
0000
0000
0000
,
0001
0000
0000
0000
,
1000
0000
0000
0000
,
0100
0000
0000
0000
,
0010
0000
0000
0000
,
0001
0000
0000
0000
,
0100
0000
0000
0000
,
0010
0000
0000
0000
,
0100
0100
0100
0000
,
0001
0001
0001
0000
,
1000
1000
1000
0000
,
0010
0010
0010
0000
,
0100
0001
0100
0000
,
0001
1000
0001
0000
,
1000
0010
1000
0010
,
0100
0001
0100
0001
,
0010
0000
0010
0100
,
1000
0000
1000
0001
,
0100
0000
0100
0001
,
0010
0000
0010
0100
,
1000
0000
1000
0100
,
0010
0000
0001
1000
,
0001
0000
1000
0100
,
1000
0000
0010
0100
,
0010
0000
1000
0000
,
0001
0000
1000
0001
,
1000
0000
0001
0000
,
0100
0000
0010
0100
,
0010
0000
1000
0000
,
0001
1000
0001
0000
,
1000
0100
1000
0000
,
0010
0100
0010
0000
,
0100
0000
0000
0000
;

//---------------dance-single - ----------------
#NOTES:
     dance-single:
     :
     Medium:
     11:
     0.383097,0.446600,0.074954,0.191549,0.000000,322.000000,313.000000,9.000000,23.000000,0.000000,0.000000,0.383097,0.446600,0.074954,0.191549,0.000000,322.000000,313.000000,9.000000,23.000000,0.000000,0.000000:
// measure 0
0000
0000
0000
0000
,  // measure 1
0000
0000
0000
0000
,  // measure 2
0010
1000
0010
1000
,  // measure 3
1100
0000
0001
0010
,  // measure 4
0001
0100
1000
0100
,  // measure 5
0001
0010
0001
0000
1000
0000
0100
0000
,  // measure 6
1000
0010
0100
0010
,  // measure 7
1000
1000
0001
0001
,  // measure 8
0100
0100
0100
0100
,  // measure 9
0010
0010
0010
0010
,  // measure 10
1000
1000
1000
1000
,  // measure 11
0001
0001
0001
0001
,  // measure 12
0100
0100
0010
0010
,  // measure 13
1000
1000
0001
0001
,  // measure 14
0100
0010
0100
0000
0010
0100
0010
0000
,  // measure 15
1000
0000
0001
0000
1000
0001
1000
0001
,  // measure 16
1000
0010
0100
0001
,  // measure 17
0010
0000
0001
0000
1000
0100
1000
0000
,  // measure 18
0010
0100
0010
1000
,  // measure 19
0001
0000
0100
0000
0001
0100
0001
0000
,  // measure 20
0100
0010
1000
0010
,  // measure 21
1000
0000
0100
0000
1000
0100
1000
0000
,  // measure 22
0001
0100
0010
0100
,  // measure 23
0001
0000
1000
0000
0010
1000
0010
0000
,  // measure 24
1000
0001
0010
0001
,  // measure 25
0100
0010
1000
0010
,  // measure 26
0100
0000
0001
1000
0001
0000
1000
0000
,  // measure 27
0010
0100
0010
0001
,  // measure 28
0010
0100
0010
1000
,  // measure 29
0001
0000
1000
0000
0001
1000
0001
0000
,  // measure 30
0100
0010
0100
0001
,  // measure 31
0010
0100
1000
0001
,  // measure 32
2002
0000
0000
0000
,  // measure 33
0000
0000
0000
3003
,  // measure 34
0001
0010
0001
0100
,  // measure 35
0010
0010
1000
1000
0001
0000
0100
0000
,  // measure 36
0010
1000
0001
1000
,  // measure 37
2002
3003
1000
0100
,  // measure 38
1000
0010
0100
0001
,  // measure 39
1000
0001
0010
0001
,  // measure 40
0100
0010
1000
0010
,  // measure 41
1000
0010
1000
0000
0001
1000
0001
0000
,  // measure 42
1000
0100
1000
0010
,  // measure 43
0200
0301
1000
0001
,  // measure 44
2000
3010
0100
0001
,  // measure 45
0020
0031
1000
1001
,  // measure 46
0001
0100
0010
1000
,  // measure 47
0200
0310
0001
0010
,  // measure 48
0200
2300
3002
0023
,  // measure 49
0032
0000
0000
0000
,  // measure 50
2003
0000
0000
0000
,  // measure 51
3020
0000
0000
0000
,  // measure 52
0230
0000
0000
0000
,  // measure 53
0302
0000
0000
0000
,  // measure 54
2003
0000
0000
0000
,  // measure 55
3002
0000
0000
0000
,  // measure 56
0023
0000
0000
0000
,  // measure 57
0230
0000
1300
0001
,  // measure 58
1000
0010
0100
0000
,  // measure 59
0010
1000
1001
0001
,  // measure 60
0100
0010
0110
0100
,  // measure 61
0001
1000
1001
0001
,  // measure 62
0010
0000
0001
0000
0100
1000
0100
0000
,  // measure 63
0001
0100
0001
0000
1000
0010
1000
0000
,  // measure 64
0001
1000
0001
0000
1000
0001
1000
0000
,  // measure 65
0001
0100
0010
0100
,  // measure 66
0101
0001
0010
0001
,  // measure 67
0010
0000
0100
0000
1000
0100
1000
0100
,  // measure 68
1000
0001
1000
0001
,  // measure 69
0010
0001
0100
0010
,  // measure 70
1000
1000
0100
1000
,  // measure 71
0010
0100
0001
0010
,  // measure 72
0001
0000
1000
0001
1000
0000
0100
0000
,  // measure 73
1000
0000
0010
0100
0010
0000
0100
0000
,  // measure 74
0001
1000
0001
0010
,  // measure 75
0001
0100
0010
1000
,  // measure 76
0010
0100
0001
0010
,  // measure 77
0100
1000
0001
1000
,  // measure 78
0010
1000
0100
0010
,  // measure 79
0001
1000
0100
1000
,  // measure 80
0010
1000
0010
0000
1000
0100
1000
0000
,  // measure 81
0001
0000
0010
0000
0001
0010
0001
0000
,  // measure 82
2002
0000
3003
0000
;

//---------------dance-single - ----------------
#NOTES:
     dance-single:
     :
     Hard:
     14:
     0.738830,0.879666,0.491364,0.216533,0.416410,621.000000,562.000000,59.000000,26.000000,0.000000,0.000000,0.738830,0.879666,0.491364,0.216533,0.416410,621.000000,562.000000,59.000000,26.000000,0.000000,0.000000:
// measure 0
0000
0000
0000
0000
,  // measure 1
0000
0000
0000
0000
,  // measure 2
0001
0001
0100
0010
1000
1000
0002
0000
,  // measure 3
0203
0000
0000
0310
0110
0000
1001
0000
,  // measure 4
0001
1000
0001
0000
0100
0100
0010
0010
,  // measure 5
1000
1000
0001
0001
0101
0000
0110
0000
,  // measure 6
0010
1000
0010
0000
1000
0000
0100
0000
0010
0000
0001
0000
1002
0000
0000
0000
,  // measure 7
1003
0100
0010
0001
0010
0100
1000
0000
,  // measure 8
0010
0010
0010
0010
,  // measure 9
0100
0100
0100
0100
,  // measure 10
1001
1001
1001
1001
,  // measure 11
0110
0110
0110
0110
,  // measure 12
0001
1000
0001
1000
0010
0100
0010
0100
,  // measure 13
0001
0010
0001
0010
0100
1000
0100
1000
,  // measure 14
0001
0010
1000
0010
0001
0100
1000
0100
,  // measure 15
0101
0000
0011
0000
0010
0100
1000
0100
,  // measure 16
0010
0000
0000
0000
1001
0000
0000
0000
0010
1000
0000
0001
1000
0000
0001
0100
,  // measure 17
0000
1001
0000
1000
0010
0100
0001
0010
,  // measure 18
0100
0000
0000
0000
0011
0000
0000
0000
1000
0010
0000
1000
0010
0000
1000
0001
,  // measure 19
0000
0101
0000
0001
0010
1000
0010
0001
,  // measure 20
0100
0000
0000
0000
0110
0000
0000
0000
1010
0000
0000
1100
0000
0000
0101
0000
,  // measure 21
0000
0011
0000
0010
0100
1000
0001
1000
,  // measure 22
1010
0000
0000
0000
0110
0000
0000
0000
0100
0001
0000
0100
0001
0000
1000
0001
,  // measure 23
0000
0000
0001
0100
0000
0000
0001
0000
1000
0010
1000
0000
0001
0000
0100
0000
,  // measure 24
0001
1000
0000
0000
1000
0001
0000
0000
0001
0100
0000
0001
0010
0000
0001
0100
,  // measure 25
0000
0001
0010
0000
0000
0000
0001
0000
1000
0000
0010
0000
1000
0000
0100
0000
,  // measure 26
0011
0000
0000
0000
0010
0000
0001
0000
0100
0001
0000
1000
0001
0000
1000
0100
,  // measure 27
0000
1100
0000
0010
0001
0100
0010
0100
,  // measure 28
0001
0010
0001
0010
0100
1000
0100
1000
,  // measure 29
0010
0100
0010
0100
0001
1000
0001
1000
,  // measure 30
0001
0100
0001
0100
0001
0000
1000
0000
0010
1000
0010
1000
0010
0000
1000
0000
,  // measure 31
0100
0010
0001
0100
0010
1000
0100
0010
,  // measure 32
0002
0000
0000
0000
,  // measure 33
0000
0000
0000
0000
,  // measure 34
1003
0010
1000
0001
,  // measure 35
0100
0000
0000
0000
0000
0000
0000
0000
0001
0000
0000
0000
0000
0000
0000
0000
2002
3003
0000
0000
0000
0000
0000
0000
0010
0000
0000
0000
0100
0000
0000
0000
,  // measure 36
0101
0000
0000
0000
0001
1000
0001
0000
0100
0000
0100
0000
0010
0000
0010
0000
,  // measure 37
1000
0000
0100
0000
1100
0000
0000
0000
0011
0000
0000
0000
0001
0100
0001
0000
,  // measure 38
1000
0000
0010
0000
1000
0001
1000
0000
2002
0000
3003
0000
0202
0000
0000
0000
,  // measure 39
0303
0000
0001
1000
0010
0000
0000
0000
2020
0000
3030
0000
0100
0000
0001
0000
,  // measure 40
1000
0000
0000
0000
0100
1000
0100
0000
0010
0001
0010
0000
0100
0000
0100
0000
,  // measure 41
1000
0000
0001
0000
1001
0000
0000
0000
0022
0000
0033
0000
1000
0100
2000
3000
,  // measure 42
0001
0010
0002
0003
0100
0010
0100
0010
0200
0000
0000
0000
0301
0010
0001
0010
,  // measure 43
0001
1100
1100
1001
,  // measure 44
0000
0000
0001
0000
0010
0001
0010
0001
1000
0000
0010
0000
1000
0000
0000
0000
,  // measure 45
0001
0100
0001
0100
0010
0000
0100
0000
0110
0000
0000
0000
1001
0000
0000
0000
,  // measure 46
0000
0000
1000
0000
0100
0010
0100
0010
0100
0000
0010
0000
0001
0000
0001
0000
,  // measure 47
0100
0100
1000
1000
0010
0010
0002
0000
,  // measure 48
0003
0000
0100
0000
0001
0010
0001
0010
0001
0000
0100
0000
0010
0000
0000
0000
,  // measure 49
1000
0100
1000
0100
1000
0000
0010
0000
0100
0000
0100
0000
0001
1000
0001
1000
,  // measure 50
0001
1000
0001
0000
0100
0001
0100
0001
0100
0001
0100
0001
0100
0000
0000
0000
,  // measure 51
0000
0000
0000
2001
,  // measure 52
0000
0000
0000
3020
,  // measure 53
0000
0000
0000
0230
,  // measure 54
0000
0000
0000
0302
,  // measure 55
0000
1000
0000
2003
,  // measure 56
0010
0010
0010
3020
,  // measure 57
0000
0100
0000
0230
,  // measure 58
0000
0001
0000
0301
,  // measure 59
1001
0000
1000
0100
0010
0001
0100
0000
,  // measure 60
1001
0000
0001
0100
1000
0000
0100
0000
,  // measure 61
0001
0000
0010
1000
0010
0000
0001
0000
,  // measure 62
1000
0000
0010
1000
0100
0000
0010
0001
,  // measure 63
0100
0000
0001
0100
0010
0000
1000
0010
,  // measure 64
1000
0010
0100
0001
0100
0001
0010
0100
,  // measure 65
0010
0000
0100
0000
1000
0000
0001
0000
1000
0000
0001
0000
0100
0001
0100
0000
,  // measure 66
0001
1000
0001
0000
1000
0010
1000
0000
0010
0100
0010
0000
0100
0001
0100
0001
,  // measure 67
1000
0000
0001
0000
1000
0010
1000
0010
0100
0000
0000
0000
0001
0000
0000
0000
,  // measure 68
1001
0000
0000
0000
1000
0010
0000
0100
0010
0000
1010
0000
0000
0000
1001
0000
,  // measure 69
0000
0000
0001
0000
0100
0010
0100
0000
0001
1000
0001
0000
1000
0010
0000
0000
,  // measure 70
0010
0100
0000
0000
0100
0001
0000
1000
0001
0000
1000
0010
0000
0000
1100
0000
,  // measure 71
0000
0110
0000
0010
0001
1000
1001
0000
,  // measure 72
1100
0000
0000
0000
0110
0000
0000
0011
0000
0000
1001
0000
0000
0000
1010
0000
,  // measure 73
0000
0000
1000
0000
0100
0010
0100
0010
0001
0010
0001
0000
0100
0000
0010
0000
,  // measure 74
1000
0000
0001
0000
1000
0010
1000
0010
0100
0010
0100
0000
0001
0000
0010
0000
,  // measure 75
0001
0000
1000
0000
0010
0000
0100
0001
0100
0001
1000
0000
0010
0000
0100
0000
,  // measure 76
0001
0010
0001
0000
1000
0100
0000
0010
0001
0000
0100
0000
0010
0000
1000
0000
,  // measure 77
0000
0000
0001
0000
0100
0010
0100
0000
0001
0010
0001
0000
1001
0000
0000
0000
,  // measure 78
1010
0000
0000
0000
0100
0010
0000
0010
0100
0000
0100
0001
0000
0001
1000
0000
,  // measure 79
0010
1000
0000
0100
0110
0000
0010
0001
,  // measure 80
0010
0000
0001
0000
0100
0000
0010
0000
0100
0000
0010
0000
1000
0000
0100
1000
,  // measure 81
0100
0000
1000
0000
0001
0010
0001
0000
0010
0000
0001
0000
0100
0010
0100
0000
,  // measure 82
0010
0000
1000
0001
1000
0000
0001
1000
0001
0000
0100
0000
0010
1000
0010
0000
,  // measure 83
0100
0000
0001
0010
0001
0000
1000
0010
1000
0010
0100
0001
0200
0000
0000
0000
,  // measure 84
0000
0000
0300
0000
;

//---------------dance-single - ----------------
#NOTES:
     dance-single:
     :
     Challenge:
     15:
     0.792369,0.950039,0.541333,0.233190,0.516348,666.000000,601.000000,65.000000,28.000000,0.000000,0.000000,0.792369,0.950039,0.541333,0.233190,0.516348,666.000000,601.000000,65.000000,28.000000,0.000000,0.000000:
// measure 0
0000
0000
0000
0000
,  // measure 1
0000
0000
0000
0000
,  // measure 2
0001
1000
0001
0000
0100
0000
0010
0000
1000
0100
1000
0000
0002
0000
0000
0000
,  // measure 3
0203
0000
0000
0000
0000
0000
0310
1000
0010
0000
0000
0000
1001
0000
0000
0000
,  // measure 4
0001
0000
1000
0100
1000
0000
0001
0000
0010
0100
0010
0000
0100
1000
0100
0000
,  // measure 5
1000
1000
0001
0001
0101
0000
0110
0000
,  // measure 6
0010
1000
0010
0000
1000
0000
0100
0010
0100
0010
0100
0000
2000
0000
0000
0000
,  // measure 7
3001
0001
0010
0010
0100
0100
1001
0000
,  // measure 8
0010
0000
0010
0000
0010
0010
0010
0000
,  // measure 9
0100
0000
0100
0000
0100
0100
0100
0000
,  // measure 10
1001
0000
1001
0000
1001
1001
1001
0000
,  // measure 11
0110
0000
0110
0000
0110
0110
0110
0000
,  // measure 12
0001
1000
0001
1000
0010
0100
0010
0100
,  // measure 13
0001
0010
0001
0010
0100
1000
0100
1000
,  // measure 14
0001
0010
0001
0010
0001
0010
0001
0000
1000
0100
1000
0100
1000
0100
1000
0000
,  // measure 15
0101
0000
1001
0000
1000
0100
0010
0001
,  // measure 16
0100
0000
0000
0000
0110
0000
0000
0000
0010
1000
0000
0001
1000
0000
0001
0100
,  // measure 17
0000
0001
0010
0000
0000
0000
0001
0000
0010
0000
0100
0000
1000
0000
0100
0000
,  // measure 18
0010
0000
0000
0000
1001
0000
0000
0000
1000
0010
0000
1000
0010
0000
1000
0100
,  // measure 19
0000
1100
0000
0001
0010
0100
0010
0001
,  // measure 20
1001
0000
0000
0000
0110
0000
0000
0000
1010
0000
0000
1100
0000
0000
0101
0000
,  // measure 21
0000
0011
0000
0010
0100
1000
0001
1000
,  // measure 22
1010
0000
0000
0000
0110
0000
0000
0000
0100
0001
0000
0100
0001
0000
1000
0000
,  // measure 23
0001
0000
0100
0000
0000
0000
0001
0000
1000
0010
1000
0000
0001
0000
0100
0000
,  // measure 24
0001
1000
0001
1000
0010
0000
0000
0000
0100
0000
0010
1000
0000
0010
0100
0000
,  // measure 25
0000
0000
0101
0000
0000
0000
0001
0000
1000
0100
1000
0000
0100
0000
0010
0000
,  // measure 26
0001
0000
0000
0000
0010
0000
0001
0000
0100
0001
0000
1000
0001
0000
1000
0100
,  // measure 27
0000
1100
0000
0010
0001
0100
0010
0100
,  // measure 28
0001
0010
0001
0010
0100
1000
0100
1000
,  // measure 29
0010
0100
0010
0100
0001
1000
0001
1000
,  // measure 30
0001
0100
0001
0100
0001
0100
0001
0100
0010
1000
0010
1000
0010
1000
0010
1000
,  // measure 31
0100
0010
0001
0100
0010
1000
0100
0010
,  // measure 32
0002
0000
0000
0000
,  // measure 33
0000
0000
0000
0000
,  // measure 34
1003
0010
0000
0010
1000
0000
0001
0000
,  // measure 35
1000
0000
0000
0000
0100
0000
0000
0000
0010
0000
0000
0000
0001
0000
0000
0000
2000
3000
0000
0000
0000
0000
0000
0000
0010
0000
0000
0000
0100
0000
0000
0000
,  // measure 36
1001
0000
1000
0000
0001
1000
0001
0000
0100
0000
0100
0000
0010
1000
0010
0000
,  // measure 37
1000
0000
0100
0000
1100
0000
0000
0000
0011
0000
0000
0000
0001
0100
0001
0000
,  // measure 38
1000
0000
0010
0000
1000
0001
1000
0000
2002
0000
3003
0000
0202
0000
0000
0000
,  // measure 39
0303
0000
0001
1000
0010
0000
0000
0000
2020
0000
3030
0000
1000
0000
0001
1000
,  // measure 40
0001
0000
0010
0000
0100
1000
0100
0000
0010
0001
0010
0000
0001
0000
0110
0000
,  // measure 41
1000
0000
0110
0000
0001
0000
0000
0000
2002
0000
3003
0000
1000
0100
2000
3000
,  // measure 42
0001
0010
0002
0003
0100
0010
0100
0010
0200
0000
0000
0000
0301
0010
0100
1000
,  // measure 43
0100
0010
0001
0000
1001
0000
0000
0000
1100
0000
0000
0000
2020
0000
0000
0000
,  // measure 44
3030
0000
0100
0000
0010
1000
0010
1000
0001
0000
1000
0000
1001
0000
0000
0000
,  // measure 45
0001
0100
0001
0100
0010
0000
0100
0000
0110
0000
0000
0000
1001
0000
0000
0000
,  // measure 46
0000
0000
0001
0000
0010
0100
1000
0100
0010
0000
0010
0000
0001
0000
0001
0000
,  // measure 47
0100
0100
1000
1000
0010
0010
0002
0000
,  // measure 48
0003
0000
0100
0000
0001
1000
0001
1000
0010
0000
0100
0000
0120
0000
0000
0000
,  // measure 49
1030
0100
0010
0001
0100
0000
0010
0000
0100
0000
0100
0000
0001
1000
0001
1000
,  // measure 50
0001
1000
0001
1000
0001
0100
0001
0100
0001
0100
0001
0100
0001
0000
0000
0000
,  // measure 51
0000
0000
0000
2001
,  // measure 52
0000
0000
0000
3020
,  // measure 53
0000
0000
0000
0230
,  // measure 54
0000
0000
0000
0302
,  // measure 55
0000
1000
0000
2003
,  // measure 56
0000
0010
0000
3020
,  // measure 57
0000
0100
0000
0230
,  // measure 58
0000
0001
0000
0301
,  // measure 59
1001
0000
1000
0100
0001
0100
1000
0000
,  // measure 60
1001
0000
0001
0100
1000
0100
0001
0000
,  // measure 61
1001
0000
1000
0100
0010
0001
0100
0000
,  // measure 62
1001
0000
0010
1000
0100
0010
0001
0000
,  // measure 63
1001
0000
1000
0100
0010
0100
1000
1000
,  // measure 64
0001
0001
0100
0100
0010
0010
1000
0100
,  // measure 65
1000
0000
0100
0000
0010
0000
0001
0000
0010
0000
0001
0000
0100
0001
0100
0000
,  // measure 66
0001
1000
0001
0000
1000
0010
1000
0000
0010
0100
0010
0000
0100
0001
0100
0001
,  // measure 67
0100
0001
1000
0010
1000
0010
1000
0010
0100
0000
0000
0000
0001
1000
0000
0000
,  // measure 68
1001
0000
0000
0000
1000
0000
0001
0100
0001
0000
0011
0000
0000
0000
1001
0000
,  // measure 69
0000
0000
0001
0000
0100
0010
0100
0000
0001
1000
0001
0000
1000
0010
0000
0000
,  // measure 70
0010
0100
0000
0000
0100
0001
0000
1000
0001
0000
1000
0010
0000
0000
1010
0000
,  // measure 71
0000
0110
0000
0100
0001
1000
1001
0000
,  // measure 72
1100
0000
0000
0000
0110
0000
0000
0011
0000
0000
1001
0000
0000
0000
1010
0000
,  // measure 73
0000
0000
1000
0000
0100
0010
0100
0010
0001
0010
0001
0000
0100
0000
0010
0000
,  // measure 74
1000
0000
0001
0000
1000
0010
1000
0010
0100
0010
0100
0000
0001
0000
0010
0000
,  // measure 75
0001
0000
1000
0000
0010
0000
0100
0001
0100
0001
0010
0000
0100
1000
0100
0000
,  // measure 76
1000
0000
0001
0000
1000
0100
0000
0010
0001
0000
0100
0000
0010
0000
1000
0000
,  // measure 77
0000
0000
0001
0000
0100
0010
0100
0000
0001
0010
0001
0000
1001
0000
0000
0000
,  // measure 78
1010
0000
0000
0000
0100
0010
0000
0010
0100
0000
0100
0001
0000
0001
1000
0000
,  // measure 79
0010
1000
0000
0100
0110
0000
0010
0001
,  // measure 80
0010
0000
0001
0000
0100
0000
0010
0000
0100
0000
0010
0000
1000
0000
0100
1000
,  // measure 81
0100
0000
1000
0000
0001
0010
0001
0000
0010
0000
0001
0000
0100
0010
0100
0000
,  // measure 82
0010
0000
1000
0001
1000
0100
0010
0001
0010
0100
1000
0001
1000
0000
0010
0000
,  // measure 83
0100
0000
0001
0010
0001
0000
1000
0010
1000
0010
0100
0001
0200
0000
0000
0000
,  // measure 84
0000
0000
0300
0000
;
