#TITLE:Unfair Damnation;
#SUBTITLE:;
#ARTIST:Yooh;
#TITLETRANSLIT:;
#SUBTITLETRANSLIT:;
#ARTISTTRANSLIT:;
#GENRE:;
#CREDIT:;
#BANNER:;
#BACKGROUND:;
#LYRICSPATH:;
#CDTITLE:;
#MUSIC:Unfair Damnation.ogg;
#OFFSET:-0.108000;
#SAMPLESTART:79.105766;
#SAMPLELENGTH:14.999988;
#SELECTABLE:YES;
#BPMS:0.000000=169.964005
;
#STOPS:
;
#BGCHANGES:;
#KEYSOUNDS:;
#ATTACKS:;

//---------------dance-single - ----------------
#NOTES:
     dance-single:
     :
     Beginner:
     4:
     0.188958,0.238989,0.008589,0.000000,0.000000,154.000000,153.000000,1.000000,0.000000,0.000000,0.000000,0.188958,0.238989,0.008589,0.000000,0.000000,154.000000,153.000000,1.000000,0.000000,0.000000,0.000000:
0000
0000
0000
0000
,
0000
0000
0000
0000
,
0000
0000
0000
0000
,
0000
0000
0000
0000
,
0000
0000
0000
0000
,
0000
0000
0000
0000
,
0000
0000
0000
0000
,
0000
0000
0000
0000
,
1001
0000
0000
0000
,
0001
0000
0000
0000
,
0100
0000
0000
0000
,
0010
0000
0000
0000
,
1000
0000
0000
0000
,
0001
0000
0000
0000
,
0100
0000
0000
0000
,
0100
0000
0100
0000
,
0010
0000
0010
0000
,
1000
0000
1000
0000
,
0001
0000
0001
0000
,
0100
0000
0100
0000
,
0010
0000
0010
0000
,
1000
0000
1000
0000
,
0001
0000
0001
0000
,
0100
0000
0100
0000
,
0010
0000
0010
0000
,
1000
0000
1000
0000
,
0001
0000
0001
0000
,
0100
0000
0100
0000
,
0010
0000
0010
0000
,
1000
0000
1000
0000
,
0001
0001
0001
0000
,
0100
0000
0000
0000
,
0010
0010
0010
0000
,
1000
0000
0001
0000
,
1000
0000
0100
0000
,
1000
0000
0010
0000
,
0100
0000
0001
0000
,
0100
0000
0010
0000
,
1000
0000
0001
0000
,
1000
0000
0001
0000
,
0100
0100
0100
0000
,
0010
0000
0010
0000
,
1000
0000
0001
0000
,
0001
0000
0100
0000
,
0100
0000
0010
0000
,
0010
0000
1000
0000
,
0001
0000
1000
0000
,
0001
0001
0001
0000
,
0100
0100
0100
0000
,
0010
0000
0010
0000
,
1000
0000
0001
0000
,
1000
0000
0001
0000
,
1000
0000
0001
0000
,
0100
0000
0010
0000
,
1000
0000
0100
0000
,
1000
0000
0000
0000
,
0001
1000
0001
0000
,
1000
0000
0010
0000
,
0100
0010
0100
0000
,
0010
0000
0100
0001
,
0100
0000
0001
0000
,
1000
0000
0001
1000
,
0001
0000
0010
0000
,
0001
0010
0001
0000
,
0010
0100
0010
0000
,
0100
1000
0100
0000
,
1000
0001
1000
0000
,
0001
0100
0001
0000
,
0100
0010
0100
0000
,
0010
1000
0010
0000
,
1000
0001
1000
0000
,
0001
0001
0001
0000
,
0100
0000
0010
0000
,
0100
0000
0001
0000
,
1000
0000
0001
0000
,
0100
0000
0001
0000
,
1000
0000
0010
0000
,
1000
0000
0001
0000
,
0100
0000
0010
0000
,
1000
0000
0001
0000
;

//---------------dance-single - ----------------
#NOTES:
     dance-single:
     :
     Easy:
     7:
     0.336198,0.443837,0.240492,0.000000,0.000000,274.000000,246.000000,28.000000,0.000000,0.000000,0.000000,0.336198,0.443837,0.240492,0.000000,0.000000,274.000000,246.000000,28.000000,0.000000,0.000000,0.000000:
0000
0000
0000
0000
,
0000
0000
0000
0000
,
0000
0000
0000
0000
,
0000
0000
0000
0000
,
0000
0000
0000
0000
,
0000
0000
0000
0000
,
0000
0000
0000
0000
,
0000
0000
0000
0000
,
1000
0000
0000
0000
,
0001
0000
0000
0000
,
0100
0000
0010
0000
,
0100
0000
0001
0000
,
1000
0000
1000
0000
,
0001
0000
0001
0000
,
0100
0000
0100
0000
,
0010
0010
0010
0010
,
0100
0000
0100
0000
,
0001
0000
0001
0000
,
1000
0000
1000
0000
,
0001
0000
0100
0100
,
0100
0000
0010
0000
,
0010
0000
1000
1000
,
1000
0000
0001
0000
,
0100
0100
0100
0100
,
0010
0000
0010
0000
,
1000
0000
1000
0000
,
0001
0000
0001
0000
,
0100
0000
0010
0010
,
0100
0000
0001
0000
,
1000
0000
0001
0000
,
0100
0001
0010
0100
,
1001
0000
0110
0000
,
1001
1000
1001
0001
,
0101
0100
1100
1000
,
0100
0001
0010
1000
,
0010
0001
0100
1000
,
0100
0001
0010
0100
,
1000
0100
0010
0001
,
1001
1000
0100
0101
,
0100
1100
1000
1010
,
0010
0001
0010
1000
,
1001
0001
0100
0010
,
0110
0100
0001
1000
,
1001
0001
0100
0010
,
1010
1000
0100
0001
,
0100
1000
1010
0010
,
0001
0010
1010
1000
,
1100
0100
0101
0001
,
0100
1000
0010
0100
,
0001
1000
0010
0100
,
1001
0010
0100
1000
,
1001
0010
0100
1000
,
1001
1000
0100
0010
,
0001
1000
0100
0010
,
0101
0010
0100
0001
,
1000
0010
0100
0010
,
1000
1000
1000
0001
,
0001
0100
0100
0010
,
1000
0001
0001
0100
,
0100
0010
1010
1000
,
0100
0001
0100
1000
,
0010
0001
0010
1000
,
0001
0001
0100
0100
,
0010
0010
1000
0001
,
1001
1000
0100
0010
,
0001
0101
0010
0100
,
0010
1000
0001
1000
,
0100
0010
0001
0100
,
0010
0100
0010
1000
,
0100
1000
0001
1000
,
0100
0010
0001
0100
,
0001
0010
0100
1000
,
0100
1000
0001
0010
,
0011
0001
0100
0010
,
0110
0010
1000
0100
,
1100
1000
0001
0100
,
0001
0010
0100
1000
,
0010
0100
0001
1000
,
0100
0010
0001
1000
,
0010
1000
0001
0000
;

//---------------dance-single - ----------------
#NOTES:
     dance-single:
     :
     Medium:
     12:
     0.494481,0.614543,0.644175,0.000000,0.000000,403.000000,328.000000,75.000000,0.000000,0.000000,0.000000,0.494481,0.614543,0.644175,0.000000,0.000000,403.000000,328.000000,75.000000,0.000000,0.000000,0.000000:
0000
0000
0000
0000
,
0000
0000
0000
0000
,
0000
0000
0000
0000
,
0000
0000
0000
0000
,
0000
0000
0000
0000
,
0000
0000
0000
0000
,
0000
0000
0000
0000
,
0000
0000
0000
0000
,
1000
0001
1000
0000
,
0010
1000
0010
0000
,
1000
0100
1000
0000
,
0001
0100
0001
0000
,
0010
0001
0010
0000
,
0001
1000
0001
0000
,
1000
0100
0001
0000
,
1000
0010
0001
0000
,
1000
1000
0001
0000
,
0100
0100
0001
0000
,
0010
0010
0001
0001
,
1000
1000
0100
0100
,
0010
0010
0001
0001
,
0100
0100
0010
0010
,
1000
1000
0001
0001
,
0100
0000
0100
0000
0010
1000
0010
0000
,
1000
0001
0100
0001
,
0010
0001
0100
0001
,
1000
0100
1000
0010
,
0100
0001
0010
0011
,
0001
1000
0100
1000
,
0010
1000
0100
0010
,
0001
0100
0001
0000
1000
0001
1000
0000
,
0010
1000
0001
1000
,
1001
0001
0101
1100
,
0101
0011
1010
0011
,
0101
1010
0110
1001
,
0110
1001
1100
1100
,
0011
0110
1100
0110
,
0011
0110
1100
1001
,
0110
1001
0110
0001
,
0010
0100
1100
1100
,
0010
0000
0001
0100
0000
0101
0000
1010
,
0000
1010
0000
0101
0000
0110
0000
1001
,
0000
0110
0000
1001
0000
0110
0000
1001
,
0000
0110
0000
1001
0000
1100
0000
0011
,
0000
1100
0000
0011
0000
1100
0000
0011
,
0000
1100
0000
0001
0000
1000
0000
0011
,
0000
1100
0000
1001
0000
0011
0000
0110
,
0000
1100
0000
1001
0000
0101
0000
0110
,
0000
0010
0000
1000
0000
0100
0000
0011
,
0000
0001
0000
0101
0000
0100
0000
1100
,
0000
1000
0000
1100
0000
0001
0000
0011
,
0000
0100
0000
0110
0000
0010
0000
1000
,
0000
0001
0000
0101
0000
0100
0000
0110
,
0000
0010
0000
1010
0000
1000
0000
1001
,
0000
0101
0000
0110
0000
1010
0000
1000
,
0001
0010
0100
1000
0001
0100
0000
0000
,
0110
0000
0010
1000
0001
0000
1000
0001
,
0100
0000
0001
0010
0001
0000
1000
0000
,
0010
0000
1000
0100
1000
0000
0001
0100
,
0001
0000
0100
0010
1000
0010
0100
0000
,
0001
0000
0010
0100
0010
0000
0001
1000
,
0001
0000
1000
0100
1000
0000
0110
0000
,
0010
0000
0001
0010
0001
0000
0010
0100
,
0010
0000
0100
1000
0100
0000
1000
0000
,
1100
0000
0001
0100
0001
0000
0100
1000
,
0100
0000
0001
0010
0001
0000
0010
1000
,
0010
0000
0001
0100
0001
0000
0100
1000
,
0100
0000
1000
0010
1000
0000
0010
0001
,
0010
0000
1000
0010
0001
0000
0010
1000
,
0010
0000
0001
0010
1000
0000
0010
0001
,
0010
0000
0100
1000
0100
0000
0010
0001
,
0010
0100
1000
0100
0010
0001
0010
0100
,
1000
0000
0100
0001
0010
0000
0100
0001
,
0100
0000
0010
1000
0010
0000
0001
0000
,
1001
0000
0100
0001
0100
0000
0100
1000
,
0100
0000
0100
0001
0100
0000
1000
0000
,
0100
0000
0001
0010
1000
0000
0010
0001
,
0010
0000
1000
0010
0001
0000
0010
1000
,
0010
0001
0010
1000
0010
0001
0010
1000
,
0010
0001
1001
0000
;

//---------------dance-single - ----------------
#NOTES:
     dance-single:
     :
     Hard:
     15:
     0.760740,0.996324,0.712887,0.094479,0.760126,620.000000,537.000000,83.000000,11.000000,0.000000,0.000000,0.760740,0.996324,0.712887,0.094479,0.760126,620.000000,537.000000,83.000000,11.000000,0.000000,0.000000:
// measure 0
0000
0000
0000
0000
,  // measure 1
0000
0000
0000
0000
,  // measure 2
0000
0000
0000
0000
,  // measure 3
0000
0000
0000
0000
,  // measure 4
0000
0000
0000
0000
,  // measure 5
0000
0000
0000
0000
,  // measure 6
0000
0000
0000
0000
,  // measure 7
0000
0000
0000
0000
,  // measure 8
0001
0001
1000
1000
,  // measure 9
0010
0010
0100
0100
,  // measure 10
0001
1000
0001
1000
,  // measure 11
0010
0000
0100
0000
0010
1000
0100
0000
,  // measure 12
1000
0011
1000
0011
,  // measure 13
1000
0101
1000
0101
,  // measure 14
0010
1001
0010
1001
,  // measure 15
0100
0000
0000
0000
1001
0000
0000
0001
0100
0000
0001
0000
0010
0000
0100
0000
,  // measure 16
0001
0101
1000
0011
,  // measure 17
1000
0110
0001
1100
,  // measure 18
0001
1010
0001
0110
,  // measure 19
1000
0000
0000
0000
0110
0000
0000
0010
1000
0000
0100
0000
0010
0000
0001
0000
,  // measure 20
0100
1010
0100
0011
,  // measure 21
0100
1010
0100
0011
,  // measure 22
0100
1010
0001
0110
,  // measure 23
0001
0000
0000
0000
1100
0000
0000
1000
0100
0000
0001
0000
0100
0000
0010
0000
,  // measure 24
0001
0000
0000
0000
0110
0000
0000
0100
0010
0000
0100
0000
1000
0000
0100
0000
,  // measure 25
0010
0000
0000
0000
0110
0000
0000
0010
0001
0000
0010
0000
1000
0000
0010
0000
,  // measure 26
0100
0000
0000
0000
0101
0000
0000
0100
0010
0000
0100
0000
1000
0000
0100
0000
,  // measure 27
0010
0000
0000
0000
1100
0000
0000
1000
0010
0000
0001
0000
0020
0000
0000
0000
,  // measure 28
1030
0000
0100
0000
1000
0010
0000
0010
0100
0000
0001
0000
1000
0001
1000
0000
,  // measure 29
0001
0000
0100
0000
0010
1000
0000
1000
0100
0000
1000
0000
0001
0100
0001
0000
,  // measure 30
1000
0001
1000
0001
1000
0001
1000
0001
1000
0001
1000
0001
1000
0001
1000
0000
,  // measure 31
1001
0100
1001
0010
1001
0100
1001
0000
,  // measure 32
0110
0000
0000
0000
0100
0000
0010
0000
0100
0000
0000
0001
1000
0000
0001
0000
,  // measure 33
0010
0000
0000
0001
0100
0000
0010
0000
0001
0000
0000
1010
0000
0000
1000
0000
,  // measure 34
0100
0000
0000
0000
1000
0000
0010
0000
1000
0000
0000
0001
1000
0000
0010
0000
,  // measure 35
0100
0000
0000
0100
0001
0000
0010
0000
0100
0000
0100
0000
0001
0000
0100
0000
,  // measure 36
2000
0000
0000
0000
3001
0000
1000
0000
1001
0000
0000
0001
0100
0000
0001
0000
,  // measure 37
0010
0000
0000
0001
0100
0000
1000
0000
0100
0000
0000
0110
0000
0000
0010
0000
,  // measure 38
2000
0000
0000
0000
3001
0000
1000
0000
1001
0000
0000
0001
0100
0000
1000
0000
,  // measure 39
0100
0000
0000
0100
0010
0000
1000
0000
0001
0000
0001
0000
0100
0000
0100
0000
,  // measure 40
0020
0000
0030
1000
0000
1000
0000
0001
0100
0000
0001
1000
0000
1000
0000
0010
,  // measure 41
1000
0000
0010
0100
0000
0001
0000
1001
0000
0000
0110
0000
0000
0101
0000
2001
,  // measure 42
0000
0000
0000
3100
0000
0010
0000
0001
0010
0000
0100
0010
0000
0100
0000
0010
,  // measure 43
0001
0000
0100
0001
0000
1000
0000
0001
0000
0100
0000
0001
0000
0010
0000
0200
,  // measure 44
0000
0000
0000
0310
0000
0001
0000
1000
0001
0000
1000
0100
0000
0010
0000
0100
,  // measure 45
0001
0000
0100
0010
0000
0100
0000
1001
0000
0000
0110
0000
0000
1010
0000
2001
,  // measure 46
0000
0000
0000
3001
0000
0100
0000
0010
0100
0000
0010
1000
0000
1000
0000
0001
,  // measure 47
0000
0001
0000
1000
0010
1000
0010
1000
0000
0100
0000
0010
0000
0001
0000
2001
,  // measure 48
0000
0000
0000
3001
0000
0010
0000
0001
0100
0000
0001
0010
0000
0100
0000
1000
,  // measure 49
0100
0000
0010
0100
0000
0010
0000
0011
0000
0000
1001
0000
0000
1010
0000
0120
,  // measure 50
0000
0000
0000
0130
0000
0001
0000
1000
0100
0000
1000
0010
0000
0100
0000
0010
,  // measure 51
0001
0000
0010
0100
0000
0001
0000
1000
0000
0100
0010
0002
0000
0003
0000
1001
,  // measure 52
0000
0000
0000
0001
0000
1000
0000
0010
0000
0010
0000
0100
0000
0100
0000
0001
,  // measure 53
0000
0001
0000
0100
0000
0100
0000
1000
0000
1000
0000
0100
0000
0100
0000
0010
,  // measure 54
1000
0010
1000
0010
1000
0010
1000
0010
1000
0010
1000
0010
1000
0010
1000
0001
,  // measure 55
0000
0001
0100
0000
0010
0100
0010
0000
0100
0000
1001
0000
0000
0000
0000
0000
,  // measure 56
0101
0000
0000
0000
0110
0000
0010
0000
1010
0000
0000
1000
0100
0000
1000
0000
,  // measure 57
0001
0000
0000
0010
0001
0000
0010
0000
0100
0000
0000
0110
0000
0000
1100
0000
,  // measure 58
1001
0000
0000
0000
0101
0000
0100
0000
0110
0000
0000
0010
1000
0000
0010
0000
,  // measure 59
1000
0000
0000
0001
0100
0000
0001
0000
1000
0000
1000
0000
0010
0000
0100
0000
,  // measure 60
1000
0000
0000
0000
1100
0000
0100
0000
0101
0000
0000
0001
0010
0000
0001
0000
,  // measure 61
0011
0000
0000
1000
0100
0000
1000
0000
1100
0000
0000
0110
0000
0000
0011
0000
,  // measure 62
0110
0000
0000
0000
0100
0000
1000
0000
1100
0000
0000
0100
0001
0000
0010
0000
,  // measure 63
0011
0000
0000
0100
1000
0000
0100
0000
1100
0000
1000
0000
1001
0000
0001
0000
,  // measure 64
0011
0000
0000
0000
1000
0000
0100
0000
0010
0001
0000
0100
0001
0000
0010
0000
,  // measure 65
0001
0100
0000
0001
1000
0000
0010
0000
1000
0000
0000
1001
0000
0000
0001
0000
,  // measure 66
0101
0000
0000
0000
0100
0000
0010
0000
0100
0010
0000
1000
0010
0000
1000
0000
,  // measure 67
0100
0010
0000
0100
0010
0000
0100
0000
0001
0000
0001
0100
1000
0000
0001
0000
,  // measure 68
1001
0000
0000
0000
0001
0000
0010
0000
0001
0010
0000
0010
1000
0000
0100
0000
,  // measure 69
1000
0010
0000
0010
0001
0000
1000
0000
1010
0000
0000
0011
0000
0000
0101
0000
,  // measure 70
1100
0000
0000
0000
1001
0000
0001
0000
1000
0100
0000
0100
0001
0000
0100
0000
,  // measure 71
0110
0000
0010
0000
0100
0001
1000
0001
0100
0000
0001
0000
1000
0001
1000
0000
,  // measure 72
1001
0000
0000
0000
0001
0000
0100
0000
0001
0100
0000
1000
0100
0000
1000
0000
,  // measure 73
0100
1000
0000
0100
0001
0000
0100
0000
0010
0000
0000
0110
0000
0000
1001
0000
,  // measure 74
0110
0000
0000
0000
0010
0000
1000
0000
0010
1000
0000
0010
0001
0000
0010
0000
,  // measure 75
1000
0010
0000
0001
0010
0000
1000
0000
0010
0000
0100
0010
0100
0000
0000
0000
,  // measure 76
1001
0000
1000
0100
1000
0100
0010
1000
,  // measure 77
0010
0100
1000
0010
0100
0001
0100
0010
,  // measure 78
0001
0010
0001
0010
1000
0010
1000
0010
0100
0010
0100
0010
1000
0010
1000
0010
,  // measure 79
0100
0000
0001
1000
0000
1000
0010
0000
0200
0000
0000
0000
0000
0000
0000
0000
,  // measure 80
0300
0000
0000
0000
;
