#TITLE:True Blue [DJ Command Mix];
#SUBTITLE:;
#ARTIST:dj TAKA feat. AIMEE;
#TITLETRANSLIT:;
#SUBTITLETRANSLIT:;
#ARTISTTRANSLIT:;
#GENRE:;
#CREDIT:;
#BANNER:;
#BACKGROUND:;
#LYRICSPATH:;
#CDTITLE:;
#MUSIC:True Blue [DJ Command Mix].ogg;
#OFFSET:-8.176000;
#SAMPLESTART:94.386520;
#SAMPLELENGTH:14.999995;
#SELECTABLE:YES;
#BPMS:0.000000=164.000000
;
#STOPS:
;
#BGCHANGES:;
#KEYSOUNDS:;
#ATTACKS:TIME=22.850000:LEN=1.460000:MODS=Dark, Overhead, Midi-note:TIME=22.870001:LEN=1.100000:MODS=Stealth, Overhead, Midi-note;

//---------------dance-single - ----------------
#NOTES:
     dance-single:
     :
     Beginner:
     3:
     0.147406,0.213909,0.000000,0.277804,0.000000,130.000000,130.000000,0.000000,35.000000,0.000000,0.000000,0.147406,0.213909,0.000000,0.277804,0.000000,130.000000,130.000000,0.000000,35.000000,0.000000,0.000000:
0000
0000
0000
0000
,
0000
0000
0000
0000
,
0000
0000
0000
0000
,
0000
0000
0000
0000
,
2000
0000
0000
0000
,
3020
0000
0000
0000
,
0230
0000
0000
0000
,
0302
0000
0000
0000
,
2003
0000
0000
0000
,
3020
0000
0000
0000
,
0130
0000
0000
0000
,
0100
0000
0001
0000
,
0100
0000
0010
0000
,
0010
0000
1000
0000
,
1000
0000
0001
0000
,
0100
0000
0100
0000
,
0010
0000
0010
0000
,
1000
0000
0001
0000
,
2000
0000
0000
0000
,
0002
0000
0000
3003
,
0010
0010
0010
0000
,
0100
0100
0100
0000
,
0001
0000
0000
0000
,
1000
0000
1000
0000
,
0010
0000
0010
0000
,
0001
0000
0001
0000
,
1000
0000
1000
0000
,
0100
0000
0100
0000
,
0002
0000
2003
0000
,
3002
0000
0203
0000
,
0320
0000
2030
0000
,
3002
0000
0000
0000
,
0103
0000
0100
0000
,
0010
0000
0010
0000
,
1000
0000
1000
0000
,
0002
0000
0103
0000
,
0200
0000
0310
0000
,
0010
0000
1000
0000
,
1000
0000
0001
0000
,
0001
0000
0100
0000
,
0100
0000
0010
0000
,
0010
0000
1000
0000
,
1000
0000
0001
0000
,
0001
0000
0100
0000
,
0200
0000
0000
0000
,
0320
0000
0000
0000
,
2030
0000
0000
0000
,
3100
0000
0100
0000
,
0020
0000
0032
0000
,
0203
0000
0320
0000
,
2030
0000
3002
0000
,
1003
0000
1000
0000
,
0010
0000
0010
0000
,
0001
0000
0001
0000
,
0100
0000
0100
0000
,
1000
0000
1000
0000
,
0010
0000
0000
0000
,
0010
0000
0000
0000
,
0200
0000
0301
0000
,
0002
0000
1003
0000
,
1000
0000
0001
0000
,
1000
0000
0001
0000
,
0100
0100
0100
0000
,
0010
0000
0010
0000
,
1000
0000
1000
0000
,
0002
0000
0103
0000
,
0200
0000
0310
0000
,
0020
0000
1030
0000
,
0001
0000
1000
0000
,
0001
0000
0100
0000
,
0010
0000
1000
0000
,
0010
0000
0100
0000
,
0002
0000
0000
0000
,
2003
0000
0000
0000
,
3002
0000
0000
0000
,
0103
0100
0100
0000
,
0020
0000
0000
0000
,
0030
0000
0000
0000
;

//---------------dance-single - ----------------
#NOTES:
     dance-single:
     :
     Easy:
     8:
     0.309553,0.392101,0.126996,0.515922,0.000000,273.000000,257.000000,16.000000,65.000000,0.000000,0.000000,0.309553,0.392101,0.126996,0.515922,0.000000,273.000000,257.000000,16.000000,65.000000,0.000000,0.000000:
// measure 0
0000
0000
0000
0000
,  // measure 1
0000
0000
0000
0000
,  // measure 2
0000
0000
0000
0000
,  // measure 3
0000
0000
0000
0000
,  // measure 4
2000
0000
0000
0000
,  // measure 5
3020
0000
0000
0000
,  // measure 6
0230
0000
0000
0000
,  // measure 7
0302
0000
0000
0000
,  // measure 8
2003
0000
0000
0000
,  // measure 9
3020
0000
0000
0000
,  // measure 10
0130
0000
0100
0000
,  // measure 11
0001
1000
0001
0000
,  // measure 12
0100
0010
0100
0100
,  // measure 13
0001
1000
0001
1000
,  // measure 14
0010
0010
0100
0001
,  // measure 15
1000
0001
1000
0100
,  // measure 16
1000
0010
0001
0010
,  // measure 17
1000
0100
0001
0100
,  // measure 18
1000
0001
0010
0001
,  // measure 19
0200
0000
0000
0000
,  // measure 20
0310
1000
0010
1000
,  // measure 21
0100
0010
0001
0010
,  // measure 22
0001
0100
1000
0100
,  // measure 23
0001
0010
1000
0010
,  // measure 24
0001
1000
0001
1000
,  // measure 25
0100
1000
0100
1000
,  // measure 26
0010
0100
0010
0100
,  // measure 27
1001
1001
1001
0000
,  // measure 28
0100
0010
2000
3100
,  // measure 29
0200
1300
0010
0100
,  // measure 30
0001
0010
0001
1000
,  // measure 31
0001
2000
3200
0320
,  // measure 32
0031
1000
0100
1000
,  // measure 33
0010
0100
0001
0010
,  // measure 34
0002
0103
0020
1030
,  // measure 35
1100
1001
0011
0110
,  // measure 36
0100
1000
0001
1000
,  // measure 37
0001
0100
0010
1000
,  // measure 38
0200
0320
0032
2003
,  // measure 39
3100
1000
0020
0230
,  // measure 40
0301
1000
0001
0100
,  // measure 41
0010
1000
0100
0010
,  // measure 42
0002
1003
0200
1300
,  // measure 43
0010
0100
0001
1000
,  // measure 44
0002
0023
0230
2300
,  // measure 45
3001
0100
0010
0100
,  // measure 46
0002
2003
3200
2300
,  // measure 47
3010
0100
0001
0010
,  // measure 48
0002
2003
3200
2300
,  // measure 49
3020
0230
0302
2003
,  // measure 50
3200
0000
2300
0000
,  // measure 51
3010
0100
0001
1000
,  // measure 52
1001
0001
0100
1000
,  // measure 53
0100
0001
0010
1000
,  // measure 54
0010
0001
0100
0010
,  // measure 55
2000
3200
0320
0032
,  // measure 56
2003
0000
3002
0000
,  // measure 57
0203
0000
0320
0000
,  // measure 58
1030
0000
0001
0000
1000
0000
0001
1000
,  // measure 59
0001
0100
0010
0100
,  // measure 60
0001
1000
0001
0000
1000
0000
0100
0000
,  // measure 61
0010
0001
0010
0000
0001
0000
0100
0000
,  // measure 62
0010
1000
0010
0000
1000
0000
0100
0000
,  // measure 63
0020
0032
0203
0310
,  // measure 64
1000
0100
1000
0001
,  // measure 65
0200
0310
1000
0001
,  // measure 66
1000
0001
1000
0000
0001
0100
0001
0000
,  // measure 67
0100
0010
1000
0100
,  // measure 68
0020
0000
0032
0000
0103
0010
0100
0000
,  // measure 69
0020
0000
2030
0000
3100
1000
0100
0000
,  // measure 70
0002
0203
2300
3010
,  // measure 71
0001
0010
1000
0100
,  // measure 72
2002
0000
0000
3003
,  // measure 73
0220
0000
0000
0330
,  // measure 74
2002
0000
0000
3003
,  // measure 75
0110
1001
0110
1001
,  // measure 76
0110
0000
0000
0000
;

//---------------dance-single - ----------------
#NOTES:
     dance-single:
     :
     Medium:
     14:
     0.590759,0.641728,0.166683,0.190494,0.222243,521.000000,500.000000,21.000000,24.000000,0.000000,0.000000,0.590759,0.641728,0.166683,0.190494,0.222243,521.000000,500.000000,21.000000,24.000000,0.000000,0.000000:
// measure 0
0000
0000
0000
0000
,  // measure 1
0000
0000
0000
0000
,  // measure 2
0000
0000
0000
0000
,  // measure 3
0000
0000
0000
0000
,  // measure 4
2001
0000
0000
0000
,  // measure 5
3020
0000
0000
0000
,  // measure 6
0230
0000
0000
0000
,  // measure 7
0302
0000
0000
0000
,  // measure 8
2003
0000
0000
0000
,  // measure 9
3020
0000
0000
0000
,  // measure 10
0130
0000
0000
0000
,  // measure 11
1001
1000
0001
1000
,  // measure 12
0010
0000
0100
0000
0001
0001
1000
1000
,  // measure 13
0010
0000
0100
0000
0001
1000
0001
0000
,  // measure 14
1000
0010
1000
0000
0010
0010
0010
0000
,  // measure 15
0100
0001
0100
0000
0001
1000
0001
0000
,  // measure 16
1000
0100
0010
0001
0100
0010
1000
0001
,  // measure 17
0100
0000
0010
0000
1000
0001
1000
0000
,  // measure 18
0001
0000
0100
0000
0001
0000
0000
0000
0100
0000
0010
0000
1000
0001
1000
0001
,  // measure 19
0000
0000
0000
0000
1000
0001
0100
0001
,  // measure 20
1000
0010
1000
0000
0001
0100
0001
1000
,  // measure 21
0010
1000
0000
1001
0000
0001
0100
0010
,  // measure 22
1000
0100
1000
0000
0100
0000
0010
0000
0001
0010
0001
0000
0100
0000
0010
0000
,  // measure 23
1000
0001
1000
0000
0100
0000
0001
0000
0100
0000
1000
0000
0010
0100
0010
0000
,  // measure 24
1000
0001
0010
0001
0100
0010
0000
1000
,  // measure 25
0001
0100
0001
0000
1000
0001
1000
0000
0010
1000
0010
0000
1000
0000
0100
0000
,  // measure 26
0010
0001
0100
0010
1000
0100
0010
0001
,  // measure 27
0100
0000
0110
0000
0000
1001
0000
0000
0110
0000
0000
0000
0001
1000
0010
0000
,  // measure 28
1000
0100
0010
0001
0100
0010
1000
0001
,  // measure 29
0100
0001
0100
0000
0001
0000
0010
0000
0100
1000
0100
1000
0001
0000
1000
0000
,  // measure 30
0010
0100
0001
0010
0001
1000
0100
1000
,  // measure 31
0010
0100
0010
0000
0100
0001
0000
0000
0001
0010
0000
0000
0010
1000
0000
0000
,  // measure 32
1001
0001
0100
0010
1000
0100
1000
0001
,  // measure 33
1000
0010
1000
0000
0001
0000
0100
0000
0010
0000
0100
0000
0001
0000
1000
0000
,  // measure 34
0010
1000
0100
0010
0001
1000
0010
1000
,  // measure 35
0001
0000
0000
0101
0000
0000
0100
0000
1010
0000
0000
1001
0000
0000
0001
0100
,  // measure 36
0010
1000
0001
0000
1000
0001
0100
0001
,  // measure 37
0010
0001
0010
0001
0100
0000
0010
0000
1000
0000
0100
0000
1000
0000
0000
0000
,  // measure 38
2001
3002
0023
0230
,  // measure 39
2300
0000
0000
0000
3001
0000
0100
0000
0001
0000
0100
0000
0010
0000
0100
0010
,  // measure 40
0100
0000
0001
0000
1000
0100
1000
0000
,  // measure 41
1001
0000
0001
0100
0001
0000
0010
0000
,  // measure 42
0210
0000
0310
0001
1000
0000
0001
0100
,  // measure 43
0001
1000
0001
1000
0001
0000
1000
0010
1000
0000
0100
0000
0010
0001
0010
0001
,  // measure 44
0010
0001
1000
0001
0010
0000
0001
0100
,  // measure 45
0010
0000
0100
0000
0001
0000
0100
0000
0010
0000
1000
0000
0010
1000
0010
0000
,  // measure 46
1000
0001
1000
0000
0001
0000
0100
0000
0010
0000
1000
0000
0001
0000
0010
0000
,  // measure 47
0100
1000
0010
0010
0000
0100
0001
1000
,  // measure 48
0001
0100
0010
0100
0001
0001
1000
0010
,  // measure 49
2010
3001
0201
0302
,  // measure 50
2003
0000
3010
1000
0100
0000
1000
0001
,  // measure 51
0010
0001
0010
0001
0010
0000
0001
0000
0100
0000
0010
0000
1000
0001
1000
0000
,  // measure 52
0010
0100
0001
0010
0001
1000
0100
1000
,  // measure 53
0010
0100
0010
0000
0100
0000
0001
0000
0000
0000
0001
0000
1000
0000
0010
0000
,  // measure 54
1000
0100
0010
0001
0100
0010
1000
0001
,  // measure 55
1000
0100
1000
0000
0010
0000
0100
0000
0010
0000
1000
0000
0001
0000
0010
0000
,  // measure 56
0011
0110
1100
1001
,  // measure 57
0001
0100
0010
0100
0001
1000
0010
1000
,  // measure 58
0100
1000
0100
0000
0010
0001
0010
0000
0001
1000
0001
0000
1000
0000
0010
0000
,  // measure 59
0210
0000
0302
0000
,  // measure 60
1003
0100
0010
0001
0100
0010
0100
0000
,  // measure 61
0001
0000
0010
0000
0100
0000
1000
0000
0001
1000
0001
0000
0010
0000
0001
0000
,  // measure 62
0100
0010
0100
0000
0010
0000
1000
0000
0100
0000
1000
0000
0001
0000
0010
0000
,  // measure 63
0001
0000
0010
0000
0100
0000
1000
0000
0001
1000
0001
0000
1000
0010
1000
0000
,  // measure 64
0100
0000
0010
0000
0001
0000
0100
0000
0010
0100
0010
0000
1000
0000
0001
0000
,  // measure 65
1000
0100
1000
0000
0010
0000
1000
0000
0001
0000
1000
0000
0100
0000
1000
0000
,  // measure 66
0001
0100
0001
0000
0010
0000
0001
0000
1000
0100
1000
0000
0010
0000
0100
0000
,  // measure 67
0010
0100
0010
0000
0100
0001
0100
0000
0001
0000
0010
0000
0100
0000
1000
0000
,  // measure 68
0001
1000
0001
0000
1000
0000
0000
0000
0010
0000
1000
0000
0100
0000
0010
0000
,  // measure 69
0001
0100
0001
0000
1000
0000
0010
0000
1000
0000
0001
0000
1000
0000
0100
0000
,  // measure 70
1000
0010
1000
0000
0001
0000
0100
0000
0001
0000
0010
0000
0001
0000
0000
0000
,  // measure 71
0100
0010
0100
0000
0010
0000
1000
0000
0100
0000
0010
0000
0001
0000
0100
0000
,  // measure 72
0002
1000
0000
1000
0000
1000
0000
1000
,  // measure 73
0203
0010
0000
0010
0000
0010
0000
0010
,  // measure 74
0302
1000
0000
0010
0000
1000
0000
0100
,  // measure 75
1003
0000
0010
0000
0000
0100
0000
0000
2002
0000
0000
3003
0001
1000
0001
0000
,  // measure 76
0200
0000
0000
0000
,  // measure 77
0300
0000
0000
0000
;

//---------------dance-single - ----------------
#NOTES:
     dance-single:
     :
     Hard:
     17:
     0.824342,0.977871,0.333365,0.158745,0.873099,727.000000,685.000000,42.000000,20.000000,0.000000,0.000000,0.824342,0.977871,0.333365,0.158745,0.873099,727.000000,685.000000,42.000000,20.000000,0.000000,0.000000:
// measure 0
0000
0000
0000
0000
,  // measure 1
0000
0000
0000
0000
,  // measure 2
0000
0000
0000
0000
,  // measure 3
0000
0000
0000
0000
,  // measure 4
0002
0000
0000
0000
,  // measure 5
2003
0000
0000
0000
,  // measure 6
3200
0000
0320
0000
,  // measure 7
0032
0000
2003
0000
,  // measure 8
3020
0000
0000
0000
,  // measure 9
0230
0000
0302
0000
,  // measure 10
2000
0000
0000
3003
,  // measure 11
1001
0000
0001
0100
0001
1000
0000
0010
1000
0000
0100
0010
0001
0010
0000
0001
,  // measure 12
0010
0000
0100
1000
0100
1000
0000
0001
1000
0000
1010
0000
0110
0000
0101
0000
,  // measure 13
0011
0000
0010
1000
0000
0010
0000
0001
0100
0000
1000
0100
0001
0100
0010
0100
,  // measure 14
0001
1000
0001
0100
0000
0010
0000
0100
0001
0100
0010
0100
0001
0100
0010
0100
,  // measure 15
0001
0000
1000
0010
0100
0001
0000
0001
0100
0000
0110
0000
1010
0000
1001
0000
,  // measure 16
0001
0000
0010
0001
0100
0001
1000
0010
1000
0100
1000
0010
0100
0000
0010
1000
,  // measure 17
0001
0000
1000
0100
1000
0010
0000
0100
0001
0010
0001
1000
0000
0100
0000
1000
,  // measure 18
0010
0100
0010
0001
0010
0100
0010
1000
0100
0010
0001
0100
0010
1000
0100
0010
,  // measure 19
0001
0000
0000
0000
,  // measure 20
1000
0000
0010
0100
0010
0000
0001
0010
0000
1000
0010
0000
0100
0000
0001
0000
,  // measure 21
0010
0001
0010
0100
1000
0000
0100
0010
0000
0001
1000
0000
0010
0000
0010
0000
,  // measure 22
0100
0001
1000
0001
0100
0010
1000
0010
0100
0001
0010
0100
1000
0010
0100
0010
,  // measure 23
1000
0100
0010
0001
0100
0010
1000
0100
0010
0001
0100
0010
1000
0100
0010
0000
,  // measure 24
0001
0000
1000
0001
1000
0000
0010
0000
0100
0001
0010
0001
1000
0000
0100
1000
,  // measure 25
0010
0100
0001
0100
0010
0100
0001
0100
0010
0100
0001
0100
0010
0000
1000
0000
,  // measure 26
0100
0001
0100
1000
0100
0001
0100
1000
0100
0001
0100
1000
0100
0001
0100
0000
,  // measure 27
0110
0000
1001
0000
0000
1001
0000
0000
0101
0000
0000
0000
0100
0010
1000
0000
,  // measure 28
0100
0000
0010
0000
0001
0000
1000
0000
0001
0000
0010
0100
1000
0000
0010
0000
,  // measure 29
0100
0001
0010
0001
1000
0000
0100
0000
1000
0000
0010
0000
0100
0000
0001
0000
,  // measure 30
0010
0001
0100
0000
0001
0000
1000
0100
0010
0000
0010
0001
0100
0000
0100
0010
,  // measure 31
1000
0000
0100
0000
1100
0000
0100
0000
0110
0000
0010
0000
0001
1000
0001
1000
,  // measure 32
0100
0010
0001
1000
0010
1000
0100
0010
,  // measure 33
0001
0100
0001
0100
0010
0000
1000
0000
0100
0010
0100
0010
0001
0000
1000
0000
,  // measure 34
0001
0100
1000
0100
0001
1000
1001
0000
,  // measure 35
0101
0000
0000
0110
0000
0000
1010
0000
1001
0000
0000
0101
0000
0000
0110
0000
,  // measure 36
1020
0000
0000
0000
1030
0100
0001
0100
,  // measure 37
1000
0001
0010
0001
0100
0000
0010
0000
1000
0000
0100
0000
0010
0000
0001
0000
,  // measure 38
0100
0001
0000
0000
0001
1000
0000
0000
1000
0010
0000
0000
0010
0100
0000
0000
,  // measure 39
0100
0001
1000
0000
1010
0000
0010
0000
0110
0000
0100
0000
0101
0000
0001
0000
,  // measure 40
1001
0000
0000
0000
1000
0000
0010
0000
0100
0001
0100
0001
1000
0000
0001
0000
,  // measure 41
2001
0000
0000
0000
3001
0000
0010
0000
0001
0100
0010
0000
1000
0100
0010
0001
,  // measure 42
2000
0000
0000
0000
0000
0000
0000
0000
3010
0100
0010
0000
0100
0000
0001
0000
,  // measure 43
1000
0001
1000
0100
0010
0000
0001
0100
0010
0000
1000
0010
0100
0001
1000
0100
,  // measure 44
1000
0001
0100
0001
0010
0100
1000
0010
,  // measure 45
1000
0001
1000
0000
0100
0000
1000
0000
0001
0010
0001
0000
0100
0010
0100
0000
,  // measure 46
0010
1000
0001
1000
0010
1000
0001
1000
0010
1000
0001
1000
0010
0000
1000
0000
,  // measure 47
0100
0000
0010
0000
0001
0000
0100
0000
0010
1000
0010
0000
0010
1000
0010
0000
,  // measure 48
0100
0001
1000
0010
1000
0001
0100
0001
,  // measure 49
0010
0001
0010
0000
0100
0000
1000
0000
0010
1000
0010
0000
1000
0000
0100
0000
,  // measure 50
0010
0001
0010
0000
0001
1000
0100
1000
0010
0100
0010
1000
0001
0000
0010
0000
,  // measure 51
0001
0010
0100
1000
0010
0000
0100
0000
0110
0000
0010
0000
1000
0100
0010
0001
,  // measure 52
0100
0000
0010
0000
1000
0000
0001
0000
0010
0001
0100
0000
0001
0000
1000
0000
,  // measure 53
0100
1000
0010
0000
1000
0000
0001
0000
0100
0000
0001
1000
0010
0000
1000
0000
,  // measure 54
0100
0010
0001
0000
0010
0000
0100
1000
0100
0000
1000
0000
0001
0000
0010
0001
,  // measure 55
0100
0000
0001
0000
1000
0000
0100
0000
1000
0000
0010
0000
0100
0001
0100
0001
,  // measure 56
0100
1010
0110
0101
,  // measure 57
0011
1010
0011
0101
,  // measure 58
0100
0000
0100
0000
0010
0000
1000
0000
0001
0000
0100
0001
0010
0100
1000
0000
,  // measure 59
0110
0000
1001
0000
0000
0011
0000
0000
0110
0000
0000
1000
0100
1000
0100
1000
,  // measure 60
0010
0100
0001
0100
0001
0000
1000
0010
0000
0010
1000
0000
0001
1000
0001
0000
,  // measure 61
1000
0000
0010
0000
1000
0000
0100
0000
0010
0001
0010
0000
0010
1000
0010
0000
,  // measure 62
0010
0001
0010
0100
1000
0000
1000
0100
0010
0001
0100
0000
0010
0000
1000
0000
,  // measure 63
0100
0000
0010
0000
0001
0000
0100
0000
0001
0010
0001
1000
0100
1000
0010
0100
,  // measure 64
0001
0010
0100
0010
0001
0010
0100
1000
0100
0010
0001
0010
0100
1000
0100
0000
,  // measure 65
0010
0001
0100
0010
1000
0000
0010
0100
0010
0000
1000
0100
1000
0000
0100
0010
,  // measure 66
0001
1000
0001
1000
0100
0000
0010
0100
0010
0001
1000
0001
0100
0001
0010
0001
,  // measure 67
0100
0010
1000
0010
0100
0001
0100
0010
1000
0100
0010
0100
1000
0001
0010
0001
,  // measure 68
0100
0010
0000
0010
2000
0000
0000
0000
3001
1000
0001
0000
0100
0000
0010
0000
,  // measure 69
1000
0100
1000
0100
1000
0000
0001
0000
0100
0001
0010
0001
1000
0000
0100
0000
,  // measure 70
1000
0001
1000
0001
0010
0000
0001
0000
0100
0010
0100
0000
0001
0000
1000
0000
,  // measure 71
0010
1000
0010
1000
0001
0100
0001
0100
0010
1000
0001
1000
0001
0010
0001
0000
,  // measure 72
2000
0100
0000
0100
0000
0100
0000
0100
,  // measure 73
3020
0001
0000
0001
0000
0001
0000
0001
,  // measure 74
0230
1000
0000
0010
0000
0010
0000
0001
,  // measure 75
0301
0000
0011
0000
0000
1010
0000
0000
2200
0000
0000
3300
0001
1000
0100
1000
,  // measure 76
0020
0000
0000
0000
,  // measure 77
0030
0000
0000
0000
;
