#TITLE:太陽~T・A・I・Y・O~;
#SUBTITLE:;
#ARTIST:NAOKI feat.星野奏子;
#TITLETRANSLIT:TAIYO;
#SUBTITLETRANSLIT:;
#ARTISTTRANSLIT:NAOKI feat. Kanako Hoshino;
#GENRE:;
#CREDIT:;
#BANNER:;
#BACKGROUND:;
#LYRICSPATH:;
#CDTITLE:;
#MUSIC:TAIYO.ogg;
#OFFSET:-0.453000;
#SAMPLESTART:80.902695;
#SAMPLELENGTH:14.999995;
#SELECTABLE:YES;
#BPMS:0.000000=155.000000
;
#STOPS:
;
#BGCHANGES:;
#KEYSOUNDS:;
#ATTACKS:;

//---------------dance-single - ----------------
#NOTES:
     dance-single:
     :
     Beginner:
     1:
     0.157090,0.156451,0.000000,0.000000,0.000000,123.000000,123.000000,0.000000,0.000000,0.000000,0.000000,0.157090,0.156451,0.000000,0.000000,0.000000,123.000000,123.000000,0.000000,0.000000,0.000000,0.000000:
0000
0000
0000
0000
,
0000
0000
0000
0000
,
0000
0000
0000
0000
,
0000
0000
0000
0000
,
1000
0000
0001
0000
,
0100
0000
0001
0000
,
1000
0000
1000
0000
,
0001
0000
0001
0000
,
0100
0000
0100
0000
,
0100
0000
0100
0000
,
0010
0000
0010
0000
,
0010
0000
0010
0000
,
1000
0000
1000
0000
,
0001
0000
0001
0000
,
1000
0000
1000
0000
,
0010
0000
0010
0000
,
0100
0000
0100
0000
,
0001
0000
0001
0000
,
1000
0000
1000
0000
,
0001
0000
0001
0000
,
0100
0000
0100
0000
,
0010
0000
0010
0000
,
1000
0000
1000
0000
,
0100
0000
0100
0000
,
0010
0000
0010
0000
,
0001
0000
0000
0000
,
0001
0000
0001
0000
,
0001
0000
0000
0000
,
1000
0000
1000
0000
,
1000
0000
0000
0000
,
0010
0000
0010
0000
,
0010
0000
0000
0000
,
0100
0000
0100
0000
,
0100
0000
0000
0000
,
0001
0000
0001
0000
,
1000
0000
1000
0000
,
0010
0000
0010
0000
,
0100
0000
0100
0000
,
0001
0000
0001
0000
,
1000
0000
1000
0000
,
0010
0000
0010
0000
,
0100
0000
0100
0000
,
0100
0000
0000
0000
,
0001
0000
0001
0000
,
0001
0000
0000
0000
,
1000
0000
1000
0000
,
1000
0000
0010
0000
,
0010
0000
0010
0000
,
0100
0000
0000
0000
,
0100
0000
0100
0000
,
0001
0000
0000
0000
,
0001
0000
0000
0000
,
1000
0000
1000
0000
,
0001
0000
0001
0000
,
0100
0000
0100
0000
,
0010
0000
0010
0000
,
1000
0000
1000
0000
,
0001
0000
0001
0000
,
0100
0000
0100
0000
,
0010
0000
0010
0000
,
1000
0000
1000
0000
,
0001
0000
0001
0000
,
0100
0000
0100
0000
,
0010
0000
0010
0000
,
1000
0000
1000
0000
,
0001
0000
0001
0000
,
0100
0000
0100
0000
,
0010
0000
0010
0000
,
1000
0000
1000
0000
,
0001
0000
0001
0000
,
0100
0000
0000
0000
;

//---------------dance-single - ----------------
#NOTES:
     dance-single:
     :
     Easy:
     5:
     0.260539,0.281612,0.000000,0.151981,0.000000,204.000000,204.000000,0.000000,17.000000,0.000000,0.000000,0.260539,0.281612,0.000000,0.151981,0.000000,204.000000,204.000000,0.000000,17.000000,0.000000,0.000000:
0000
0000
0000
0000
,
0000
0000
0000
0000
,
0000
0000
0000
0000
,
0000
0000
0000
0000
,
1000
0000
1000
0000
,
0001
0000
0001
0001
,
0001
0000
0100
0000
,
0100
0000
0100
0100
,
0100
0000
0010
0000
,
1000
0000
0001
0000
,
1000
0000
0100
0000
,
0010
0010
0010
0000
,
0001
0001
1000
0000
,
1000
1000
0100
0000
,
0001
0001
0100
0000
,
1000
0000
0001
0000
,
1000
0100
1000
0100
,
0010
0000
0001
0000
,
0001
0010
0001
0010
,
0100
0000
1000
0000
,
0001
1000
0001
1000
,
0100
0000
1000
0000
,
0010
0100
0010
0100
,
0010
0010
0010
0010
,
0020
0000
0000
0000
,
0130
0000
0000
0000
,
0100
0001
1000
0000
,
0001
1000
0100
0000
,
1000
0100
1000
0000
,
0001
0010
0001
0000
,
0100
0100
0010
0000
,
0010
0010
0100
0000
,
0001
0001
1000
1000
,
0001
0001
0100
0000
,
0010
0010
0000
0100
,
0100
0010
1000
0001
,
1000
0001
0100
0001
,
0100
0001
0010
0100
,
1000
1000
0001
0001
,
0100
0100
0010
0010
,
0010
0010
0100
0100
,
0001
0001
1000
1000
,
0002
0000
0203
0000
,
0320
0000
2030
0000
,
3002
0000
2003
0000
,
3200
0000
0320
0000
,
0031
0001
0001
0000
,
1000
1000
1000
0000
,
0002
0000
0203
0000
,
0320
2030
3200
0320
,
0032
0000
0000
0000
,
2003
0000
0000
0000
,
3010
0010
0100
0100
,
0001
0001
1000
0000
,
0001
1000
0001
0100
,
0001
0100
0010
0000
,
1000
0100
1000
0100
,
0010
0001
0010
0001
,
0100
0010
0100
0010
,
1000
0001
1000
0000
,
0001
1000
0001
0001
,
0100
0010
0100
0100
,
0010
1000
0010
0010
,
1000
0100
1000
1000
,
0001
0100
0001
0001
,
0010
0100
0010
0010
,
0100
1000
0100
0100
,
1000
0001
1000
0000
,
0001
1000
0001
0000
,
1000
0100
1000
0010
,
0100
0000
0000
0000
;

//---------------dance-single - ----------------
#NOTES:
     dance-single:
     :
     Medium:
     10:
     0.386977,0.438063,0.169861,0.125161,0.000000,303.000000,284.000000,19.000000,14.000000,0.000000,0.000000,0.386977,0.438063,0.169861,0.125161,0.000000,303.000000,284.000000,19.000000,14.000000,0.000000,0.000000:
// measure 0
0000
0000
0000
0000
,  // measure 1
0000
0000
0000
0000
,  // measure 2
0000
0000
0000
0000
,  // measure 3
0000
0000
0000
0000
,  // measure 4
0001
0001
1000
1000
,  // measure 5
0010
0000
0010
0000
0100
0100
0100
0000
,  // measure 6
0010
0010
1000
1000
,  // measure 7
0001
0000
0001
0000
0100
0001
0100
0000
,  // measure 8
0010
1000
0100
0010
,  // measure 9
0001
1000
0001
0100
,  // measure 10
0010
0010
0100
0100
,  // measure 11
0001
1000
0001
0000
1000
0000
1000
0000
,  // measure 12
0010
0010
0010
0010
,  // measure 13
0100
0100
0100
0100
,  // measure 14
0001
0001
0001
0001
,  // measure 15
1000
1000
1000
1000
,  // measure 16
0101
0100
1010
0010
,  // measure 17
1100
1000
0101
0001
,  // measure 18
0110
0010
1010
1000
,  // measure 19
1001
0001
0101
0000
,  // measure 20
0110
0010
1100
1000
,  // measure 21
0101
0001
0110
0010
,  // measure 22
1100
0000
1001
0001
,  // measure 23
0001
0100
0100
0010
,  // measure 24
2000
0000
0000
0000
,  // measure 25
3001
0001
0000
0000
,  // measure 26
0100
0010
0100
0000
0010
1000
0010
0000
,  // measure 27
1000
0100
1000
0000
0001
0000
0000
0000
,  // measure 28
0001
0100
0001
0000
0100
0010
0100
0000
,  // measure 29
0010
1000
0010
0000
1000
0000
0000
0000
,  // measure 30
0001
1000
0001
0000
0100
0001
0100
0000
,  // measure 31
0001
1000
0001
0000
1000
0000
0000
0000
,  // measure 32
0010
0010
0100
0100
,  // measure 33
0001
1000
0001
1000
0001
0000
1000
0000
,  // measure 34
0100
0100
1000
1000
,  // measure 35
0010
0000
0010
0000
0001
0001
0100
0000
,  // measure 36
1000
1000
0010
0010
,  // measure 37
0001
0000
0100
0000
1000
1000
0010
0000
,  // measure 38
0100
0100
0010
0010
,  // measure 39
1000
0000
1000
0000
0001
0001
0100
0000
,  // measure 40
1000
0100
0001
0010
,  // measure 41
1000
0000
0010
0000
0001
0001
1000
0000
,  // measure 42
0002
0000
0203
0000
,  // measure 43
0320
0000
2030
0000
,  // measure 44
3002
0000
0100
0000
0203
0000
0000
0300
,  // measure 45
0020
0000
0000
0030
2000
0000
0001
0000
,  // measure 46
3001
0000
0100
0000
0001
1000
0001
0000
,  // measure 47
1000
0000
0100
0000
1000
0010
1000
0000
,  // measure 48
0010
0000
0100
0001
,  // measure 49
0020
0032
0203
0320
,  // measure 50
2030
0001
0001
0001
,  // measure 51
3001
0000
0100
0000
,  // measure 52
0100
0010
0100
0000
0100
0010
0100
0000
,  // measure 53
0100
0001
0100
0000
0001
0000
0100
0000
,  // measure 54
0001
0100
0001
0000
0001
0100
0001
0000
,  // measure 55
1000
0100
1000
0000
0100
0000
0000
0000
,  // measure 56
1000
0010
1000
0000
1000
0010
1000
0000
,  // measure 57
0001
0100
0001
0000
0100
0000
0000
0000
,  // measure 58
0010
0100
0010
0000
0100
0010
0100
0000
,  // measure 59
0010
0010
1000
0000
,  // measure 60
0001
0001
0100
0100
,  // measure 61
1000
1000
0010
0000
,  // measure 62
0010
0001
0100
0000
0100
0001
0010
0000
,  // measure 63
0010
0001
0100
0000
0100
0000
0001
0000
,  // measure 64
1000
0010
0100
0000
0100
0010
1000
0000
,  // measure 65
1000
0010
0100
0000
0100
0010
1000
0000
,  // measure 66
0001
0100
0010
0000
0010
0100
0001
0000
,  // measure 67
0001
0100
0010
0000
0010
0100
0001
0000
,  // measure 68
1000
0001
0100
0001
,  // measure 69
1001
0110
1001
0110
,  // measure 70
1001
0000
0000
0000
;

//---------------dance-single - ----------------
#NOTES:
     dance-single:
     :
     Hard:
     13:
     0.598984,0.658268,0.062580,0.232442,0.563224,469.000000,462.000000,7.000000,26.000000,0.000000,0.000000,0.598984,0.658268,0.062580,0.232442,0.563224,469.000000,462.000000,7.000000,26.000000,0.000000,0.000000:
// measure 0
0000
0000
0000
0000
,  // measure 1
0000
0000
0000
0000
,  // measure 2
0000
0000
0000
0000
,  // measure 3
0000
0000
0000
0000
,  // measure 4
1000
0000
0000
0001
0000
0000
0100
0000
0001
0000
0000
0010
0000
0000
0100
0000
,  // measure 5
0010
0000
0000
0001
0000
0000
1000
0000
0100
0000
0010
0000
0100
0000
1000
0000
,  // measure 6
0010
0000
0000
0010
0000
0000
0100
0000
0001
0000
0000
0001
0000
0000
1000
0000
,  // measure 7
0100
0000
0000
0100
0000
0000
1000
0000
0000
0010
0000
0010
0000
0010
0000
0000
,  // measure 8
2000
0000
0001
0000
0010
0000
0001
0001
,  // measure 9
3002
0000
1000
0000
0000
0100
0100
0000
,  // measure 10
2003
0000
0010
0000
0001
0000
0010
0010
,  // measure 11
3200
0001
1000
0001
,  // measure 12
1300
0100
0000
1000
0000
0000
0001
0000
0010
0001
0000
0010
0000
0000
0001
0000
,  // measure 13
0100
0010
0000
0100
0000
0000
0010
0000
1000
0100
0000
1000
0000
0000
0001
0000
,  // measure 14
0100
0000
0000
0100
0000
0000
0010
0000
1000
0000
0000
1000
0000
0000
0001
0000
,  // measure 15
0010
0000
0000
0010
0000
0000
0001
0000
0100
0010
0000
0100
0000
0000
0000
0000
,  // measure 16
0001
1000
0000
0001
1000
0000
0010
0000
1000
0000
0000
0100
0000
0000
1000
0000
,  // measure 17
0001
0100
0000
0001
0100
0000
0001
0000
0010
0000
0000
0000
0001
0000
1000
0100
,  // measure 18
1000
0000
0000
0010
0000
0000
0100
0000
0010
0000
0000
1000
0000
0000
0001
0000
,  // measure 19
2000
3100
1001
0110
,  // measure 20
0001
1000
0000
0001
1000
0000
0010
0000
1000
0000
0000
0100
0000
0000
1000
0000
,  // measure 21
0001
0010
0000
0001
1000
0000
0100
0000
1000
0000
0001
0000
1000
0000
0100
0000
,  // measure 22
2000
0000
0000
0000
0000
3001
0010
0100
,  // measure 23
1000
0100
0000
0000
0001
0010
0000
0000
1000
0010
0000
0000
0001
0100
0000
0000
,  // measure 24
2002
0000
0000
0000
0000
0000
3003
0110
,  // measure 25
0000
0000
0000
0000
,  // measure 26
0001
1000
0000
0001
1000
0000
0100
0000
1000
0100
0000
1000
0100
0000
0010
0000
,  // measure 27
0001
0010
0000
0001
0010
0000
0100
0000
1000
0000
0000
0000
0000
0000
0000
0000
,  // measure 28
0010
1000
0000
0010
1000
0000
0100
0000
1000
0001
0000
1000
0001
0000
0010
0000
,  // measure 29
0001
0100
0000
0001
0100
0000
0010
0000
1000
0000
0000
0000
0001
0000
0000
0000
,  // measure 30
1000
0100
0000
1000
0100
0000
1000
0000
0001
0100
0000
0001
0100
0000
0001
0000
,  // measure 31
0010
0100
0000
0010
0100
0000
0010
0000
0100
0000
1000
0000
0001
0000
0000
0000
,  // measure 32
1000
0001
0000
1000
0001
0000
1000
0000
0100
1000
0000
0100
1000
0000
0001
0000
,  // measure 33
0010
0000
0000
0011
0000
0000
0001
0000
0200
0000
0000
0000
0000
0000
0000
0000
,  // measure 34
0301
0000
0000
1000
0000
0000
0100
0000
1000
0000
0000
0010
0000
0000
0100
0000
,  // measure 35
0010
0000
0000
1000
0000
0000
0001
0000
1000
0000
1000
0000
0001
0000
0001
0000
,  // measure 36
0100
0000
0000
0100
0000
0000
0010
0000
0000
0010
0000
0000
1000
0000
0001
0000
,  // measure 37
1000
0100
0010
0001
1000
0001
0010
0100
,  // measure 38
1000
0000
0000
1001
0000
0000
0001
0000
0010
0000
0000
0100
0000
0000
0010
0000
,  // measure 39
0001
0000
0000
1000
0000
0000
0100
0000
0010
0000
0100
0000
1000
0000
0001
0000
,  // measure 40
0010
0000
0000
0011
0000
0000
0001
0000
0200
0000
0000
0000
0310
0000
1000
0000
,  // measure 41
0001
0001
0010
0010
0100
0100
1000
1000
,  // measure 42
0020
0100
0000
0000
0032
1000
0000
0000
,  // measure 43
2003
0010
0000
0000
3002
0000
0000
1000
,  // measure 44
2003
0010
0000
0010
3200
0010
0000
1000
,  // measure 45
0302
0000
1000
0000
0100
0000
1000
1000
,  // measure 46
1003
0100
1000
0000
0010
0100
0010
0000
,  // measure 47
0100
0001
0100
0000
0001
0010
0001
0000
,  // measure 48
2000
0010
0010
0000
0000
3001
0010
0100
,  // measure 49
2000
3200
0320
0032
,  // measure 50
0103
0000
0100
0000
0100
0100
0100
0200
,  // measure 51
0000
0000
0000
0300
,  // measure 52
0001
1000
0000
0001
1000
0000
0100
0000
0010
0001
0000
0010
0001
0000
0100
0000
,  // measure 53
0010
1000
0000
0010
1000
0000
0001
0000
0100
0000
0001
0000
0010
0000
0100
0000
,  // measure 54
1000
0001
0000
1000
0001
0000
0010
0000
0001
0100
0000
0001
0100
0000
0010
0000
,  // measure 55
1000
0100
0000
1000
0001
0000
0010
0000
0001
0000
1000
0000
0100
0000
0010
0000
,  // measure 56
0001
1000
0000
0001
0100
0000
0010
0000
0100
0010
0000
1000
0010
0000
1000
0000
,  // measure 57
0100
1000
0000
0010
1000
0000
0100
0000
1000
0000
0001
0000
0010
0000
0000
0000
,  // measure 58
0001
1000
0000
0001
0100
0000
0001
0000
1000
0010
0000
1000
0100
0000
1000
0000
,  // measure 59
0010
0100
0000
0001
0100
0000
0010
0000
0100
0000
0001
0000
1000
0000
0001
0000
,  // measure 60
0010
0001
0000
0001
1000
0000
0100
0000
1000
0010
0000
0010
0100
0000
0001
0000
,  // measure 61
1000
0100
0000
0100
1000
0000
0010
0000
0200
0000
0000
0000
0301
0000
0000
0000
,  // measure 62
1000
0001
0000
0001
1000
0000
0010
0000
0100
0001
0000
0001
0100
0000
0010
0000
,  // measure 63
1000
0100
0000
0100
1000
0000
0010
0000
0200
0000
0000
0000
0301
0000
0000
0000
,  // measure 64
1000
0001
0000
0001
1000
0000
0100
0000
1000
0010
0000
0010
0100
0000
0001
0000
,  // measure 65
0010
0001
0000
0001
0100
0000
0010
0000
1000
0100
0000
0100
1000
0000
0010
0000
,  // measure 66
0100
0001
0000
0001
1000
0000
0100
0000
1000
0100
0000
0100
0010
0000
0001
0000
,  // measure 67
0010
0100
0000
0100
1000
0000
0001
0000
1000
0001
0000
0001
1000
0000
0001
0000
,  // measure 68
0010
0000
0001
0000
0100
0000
0010
0000
0100
0010
0000
0010
1000
0000
0001
0000
,  // measure 69
0100
0000
0001
0000
0100
0000
0010
0000
1000
0010
1000
0000
0010
0000
0200
0000
,  // measure 70
0000
0300
0000
0000
0000
0000
0000
0000
;
