#TITLE:SUNSET;
#SUBTITLE:;
#ARTIST:nc ft. NRG Factory;
#TITLETRANSLIT:;
#SUBTITLETRANSLIT:;
#ARTISTTRANSLIT:;
#GENRE:;
#CREDIT:;
#BANNER:SUNSET.png;
#BACKGROUND:SUNSET-bg.png;
#LYRICSPATH:;
#CDTITLE:;
#MUSIC:SUNSET.ogg;
#OFFSET:-2.140000;
#SAMPLESTART:65.061020;
#SAMPLELENGTH:15.000000;
#SELECTABLE:YES;
#BPMS:0.000000=146.979996
,92.000000=73.489998
,124.000000=146.979996
;
#STOPS:
;
#BGCHANGES:;
#KEYSOUNDS:;
#ATTACKS:;

//---------------dance-single - ----------------
#NOTES:
     dance-single:
     :
     Beginner:
     1:
     0.075669,0.141569,0.009631,0.000000,0.000000,55.000000,54.000000,1.000000,0.000000,0.000000,0.000000,0.075669,0.141569,0.009631,0.000000,0.000000,55.000000,54.000000,1.000000,0.000000,0.000000,0.000000:
0000
0000
0000
0000
,
0000
0000
0000
0000
,
0000
0000
0000
0000
,
1000
0000
0000
0000
,
0001
0000
0000
0000
,
0100
0000
0000
0000
,
0001
0000
0000
0000
,
1000
0000
0000
0000
,
0000
0000
0000
0000
,
0010
0000
0000
0000
,
0100
0000
0000
0000
,
0010
0000
0000
0000
,
0000
0000
0000
0000
,
1000
0000
0000
0000
,
0000
0000
0000
0000
,
0001
0000
0000
0000
,
0100
0000
0000
0000
,
0100
0000
0000
0000
,
0010
0000
0000
0000
,
0010
0000
0000
0000
,
1000
0000
0000
0000
,
1000
0000
0000
0000
,
1000
0000
0000
0000
,
0001
1000
0000
0000
,
0001
0000
0100
0000
,
0010
0000
0100
0000
,
0001
0000
1000
0000
,
0010
0000
1000
0000
,
0001
0000
0100
0000
,
0010
0000
0100
0000
,
0001
0000
1000
0000
,
1001
0000
0000
0000
,
1000
0000
0000
0000
,
0001
0000
0000
0000
,
0100
0000
0000
0000
,
0010
0000
0000
0000
,
0100
0000
0000
0000
,
0001
0000
0000
0000
,
1000
0000
0000
0000
,
0010
0000
0000
0000
,
0100
0000
0000
0000
,
0010
0000
0000
0000
,
1000
0000
0000
0000
,
0001
0000
0000
1000
,
0000
0000
0000
0000
,
0001
0000
0000
0000
,
0100
0000
0000
0000
,
0010
0000
0100
0000
,
0001
0000
1000
0000
,
0010
0000
0000
0000
;

//---------------dance-single - ----------------
#NOTES:
     dance-single:
     :
     Hard:
     11:
     0.452637,0.826303,0.134828,0.385223,0.211873,329.000000,315.000000,14.000000,40.000000,0.000000,0.000000,0.452637,0.826303,0.134828,0.385223,0.211873,329.000000,315.000000,14.000000,40.000000,0.000000,0.000000:
// measure 0
0000
0000
0000
0000
,  // measure 1
0000
0000
0000
0000
,  // measure 2
0000
0000
0000
0000
,  // measure 3
1000
0001
0000
0010
0001
0100
0001
0010
,  // measure 4
0001
1000
0000
1000
0010
1000
0001
0100
,  // measure 5
0001
1000
0100
0000
0010
0001
0010
0100
,  // measure 6
2000
0000
0000
0000
3001
0000
0000
0000
1000
0000
0000
0010
0000
0000
0100
0000
,  // measure 7
0001
1000
0010
1000
0001
0100
0010
0000
,  // measure 8
1000
0001
1000
0000
0100
0010
0001
0000
,  // measure 9
2001
0000
0000
3002
0000
0000
1003
0010
,  // measure 10
1000
0200
0000
0000
1300
0001
0010
0001
,  // measure 11
0100
0010
2000
0000
3001
0100
0001
0000
,  // measure 12
0100
0010
1000
0000
0001
0100
0010
0100
,  // measure 13
0002
0000
0000
2003
0000
0000
3020
0000
,  // measure 14
0130
0001
0100
0001
1000
0010
0001
0010
,  // measure 15
1000
0000
1001
0000
0001
0010
1000
0000
,  // measure 16
0010
0000
0001
0000
0100
0010
1000
0000
,  // measure 17
0010
0000
0100
0000
0001
1000
0001
0000
,  // measure 18
0010
0100
0010
0000
0100
0000
1000
0001
,  // measure 19
1001
0000
0010
0000
0100
0001
0100
0000
,  // measure 20
1000
0001
0100
0010
,  // measure 21
0100
0000
0001
0000
0010
0100
1000
0000
,  // measure 22
0001
0100
0001
0000
1000
0000
0001
0000
,  // measure 23
1001
0001
0100
1000
0100
0001
0010
1000
,  // measure 24
0011
0100
1000
0100
0001
1000
0002
0000
,  // measure 25
0103
0000
0000
0110
0000
0000
0001
0100
0001
0000
1000
0000
0001
0000
0010
0000
,  // measure 26
2000
3010
0001
0100
0020
1030
0001
1000
,  // measure 27
1010
0000
0000
0000
0010
0000
0100
0000
0001
0000
0000
0000
1000
0000
0010
0000
0100
0000
0010
0000
1000
0000
0001
1000
0000
0000
0010
0000
1000
0000
0100
1000
,  // measure 28
0000
0000
0001
0000
0100
0000
0010
0100
0000
0000
0010
0000
1000
0000
0001
1000
0000
0000
0010
0000
0100
0000
0001
0100
0000
0000
0001
0000
1000
0000
0001
0010
,  // measure 29
0000
0000
0100
0000
1000
0000
0001
1000
0000
0000
0010
0000
0100
0000
0001
0100
0000
0000
0010
0000
1000
0000
0010
0100
0000
0000
0001
0000
0100
0000
0010
0100
,  // measure 30
0000
0000
0010
0000
1000
0000
0001
1000
0000
0000
0010
0000
0100
0000
0001
0100
0000
0000
0010
0000
1000
0000
0100
0000
0020
0000
0000
0000
0032
0000
0000
0000
,  // measure 31
0103
0010
1000
0010
0100
0001
0010
0001
,  // measure 32
0000
0001
0100
0001
0000
1000
0010
1000
,  // measure 33
0100
0001
0100
0010
0001
0010
0100
1000
,  // measure 34
0000
0001
1000
0001
0000
0010
0100
0010
,  // measure 35
0000
0100
0001
0100
0000
0100
1000
0001
,  // measure 36
0000
0010
0100
0010
0100
2000
3200
0320
,  // measure 37
0032
1003
1001
1000
,  // measure 38
1001
0000
0000
0000
0001
0000
0100
0000
0010
0000
0000
1000
0001
0000
1000
0000
,  // measure 39
0200
0000
0000
0320
0000
0000
0032
0000
,  // measure 40
1003
0000
0001
0100
0010
1000
0010
0100
,  // measure 41
0002
0000
1000
0000
1003
0000
0001
0100
,  // measure 42
2000
0000
0100
0000
3002
0000
0013
1000
,  // measure 43
0020
0000
0031
0200
0000
0310
2000
0000
,  // measure 44
0001
0000
3100
0001
0100
0000
0010
1000
,  // measure 45
0020
0000
0100
0000
0031
0000
1000
0001
,  // measure 46
2000
0001
3010
0110
,  // measure 47
2002
0000
3003
0202
0000
0303
0010
1000
,  // measure 48
0001
1000
0010
1000
0001
0000
0100
0000
,  // measure 49
2010
3002
0203
0310
,  // measure 50
0102
0023
0230
2300
,  // measure 51
0002
0000
0000
0000
,  // measure 52
3003
0000
0000
0000
;

//---------------dance-single - ----------------
#NOTES:
     dance-single:
     :
     Easy:
     3:
     0.133452,0.188759,0.019261,0.048153,0.000000,97.000000,95.000000,2.000000,5.000000,0.000000,0.000000,0.133452,0.188759,0.019261,0.048153,0.000000,97.000000,95.000000,2.000000,5.000000,0.000000,0.000000:
0000
0000
0000
0000
,
0000
0000
0000
0000
,
0000
0000
0000
0000
,
1000
0000
1000
0000
,
0010
0000
0010
0000
,
0100
0000
0100
0000
,
0001
0000
0001
0000
,
1000
1000
0000
0000
,
0001
0000
0000
0000
,
0200
0000
0320
0000
,
2030
0000
0000
0000
,
3001
0001
0000
0000
,
0100
0000
0000
0000
,
0200
0000
0320
0000
,
1030
0000
1000
0000
,
0001
0001
0000
0000
,
0100
0000
0100
0000
,
0010
0000
0010
0010
,
0010
0000
1000
0000
,
1000
0000
0001
0001
,
0001
0000
0100
0000
,
0010
0000
0100
0000
,
0001
0000
0010
0000
,
0100
0100
1000
0000
,
0001
0000
1000
0000
,
1001
0000
0100
0000
,
0110
0000
0010
0000
,
1000
0000
1000
0000
,
0001
0010
0001
0100
,
0001
1000
0001
0000
,
0010
0000
0100
0010
,
1000
0000
1000
0000
,
0001
0000
0000
0000
,
0100
0000
0100
0000
,
0010
0000
0010
0000
,
1000
0000
1000
0000
,
0001
0000
0001
0000
,
0100
0000
0100
0000
,
0010
0010
0010
1000
,
1000
0000
0001
0000
,
0000
0000
0100
0000
,
0010
0000
0010
0000
,
1000
0000
1000
0000
,
0001
0000
0001
0000
,
0001
0000
0000
0000
,
0100
0000
0000
0000
,
0100
0000
0000
0000
,
0010
1000
0010
0000
,
0100
0000
0001
0000
,
0100
0000
0000
0000
;

//---------------dance-single - ----------------
#NOTES:
     dance-single:
     :
     Medium:
     7:
     0.290293,0.425671,0.077045,0.423745,0.009631,211.000000,203.000000,8.000000,44.000000,0.000000,0.000000,0.290293,0.425671,0.077045,0.423745,0.009631,211.000000,203.000000,8.000000,44.000000,0.000000,0.000000:
0000
0000
0000
0000
,
0000
0000
0000
0000
,
0000
0000
0000
0000
,
1000
1000
0001
0001
,
0100
0100
0010
0010
,
1000
1000
0001
0001
,
0100
1000
0100
0001
,
0010
0200
0000
0000
,
1300
0001
1000
0001
,
0020
0000
0000
0032
0000
0000
1003
0100
,
2000
0000
3010
1000
,
0010
0100
0020
0000
1000
0000
0031
0000
,
1000
0010
1000
0010
,
0201
0000
0000
0302
0000
0000
2003
0000
,
3001
1000
0001
1000
,
0010
0000
0100
0000
0010
0100
0010
0000
,
1000
0001
1000
0001
,
0100
0000
0001
0000
0100
0010
0100
0000
,
0010
1000
0010
1000
,
0001
0000
0100
0000
0001
1000
0001
0000
,
1000
0010
0100
0010
,
1000
0000
0001
0000
1000
0010
1000
0000
,
0001
0100
0010
0100
,
0110
0010
1000
0001
1000
0000
0010
0000
,
0200
0000
0320
0000
,
2030
0000
0000
3002
0000
0000
2003
0000
0000
0000
0000
0000
3001
0000
0100
0000
,
0001
1000
0010
1000
,
0200
0000
0000
0320
0000
0000
0032
0000
1003
0000
0010
0000
1000
0000
0010
0000
,
0100
0010
1000
0010
0100
0010
1000
0100
,
0001
0100
1000
0010
0001
0010
1000
0100
,
0001
0100
1000
0010
0001
0010
2000
3200
,
0320
0000
0000
0032
0000
0000
0203
0000
,
0010
0300
1000
0000
0010
0000
0100
0000
,
0002
1000
1003
0010
,
2000
0010
3020
0100
,
0230
0000
0000
0302
0000
0000
2003
0000
,
0001
0000
3100
0000
0001
0000
0010
0100
,
2000
3001
0100
0001
,
1000
0010
0110
1010
,
1002
0000
0000
0203
0000
0000
0320
0000
,
0000
1030
0001
1000
,
0020
0100
0130
0001
,
0200
0010
0302
1000
,
2003
0000
0000
3020
0000
0000
0230
0000
,
0001
0301
1000
0010
,
1000
0001
0100
0010
,
0100
0001
0010
0100
,
2002
0000
3003
0220
0000
0330
0001
0000
,
0100
0010
0100
0001
,
2000
3010
0100
0010
,
2001
0000
0001
0000
,
0002
0000
0000
0000
,
3003
0000
0000
0000
;

//---------------dance-single - ----------------
#NOTES:
     dance-single:
     :
     Challenge:
     13:
     0.619108,0.826303,0.144459,0.337070,0.635618,450.000000,435.000000,15.000000,35.000000,0.000000,0.000000,0.619108,0.826303,0.144459,0.337070,0.635618,450.000000,435.000000,15.000000,35.000000,0.000000,0.000000:
// measure 0
0000
0000
0000
0000
,  // measure 1
0000
0000
0000
0000
,  // measure 2
0000
0000
0000
0000
,  // measure 3
1000
0001
1000
0000
0100
0000
0010
0000
0001
1000
0000
0100
1000
0000
0010
0000
,  // measure 4
0100
0001
0000
0100
0001
0000
1000
0000
0010
1000
0000
0001
1000
0000
0001
0000
,  // measure 5
0100
0001
0000
1000
0001
0000
0100
0000
0010
0100
0000
0001
0100
0000
0010
0000
,  // measure 6
1000
0001
0000
1000
0100
0000
0010
0000
0001
0100
0000
0001
0010
0000
0100
0000
,  // measure 7
2000
0000
3002
0000
0023
0000
0000
0000
0031
0100
0000
0010
0100
0000
0001
0000
,  // measure 8
1000
0010
0000
1000
0001
0000
0100
0000
0010
0100
0000
0001
0100
0000
0000
0000
,  // measure 9
1020
0000
0000
2030
0000
0000
3001
0010
,  // measure 10
1000
0000
0020
0000
0000
0000
0000
0000
0031
1000
0001
0000
0100
0000
0100
0000
,  // measure 11
0010
0000
1000
0000
0002
0000
0000
0000
0103
0010
0000
1000
0010
0000
1000
0000
,  // measure 12
0001
0000
0010
0000
0001
0000
0000
0000
1000
0010
0000
1000
0010
0000
0100
0000
,  // measure 13
0102
0000
1003
0010
1020
0000
0130
0100
,  // measure 14
0001
0010
0001
0000
0100
0000
0010
0000
1000
0100
1000
0000
0010
0100
0010
0100
,  // measure 15
0001
0000
1000
0000
0001
0000
0000
0000
1000
0010
1000
0010
0100
0000
0000
0000
,  // measure 16
0001
0000
0100
0000
0001
0000
0000
0000
1000
0010
1000
0000
0100
0000
0010
0000
,  // measure 17
0001
0100
0000
0100
0010
0000
1000
0000
0001
0100
0001
0100
0010
0000
0000
0000
,  // measure 18
1000
0010
0000
1000
0010
0000
0100
0000
0001
0010
0000
0001
0010
0000
0100
0000
,  // measure 19
1100
0000
0000
0000
0010
0000
0000
0000
1000
0001
0100
0001
0100
0000
0000
0000
,  // measure 20
0010
1000
0010
0000
0100
0000
0001
0000
0100
0010
0000
1000
0010
0000
0100
0000
,  // measure 21
0001
0010
0000
0100
0010
0000
0001
0000
0010
0100
0010
0100
1000
0000
0001
0010
,  // measure 22
0001
0100
0001
1000
0100
0000
1100
0000
,  // measure 23
1001
0000
0001
0100
1000
0100
0001
0010
0001
0000
0001
1000
0010
1000
0010
0000
,  // measure 24
2001
3200
0302
0203
2300
0010
0010
0010
,  // measure 25
3020
0000
0000
0230
0000
0000
0302
0000
1000
0000
1000
0000
1000
0000
1000
0000
,  // measure 26
0013
0100
0001
0100
1000
0100
0001
1000
,  // measure 27
1010
0000
0000
0000
0010
0000
0100
0000
0001
0000
0100
0000
0010
0000
1000
0000
0100
0000
0010
0000
0001
0000
1000
0010
0000
0000
1000
0000
0001
0000
0100
0001
,  // measure 28
0000
0000
1000
0000
0100
0000
0010
0100
0000
0000
0010
0000
0001
0000
1000
0001
0000
0000
0010
0000
0100
0000
1000
0100
0000
0000
1000
0000
0001
0000
0100
0010
,  // measure 29
0000
0000
0100
0000
0001
0000
1000
0001
0000
0000
0010
0000
0100
0000
0001
0100
0000
0000
0010
0000
0001
0000
0010
0100
0000
0000
1000
0000
0100
0000
0010
0100
,  // measure 30
0000
0000
0010
0000
0001
0000
1000
0001
0000
0000
0010
0000
0100
0000
1000
0100
0000
0000
0010
0000
0001
0000
1000
0000
0020
0000
0000
0000
0230
0000
0000
0000
,  // measure 31
0301
0000
0100
0000
0010
0000
1000
0010
0000
0000
1000
0000
0001
0000
1000
0001
,  // measure 32
0000
0000
0100
0000
0010
0000
1000
0010
0000
0000
1000
0000
0001
0000
1000
0001
,  // measure 33
1000
0000
0001
0000
0010
0000
0001
0010
0000
0000
0001
0000
1000
0000
0100
1000
,  // measure 34
0200
0000
1000
0000
0310
0000
0100
0001
0000
0000
0100
0000
0001
0000
0010
0100
,  // measure 35
2000
0000
0001
0000
3001
0000
0010
0001
1000
0000
0010
0000
1000
0000
0100
1000
,  // measure 36
0001
0000
0010
0000
0100
0000
0010
0001
1000
0000
0002
0000
0203
0000
0320
0000
,  // measure 37
2030
3001
1001
1000
,  // measure 38
1001
0000
0000
0000
0001
0000
0100
0000
0010
0000
0000
1000
0010
0000
1000
0000
,  // measure 39
0100
0000
0010
0000
0100
0001
0100
0001
0000
0000
0100
0000
1000
0010
1000
0010
,  // measure 40
0000
0000
0100
0000
0001
1000
0001
1000
0000
0000
0100
0000
0010
0100
0010
0100
,  // measure 41
0002
0000
0100
0000
1003
0000
0100
0001
0100
0000
0010
0000
0001
0000
0100
1000
,  // measure 42
0100
0000
0001
0000
0010
0000
0001
0100
0020
0000
1000
0000
1030
0000
0001
0010
,  // measure 43
0001
0000
0010
0000
0100
0000
0001
0100
0010
0000
0001
0000
0010
0000
1000
0010
,  // measure 44
2000
0000
0010
0000
3001
0000
0100
0001
1000
0000
0100
0000
0010
0000
0001
1000
,  // measure 45
0001
1000
0100
0010
1001
0000
1000
0010
,  // measure 46
0110
0000
0000
0000
0100
0010
0100
0010
1000
0001
1000
0001
1000
0001
1000
0001
,  // measure 47
2000
0000
3000
0002
0100
0103
0010
1000
,  // measure 48
0010
1000
0001
1000
1020
0000
1030
0000
,  // measure 49
0102
0100
0100
0103
,  // measure 50
1002
2003
0000
0000
,  // measure 51
0020
0000
0000
0000
,  // measure 52
3030
0000
0000
0000
;
