#TITLE:Set Me Free;
#SUBTITLE:;
#ARTIST:kors k vs. L.E.D.;
#TITLETRANSLIT:;
#SUBTITLETRANSLIT:;
#ARTISTTRANSLIT:;
#GENRE:;
#CREDIT:;
#BANNER:Set Me Free.png;
#BACKGROUND:;
#LYRICSPATH:;
#CDTITLE:;
#MUSIC:Set Me Free.ogg;
#OFFSET:-3.001000;
#SAMPLESTART:91.354774;
#SAMPLELENGTH:14.999995;
#SELECTABLE:YES;
#BPMS:0.000000=152.000000
;
#STOPS:
;
#BGCHANGES:;
#KEYSOUNDS:;
#ATTACKS:;

//---------------dance-single - ----------------
#NOTES:
     dance-single:
     :
     Beginner:
     3:
     0.131819,0.144428,0.000000,0.000000,0.000000,115.000000,115.000000,0.000000,0.000000,0.000000,0.000000,0.131819,0.144428,0.000000,0.000000,0.000000,115.000000,115.000000,0.000000,0.000000,0.000000,0.000000:
0000
0000
0000
0000
,
0000
0000
0000
0000
,
0000
0000
0000
0000
,
0000
0000
0000
0000
,
0000
0000
0000
0000
,
0000
0000
0000
0000
,
0000
0000
0000
0000
,
0000
0000
0000
0000
,
1000
0000
0000
0000
,
0001
0000
0100
0000
,
0001
0000
1000
0000
,
1000
0000
0000
0000
,
0010
0000
0010
0000
,
0100
0000
0100
0000
,
0001
0000
0001
0000
,
1000
0000
1000
0000
,
0100
0000
0100
0000
,
1000
0000
1000
0000
,
0001
0000
0001
0000
,
0100
0000
0100
0000
,
0010
0000
0010
0000
,
1000
0000
1000
0000
,
0001
0000
0001
0000
,
0100
0000
0100
0000
,
0010
0000
0010
0000
,
1000
0000
1000
0000
,
0001
0000
0001
0000
,
1000
0000
1000
0000
,
0100
0000
0000
0000
,
1000
0000
0000
0000
,
0001
0000
0000
0000
,
1000
0000
0000
0000
,
0001
0000
0000
0000
,
1000
0000
0000
0000
,
0001
0000
0000
0000
,
1000
0000
0000
0000
,
0001
0000
0001
0000
,
0100
0000
0100
0000
,
0010
0000
0000
0000
,
0010
0000
0010
0010
,
0000
1000
0000
1000
,
0000
1000
0000
0000
,
0001
0000
0001
0000
,
1000
0000
1000
0000
,
0100
0000
0100
0000
,
0100
0000
1000
0000
,
0001
0000
1000
0000
,
0001
0000
1000
0000
,
0001
0000
0100
0000
,
0010
0000
0100
0000
,
0001
0000
1000
0000
,
0001
0000
1000
0000
,
0100
0000
0100
0000
,
1000
0000
1000
0000
,
0001
0000
0001
0000
,
0100
0000
0000
0000
,
0100
0000
0100
0000
,
0010
0000
0010
0000
,
1000
0000
1000
0000
,
0001
0000
0001
0000
,
1000
0000
1000
0000
,
0001
0000
0000
0000
,
0100
0000
0100
0000
,
0010
0000
0010
0000
,
1000
0000
1000
0000
,
0001
0000
0001
0000
,
0100
0000
0100
0000
,
0010
0000
0000
0000
,
1000
0000
0001
0000
,
1000
0000
0001
0000
,
1000
0000
0001
0000
,
0100
0000
0001
0000
,
0100
0000
0000
0000
;

//---------------dance-single - ----------------
#NOTES:
     dance-single:
     :
     Easy:
     6:
     0.241859,0.436291,0.168499,0.016048,0.000000,211.000000,190.000000,21.000000,2.000000,0.000000,0.000000,0.241859,0.436291,0.168499,0.016048,0.000000,211.000000,190.000000,21.000000,2.000000,0.000000,0.000000:
0000
0000
0000
0000
,
0000
0000
0000
0000
,
0000
0000
0000
0000
,
0000
0000
0000
0000
,
0000
0000
0000
0000
,
0000
0000
0000
0000
,
0000
0000
0000
0000
,
0000
0000
0000
0000
,
0001
1000
0001
0000
,
0100
0010
0100
0000
,
0010
1000
0001
0000
,
1000
0001
0100
0000
,
0100
0010
0100
0000
,
0010
1000
0001
0000
,
0001
0100
0001
0000
,
1000
0100
1000
1000
,
0001
0010
0001
0000
,
1000
0010
1000
0001
,
0100
0001
0010
0001
,
1000
0100
1000
0010
,
0100
0100
0001
0001
,
1000
1000
0010
0010
,
0100
0001
1000
0000
,
0001
1000
0100
0100
,
1000
0010
0100
0100
,
0001
0010
0100
1000
,
0001
0100
1000
0100
,
1001
0000
0110
0000
,
1001
0000
0000
0000
,
0001
0000
0000
0000
,
0010
0000
0000
0000
,
0001
0000
0000
0000
,
1000
0000
0000
0000
,
0100
0000
0000
1000
,
1000
0000
0000
0000
,
0010
0000
0010
0000
,
0100
0001
0100
0000
,
0001
0000
0001
0000
,
1000
0000
1000
0000
,
0010
0000
0010
0000
,
0100
0000
0100
0000
,
0001
0000
0001
0000
,
1000
0000
1000
0000
,
0010
0000
0010
0000
,
0100
0001
0100
0000
,
0001
0001
0000
1000
,
1000
1000
0000
0000
,
0010
0010
0010
0000
,
0001
0000
0001
0000
,
1000
1000
1000
0000
,
0010
0010
0010
0000
,
0100
0100
0100
0000
,
0001
0000
1000
0000
,
0001
0000
0100
0000
,
0010
0000
1000
0000
,
1001
0000
0000
0000
,
1000
0100
0001
0100
,
1000
0010
0001
0010
,
1000
1100
0001
0101
,
1100
0110
1001
0110
,
0001
0010
1000
0010
,
0001
0100
1000
0100
,
0101
0100
1100
1000
,
1010
0010
0011
0001
,
0101
1000
1001
1000
,
0001
0100
0010
0100
,
0110
0010
1000
0100
,
0001
0100
1000
0101
,
0001
0010
1000
0010
,
0001
0100
1100
0100
,
0101
0001
0001
0010
,
0010
1000
0100
0001
,
0220
0000
0330
0000
;

//---------------dance-single - ----------------
#NOTES:
     dance-single:
     :
     Medium:
     12:
     0.447038,0.552636,0.393164,0.353045,0.064190,390.000000,341.000000,49.000000,44.000000,0.000000,0.000000,0.447038,0.552636,0.393164,0.353045,0.064190,390.000000,341.000000,49.000000,44.000000,0.000000,0.000000:
0000
0000
0000
0000
,
0000
0000
0000
0000
,
0000
0000
0000
0000
,
0000
0000
0000
0000
,
0000
0000
0000
0000
,
0000
0000
0000
0000
,
0000
0000
0000
0000
,
0000
0000
0000
0000
,
1001
0000
0001
1000
0001
0000
1000
0010
,
0100
0000
0001
0100
0010
0000
1000
0001
,
1000
0000
0001
1000
0001
1000
0001
1000
,
2002
0000
0000
3003
,
0110
0000
0100
0001
1000
0000
2001
0000
,
3010
1000
1000
0001
,
0210
0310
0100
0001
,
1000
0000
0100
1000
0001
0000
1000
0000
,
0101
0001
0100
0010
1000
0001
1000
0000
,
0010
0000
1000
0000
0100
0010
0100
0000
,
0010
0000
0001
0000
1000
0100
0010
0001
,
0100
0000
0010
1000
0001
1000
0110
0000
,
1000
1000
0010
0000
0001
0000
0010
0000
,
1000
1000
0100
0000
0001
0000
0100
0000
,
1000
1000
0001
0000
0010
0000
1000
0000
,
0010
0001
0010
0000
0001
0100
0001
0000
,
1000
0001
0100
0000
1100
0000
0100
0000
,
0010
1000
0001
0101
,
0001
0010
0100
0000
0010
0001
0100
0000
,
0010
1000
0100
1100
,
1002
0000
2003
0000
,
3200
0000
0320
0000
,
0032
0000
2003
0000
,
3020
0000
0230
0000
,
0302
2003
3002
2003
,
3020
0230
0320
0230
,
0302
0023
0032
0023
,
0032
0000
1000
1000
1003
0000
0010
0000
,
0100
0001
1000
0000
0001
0100
0010
0100
,
0000
1010
0000
2001
0000
3001
0100
0010
,
0000
1010
0000
2200
0000
3300
1000
0001
,
0000
0101
0000
0100
0010
1000
0100
0020
,
0000
0031
1000
0001
0100
0001
0000
1001
,
0000
1010
0000
0220
0000
0330
0001
1000
,
0000
1010
0000
0220
0000
0330
0100
0001
,
0000
0011
0000
0010
0001
0010
0100
2000
,
0000
3001
0001
1000
0010
1000
0001
0100
,
0000
0101
0000
2002
0000
3003
1000
0010
,
0000
1010
0000
2200
0000
3300
0001
0010
,
0000
0011
0000
0001
1000
0001
1000
0001
,
0000
1000
0010
1000
0010
0100
0001
1000
,
0000
1001
0000
2020
0000
3030
0100
0001
,
0000
0101
0000
2200
0000
3300
0100
0001
,
0000
1001
0000
1000
0100
1000
0001
0100
,
0001
0000
1000
0001
1000
0000
0010
1000
,
0010
0000
0100
0001
0100
0000
0001
1000
,
0001
1000
0010
0100
,
1001
0000
0000
0000
,
0010
0000
0000
0010
1000
0000
0000
1000
0100
0000
0000
0100
0001
0000
0000
0001
,
0100
0000
0000
0100
1000
0000
0000
1000
0010
0000
1000
0000
0010
0000
0100
0000
,
0001
0000
0010
0000
0001
0000
0100
0000
0010
0000
1000
0001
0000
0001
0000
0001
,
0100
0010
0001
0100
1001
0000
0110
0000
,
1001
0110
1001
0110
,
0001
0010
1100
0000
0011
0000
1100
0000
,
1000
0001
1000
0100
0010
0001
0010
0010
,
0100
0010
0100
0000
0010
0001
1001
0000
,
1000
0000
0000
1000
0001
0000
0000
0001
0100
0000
0000
0100
0010
0000
0000
0010
,
0100
0000
0000
0100
0001
0000
0000
0001
1000
0000
0000
1000
0001
0000
0001
0000
,
0001
0100
0100
0010
0100
1000
0100
0001
,
1001
0110
1001
0110
,
1001
0000
1000
0000
0100
0010
0001
0001
,
0010
0100
1000
1000
0100
0010
0001
0001
,
1000
0100
0001
0010
1000
0001
0010
0001
,
1000
0100
0010
0001
0100
0010
0100
0010
,
2002
0000
3003
0000
;

//---------------dance-single - ----------------
#NOTES:
     dance-single:
     :
     Hard:
     15:
     0.617829,0.790741,0.441306,0.513520,0.453342,539.000000,484.000000,55.000000,64.000000,0.000000,0.000000,0.617829,0.790741,0.441306,0.513520,0.453342,539.000000,484.000000,55.000000,64.000000,0.000000,0.000000:
// measure 0
0000
0000
0000
0000
,  // measure 1
0000
0000
0000
0000
,  // measure 2
0000
0000
0000
0000
,  // measure 3
0000
0000
0000
0000
,  // measure 4
0000
0000
0000
0000
,  // measure 5
0000
0000
0000
0000
,  // measure 6
0000
0000
0000
0000
,  // measure 7
0000
0000
0000
0000
,  // measure 8
1001
0000
0000
0000
1000
0000
0010
1000
0010
0000
0000
0000
1000
0000
0001
1000
,  // measure 9
0001
0000
0000
0000
1000
0000
0100
1000
0100
0000
0000
0000
1000
0000
0001
0010
,  // measure 10
0001
1001
0110
1001
,  // measure 11
0220
0000
0000
0330
,  // measure 12
1001
0000
0001
0100
1000
0100
0002
0000
,  // measure 13
0003
1000
0100
0001
0100
2000
0000
3010
,  // measure 14
0210
0000
0301
0010
0012
0000
1003
0010
,  // measure 15
1000
0001
0000
0001
1000
0000
0010
0000
0100
0001
0000
0001
1000
0000
0001
0000
,  // measure 16
0010
0000
0001
1000
0001
0000
0100
0000
0010
0000
1000
0100
1000
0000
0001
0000
,  // measure 17
0010
0000
0001
0000
0100
0000
0010
0000
0100
0000
0001
1000
0001
0000
1000
0000
,  // measure 18
0010
0000
0100
0000
0001
0000
0010
0000
0001
0000
1000
0100
1000
0000
0100
0000
,  // measure 19
0001
0000
0100
0000
0010
0001
0100
0001
0010
0000
0100
0000
1001
0000
0000
0000
,  // measure 20
0001
0100
0000
0010
0100
0000
0001
0100
0000
0010
0100
0000
0001
0000
0010
0000
,  // measure 21
0100
0001
0000
0100
1000
0000
0100
0001
0000
0100
1000
0000
0100
0000
0001
0000
,  // measure 22
0100
0010
0000
0001
0010
0000
0100
0010
0000
0001
0100
0000
0001
0000
1001
0000
,  // measure 23
0001
0100
0010
0100
1000
0000
0100
0000
1000
0100
0010
0100
0001
0000
0010
0000
,  // measure 24
1001
0000
0001
0000
0101
0000
0000
0000
0100
0001
0000
0001
1000
0000
0010
0000
,  // measure 25
1000
0100
0000
0100
1000
0000
0001
0000
0010
0001
0000
0001
0100
0000
0010
0000
,  // measure 26
1000
0100
1000
0100
1000
0000
0001
0000
0100
0001
0000
0001
1000
0000
0001
0000
,  // measure 27
0101
0000
0000
0011
0000
0000
0110
0000
1100
0000
0000
1001
0000
0000
0101
0000
,  // measure 28
1002
1000
0010
1000
,  // measure 29
0023
0100
0001
0100
,  // measure 30
0032
1000
0010
1000
,  // measure 31
0023
0000
0100
0000
,  // measure 32
0032
0000
0000
0000
,  // measure 33
2003
0000
0000
0000
,  // measure 34
3010
0000
0010
0000
0101
0000
0000
0000
1000
0000
1000
0000
0001
0010
0100
1000
,  // measure 35
0001
0000
0000
0000
1000
0000
0001
1000
0010
0000
0000
0000
0110
0000
0000
0000
,  // measure 36
0100
0001
1000
0001
0010
0100
1000
0020
,  // measure 37
0030
0020
0030
0020
0000
0030
1000
0002
,  // measure 38
0003
0002
0003
0002
0000
0003
1000
0200
,  // measure 39
0300
0200
0300
0100
0001
0100
1000
0010
,  // measure 40
0000
0001
0010
1000
0100
0010
1000
0020
,  // measure 41
0030
0020
0030
0020
0000
0031
1000
0002
,  // measure 42
0003
0002
0003
1002
0000
1003
0010
0200
,  // measure 43
0300
0200
0300
0200
0320
2030
3200
0320
,  // measure 44
0000
0031
0100
0010
0100
1000
0100
0002
,  // measure 45
0003
1002
0003
0102
0000
0003
0100
0120
,  // measure 46
0030
1020
0030
0021
0000
0030
1000
1200
,  // measure 47
0300
0210
0300
0021
0032
0023
0230
2300
,  // measure 48
0000
3001
0100
0010
1000
0010
0001
2020
,  // measure 49
3030
2200
3300
0022
0033
0100
0010
0220
,  // measure 50
0330
2020
3030
0202
0000
0303
0001
2002
,  // measure 51
3003
0000
2020
0000
3030
0000
0001
0000
0010
0100
0010
0000
0100
1000
0100
0000
,  // measure 52
0110
0000
0010
0001
1000
0000
0000
0000
1001
0000
0001
0000
0100
0000
0001
1000
,  // measure 53
0010
0000
0000
0000
1000
0000
0001
0100
0010
0000
0000
0000
1000
0000
0010
1000
,  // measure 54
0001
0000
0001
0000
0110
0000
1000
0000
0010
1000
0100
0010
0001
1000
0001
0000
,  // measure 55
0000
0000
0000
0000
,  // measure 56
1001
0000
0001
0000
0100
0010
0100
0000
0010
1000
0010
0000
1000
0001
1000
0000
,  // measure 57
1010
0000
0010
0100
0001
0100
0010
0000
1000
0100
0000
0001
0100
0000
1000
0000
,  // measure 58
0010
0000
0010
0000
0100
0001
1000
0001
0100
0000
0010
1000
0000
0100
0000
0001
,  // measure 59
0100
0000
1100
0000
0110
0000
0010
0001
0100
0000
0000
1000
0100
0000
0001
0000
,  // measure 60
0010
0000
0100
0000
1000
0100
1000
0000
0100
0010
0100
0000
0001
0010
0001
0000
,  // measure 61
1000
0100
0000
0100
0001
0100
0000
0100
0010
0001
0000
1000
0100
0010
0100
0000
,  // measure 62
1000
0001
0010
0100
0010
0100
1000
0001
1000
0000
0001
0100
0000
0110
0000
0010
,  // measure 63
0001
0000
0010
0000
1010
0000
0010
0000
0100
0001
0010
0100
1000
0000
0001
0000
,  // measure 64
0101
0000
0100
0000
0001
0000
1000
0000
0010
1000
0000
1000
0100
0000
1000
0000
,  // measure 65
0001
0010
0000
0010
1000
0000
0100
0000
1000
0100
0000
0100
0001
0000
0010
0000
,  // measure 66
1000
0010
0000
0010
0001
0000
0100
0000
1000
0100
0000
0100
0001
0000
0010
0000
,  // measure 67
1001
0100
1001
0010
1001
0100
1001
0010
,  // measure 68
1001
0000
0100
0000
0010
0001
0010
0000
0001
1000
0000
1000
0001
0100
0001
0000
,  // measure 69
0010
0100
0000
0010
0100
1000
0100
0000
1000
0001
0000
0010
0001
0100
0010
0000
,  // measure 70
1010
0000
0100
0000
0010
0000
0001
0000
0100
0001
1000
0001
1000
0000
0010
0000
,  // measure 71
0101
0000
0010
0000
0100
0000
1000
0000
1000
0100
0010
0001
1000
0010
0100
0010
,  // measure 72
0002
0020
0000
0000
,  // measure 73
0033
0000
0000
0000
;
